Классический форум-трекер
canvas not supported
Нас вместе: 4 166 418

Adriano Celentano - Dormi Amore La Situazione Non Е Buona (2007) [ALAC|Lossless]<симфонический рок, блюз, румба, инструментальная музыка>


 
 
RSS
Начать новую тему   Ответить на тему    Торрент-трекер NNM-Club -> Аудио и Видео -> Музыка Lossless (ALAC)
Автор Сообщение
Glebany ®
 
Стаж: 10 лет 8 мес.
Сообщений: 200
Ratio: 142.288
Поблагодарили: 5154
100%
Adriano Celentano - Dormi Amore La Situazione Non Е Buona (2007)
Год: 2007
Жанр: симфонический рок, блюз, румба, инструментальная музыка
Продолжительность: 00:48:46

Кодек: ALAC (tracks+.cue)
Битрейт: Lossless
Источник: Собственный рип
Программа конвертер: XLD
Издатель (лейбл): Clan Celentano
Номер по каталогу: CLN 2058-2

Треклист:
1. Hai bucato la mia vita
2. Aria … non sei più tu
3. Dormi amore
4. La situazione non è buona
5. Ragazzo del sud
6. Vorrei sapere
7. Anna Magnani
8. Fiori
9. Fascino
10. I tuoi artigli
11.Extra
Dormi amore, la situazione non è buona (рус. Спи, родная, ситуация плохая) — сороковой студийный альбом известного итальянского певца и киноактёра Адриано Челентано, который был выпущен 23 ноября 2007 года лейблом Ariola Records.
Данный альбом Челентано записал и выпустил незадолго до своего семидесятилетнего юбилея. Диск является его пятой и последней совместной работой с композитором Джанни Белла и поэтом-песенником Джулио Моголом. Они сотрудничали с 1999 года, с момента выхода альбома Io non so parlar d’amore.
На диске присутствуют композиции, сочинённые и другими авторами — так, одну из песен написал рэпер Неффа. В создании альбома приняли участие известные музыканты: для записи «Hai bucato la mia vita» Челентано пригласил пианиста и композитора Лудовико Эйнауди, а для записи композиции «Anna Magnani» — саксофониста Стефано Ди Баттиста и его квартет. Также над альбомом работал американский сессионный барабанщик Винни Колайута.
31 октября 2007 года в газете Corriere della Sera появилась статья, посвящённая выходу первого сингла с альбома, «Hai bucato la mia vita». Он вышел 1 ноября 2007 года. Кроме этой композиции ещё три песни были выпущены отдельно в качестве цифровых синглов — «Dormi amore», «Aria… non sei più tu» и «Fiori». На одну из этих песен был снят музыкальный видеоклип.
Код:

General
Complete name                            : /Users/glebarhipov/Desktop/Adriano Celentano - Dormi Amore La Situazione Non Е Buona/01 Adriano Celentano - Hai Bucato La Mia Vita.m4a
Format                                   : MPEG-4
Format profile                           : Apple audio with iTunes info
Codec ID                                 : M4A
File size                                : 29.3 MiB
Duration                                 : 4mn 58s
Overall bit rate mode                    : Variable
Overall bit rate                         : 823 Kbps
Album                                    : Dormi Amore La Situazione Non È Buona
Part/Position                            : 1
Part/Total                               : 1
Track name                               : Hai Bucato La Mia Vita
Track name/Position                      : 1
Track name/Total                         : 11
Performer                                : Adriano Celentano
Composer                                 : The Mogols/Gianni Bella/Ludovico Einaudi
Genre                                    : Rock
Recorded date                            : 2007
Writing application                      : X Lossless Decoder 20131102, QuickTime 7.7.3
Cover                                    : Yes
iTunes_CDDB_1                            : 930B720B+219958+11+150+22550+42658+67490+91257+116356+134712+153367+167331+184905+198402
iTunes_CDDB_TrackNumber                  : 1

Audio
ID                                       : 1
Format                                   : ALAC
Codec ID                                 : alac
Codec ID/Info                            : Apple Lossless Audio Codec
Duration                                 : 4mn 58s
Duration_LastFrame                       : -35ms
Bit rate mode                            : Variable
Bit rate                                 : 821 Kbps
Channel(s)                               : 2 channels
Sampling rate                            : 44.1 KHz
Bit depth                                : 16 bits
Stream size                              : 29.2 MiB (100%)
Language                                 : English

General
Complete name                            : /Users/glebarhipov/Desktop/Adriano Celentano - Dormi Amore La Situazione Non Е Buona/02 Adriano Celentano - Aria... Non Sei Più Tu.m4a
Format                                   : MPEG-4
Format profile                           : Apple audio with iTunes info
Codec ID                                 : M4A
File size                                : 29.8 MiB
Duration                                 : 4mn 28s
Overall bit rate mode                    : Variable
Overall bit rate                         : 933 Kbps
Album                                    : Dormi Amore La Situazione Non È Buona
Part/Position                            : 1
Part/Total                               : 1
Track name                               : Aria... Non Sei Più Tu
Track name/Position                      : 2
Track name/Total                         : 11
Performer                                : Adriano Celentano
Composer                                 : Danijel Vuletic
Genre                                    : Rock
Recorded date                            : 2007
Encoded date                             : UTC 2032-01-11 15:16:30
Tagged date                              : UTC 2032-01-11 15:16:30
Writing application                      : X Lossless Decoder 20131102, QuickTime 7.7.3
Cover                                    : Yes
iTunes_CDDB_1                            : 930B720B+219958+11+150+22550+42658+67490+91257+116356+134712+153367+167331+184905+198402
iTunes_CDDB_TrackNumber                  : 2

Audio
ID                                       : 1
Format                                   : ALAC
Codec ID                                 : alac
Codec ID/Info                            : Apple Lossless Audio Codec
Duration                                 : 4mn 28s
Duration_LastFrame                       : -37ms
Bit rate mode                            : Variable
Bit rate                                 : 931 Kbps
Channel(s)                               : 2 channels
Sampling rate                            : 44.1 KHz
Bit depth                                : 16 bits
Stream size                              : 29.8 MiB (100%)
Language                                 : English
Encoded date                             : UTC 2032-01-11 15:16:30
Tagged date                              : UTC 2032-01-11 15:16:30

General
Complete name                            : /Users/glebarhipov/Desktop/Adriano Celentano - Dormi Amore La Situazione Non Е Buona/03 Adriano Celentano - Dormi Amore.m4a
Format                                   : MPEG-4
Format profile                           : Apple audio with iTunes info
Codec ID                                 : M4A
File size                                : 37.3 MiB
Duration                                 : 5mn 31s
Overall bit rate mode                    : Variable
Overall bit rate                         : 946 Kbps
Album                                    : Dormi Amore La Situazione Non È Buona
Part/Position                            : 1
Part/Total                               : 1
Track name                               : Dormi Amore
Track name/Position                      : 3
Track name/Total                         : 11
Performer                                : Adriano Celentano
Composer                                 : Gianni Bella
Genre                                    : Rock
Recorded date                            : 2007
Encoded date                             : UTC 1980-12-29 01:03:10
Tagged date                              : UTC 1980-12-29 01:03:10
Writing application                      : X Lossless Decoder 20131102, QuickTime 7.7.3
Cover                                    : Yes
iTunes_CDDB_1                            : 930B720B+219958+11+150+22550+42658+67490+91257+116356+134712+153367+167331+184905+198402
iTunes_CDDB_TrackNumber                  : 3

Audio
ID                                       : 1
Format                                   : ALAC
Codec ID                                 : alac
Codec ID/Info                            : Apple Lossless Audio Codec
Duration                                 : 5mn 31s
Duration_LastFrame                       : -23ms
Bit rate mode                            : Variable
Bit rate                                 : 944 Kbps
Channel(s)                               : 2 channels
Sampling rate                            : 44.1 KHz
Bit depth                                : 16 bits
Stream size                              : 37.3 MiB (100%)
Language                                 : English
Encoded date                             : UTC 1980-12-29 01:03:10
Tagged date                              : UTC 1980-12-29 01:03:10

General
Complete name                            : /Users/glebarhipov/Desktop/Adriano Celentano - Dormi Amore La Situazione Non Е Buona/04 Adriano Celentano - La Situazione Non E' Buona.m4a
Format                                   : MPEG-4
Format profile                           : Apple audio with iTunes info
Codec ID                                 : M4A
File size                                : 36.1 MiB
Duration                                 : 5mn 16s
Overall bit rate mode                    : Variable
Overall bit rate                         : 954 Kbps
Album                                    : Dormi Amore La Situazione Non È Buona
Part/Position                            : 1
Part/Total                               : 1
Track name                               : La Situazione Non E' Buona
Track name/Position                      : 4
Track name/Total                         : 11
Performer                                : Adriano Celentano
Composer                                 : Francesco Tricarico
Genre                                    : Rock
Recorded date                            : 2007
Writing application                      : X Lossless Decoder 20131102, QuickTime 7.7.3
Cover                                    : Yes
iTunes_CDDB_1                            : 930B720B+219958+11+150+22550+42658+67490+91257+116356+134712+153367+167331+184905+198402
iTunes_CDDB_TrackNumber                  : 4

Audio
ID                                       : 1
Format                                   : ALAC
Codec ID                                 : alac
Codec ID/Info                            : Apple Lossless Audio Codec
Duration                                 : 5mn 16s
Duration_LastFrame                       : -13ms
Bit rate mode                            : Variable
Bit rate                                 : 952 Kbps
Channel(s)                               : 2 channels
Sampling rate                            : 44.1 KHz
Bit depth                                : 16 bits
Stream size                              : 36.0 MiB (100%)
Language                                 : English

General
Complete name                            : /Users/glebarhipov/Desktop/Adriano Celentano - Dormi Amore La Situazione Non Е Buona/05 Adriano Celentano - Ragazzo Del Sud.m4a
Format                                   : MPEG-4
Format profile                           : Apple audio with iTunes info
Codec ID                                 : M4A
File size                                : 36.6 MiB
Duration                                 : 5mn 34s
Overall bit rate mode                    : Variable
Overall bit rate                         : 916 Kbps
Album                                    : Dormi Amore La Situazione Non È Buona
Part/Position                            : 1
Part/Total                               : 1
Track name                               : Ragazzo Del Sud
Track name/Position                      : 5
Track name/Total                         : 11
Performer                                : Adriano Celentano
Composer                                 : Domenico Modugno
Genre                                    : Rock
Recorded date                            : 2007
Encoded date                             : UTC 1972-06-27 21:51:10
Tagged date                              : UTC 1972-06-27 21:51:10
Writing application                      : X Lossless Decoder 20131102, QuickTime 7.7.3
Cover                                    : Yes
iTunes_CDDB_1                            : 930B720B+219958+11+150+22550+42658+67490+91257+116356+134712+153367+167331+184905+198402
iTunes_CDDB_TrackNumber                  : 5

Audio
ID                                       : 1
Format                                   : ALAC
Codec ID                                 : alac
Codec ID/Info                            : Apple Lossless Audio Codec
Duration                                 : 5mn 34s
Duration_LastFrame                       : -86ms
Bit rate mode                            : Variable
Bit rate                                 : 914 Kbps
Channel(s)                               : 2 channels
Sampling rate                            : 44.1 KHz
Bit depth                                : 16 bits
Stream size                              : 36.5 MiB (100%)
Language                                 : English
Encoded date                             : UTC 1972-06-27 21:51:10
Tagged date                              : UTC 1972-06-27 21:51:10

General
Complete name                            : /Users/glebarhipov/Desktop/Adriano Celentano - Dormi Amore La Situazione Non Е Buona/06 Adriano Celentano - Vorrei Sapere.m4a
Format                                   : MPEG-4
Format profile                           : Apple audio with iTunes info
Codec ID                                 : M4A
File size                                : 25.5 MiB
Duration                                 : 4mn 4s
Overall bit rate mode                    : Variable
Overall bit rate                         : 874 Kbps
Album                                    : Dormi Amore La Situazione Non È Buona
Part/Position                            : 1
Part/Total                               : 1
Track name                               : Vorrei Sapere
Track name/Position                      : 6
Track name/Total                         : 11
Performer                                : Adriano Celentano
Composer                                 : Rosario Di Bella/Gianni Bella
Genre                                    : Rock
Recorded date                            : 2007
Encoded date                             : UTC 2017-09-05 06:33:50
Tagged date                              : UTC 2017-09-05 06:33:50
Writing application                      : X Lossless Decoder 20131102, QuickTime 7.7.3
Cover                                    : Yes
iTunes_CDDB_1                            : 930B720B+219958+11+150+22550+42658+67490+91257+116356+134712+153367+167331+184905+198402
iTunes_CDDB_TrackNumber                  : 6

Audio
ID                                       : 1
Format                                   : ALAC
Codec ID                                 : alac
Codec ID/Info                            : Apple Lossless Audio Codec
Duration                                 : 4mn 4s
Duration_LastFrame                       : -85ms
Bit rate mode                            : Variable
Bit rate                                 : 872 Kbps
Channel(s)                               : 2 channels
Sampling rate                            : 44.1 KHz
Bit depth                                : 16 bits
Stream size                              : 25.4 MiB (100%)
Language                                 : English
Encoded date                             : UTC 2017-09-05 06:33:50
Tagged date                              : UTC 2017-09-05 06:33:50

General
Complete name                            : /Users/glebarhipov/Desktop/Adriano Celentano - Dormi Amore La Situazione Non Е Buona/07 Adriano Celentano - Anna Magnani.m4a
Format                                   : MPEG-4
Format profile                           : Apple audio with iTunes info
Codec ID                                 : M4A
File size                                : 26.5 MiB
Duration                                 : 4mn 8s
Overall bit rate mode                    : Variable
Overall bit rate                         : 892 Kbps
Album                                    : Dormi Amore La Situazione Non È Buona
Part/Position                            : 1
Part/Total                               : 1
Track name                               : Anna Magnani
Track name/Position                      : 7
Track name/Total                         : 11
Performer                                : Adriano Celentano
Composer                                 : Carmen Consoli
Genre                                    : Rock
Recorded date                            : 2007
Writing application                      : X Lossless Decoder 20131102, QuickTime 7.7.3
Cover                                    : Yes
iTunes_CDDB_1                            : 930B720B+219958+11+150+22550+42658+67490+91257+116356+134712+153367+167331+184905+198402
iTunes_CDDB_TrackNumber                  : 7

Audio
ID                                       : 1
Format                                   : ALAC
Codec ID                                 : alac
Codec ID/Info                            : Apple Lossless Audio Codec
Duration                                 : 4mn 8s
Duration_LastFrame                       : -92ms
Bit rate mode                            : Variable
Bit rate                                 : 890 Kbps
Channel(s)                               : 2 channels
Sampling rate                            : 44.1 KHz
Bit depth                                : 16 bits
Stream size                              : 26.4 MiB (100%)
Language                                 : English

General
Complete name                            : /Users/glebarhipov/Desktop/Adriano Celentano - Dormi Amore La Situazione Non Е Buona/08 Adriano Celentano - Fiori.m4a
Format                                   : MPEG-4
Format profile                           : Apple audio with iTunes info
Codec ID                                 : M4A
File size                                : 21.8 MiB
Duration                                 : 3mn 6s
Overall bit rate mode                    : Variable
Overall bit rate                         : 981 Kbps
Album                                    : Dormi Amore La Situazione Non È Buona
Part/Position                            : 1
Part/Total                               : 1
Track name                               : Fiori
Track name/Position                      : 8
Track name/Total                         : 11
Performer                                : Adriano Celentano
Composer                                 : Giovanni Pellino
Genre                                    : Rock
Recorded date                            : 2007
Encoded date                             : UTC 2018-03-19 05:06:22
Tagged date                              : UTC 2018-03-19 05:06:22
Writing application                      : X Lossless Decoder 20131102, QuickTime 7.7.3
Cover                                    : Yes
iTunes_CDDB_1                            : 930B720B+219958+11+150+22550+42658+67490+91257+116356+134712+153367+167331+184905+198402
iTunes_CDDB_TrackNumber                  : 8

Audio
ID                                       : 1
Format                                   : ALAC
Codec ID                                 : alac
Codec ID/Info                            : Apple Lossless Audio Codec
Duration                                 : 3mn 6s
Duration_LastFrame                       : -37ms
Bit rate mode                            : Variable
Bit rate                                 : 978 Kbps
Channel(s)                               : 2 channels
Sampling rate                            : 44.1 KHz
Bit depth                                : 16 bits
Stream size                              : 21.7 MiB (100%)
Language                                 : English
Encoded date                             : UTC 2018-03-19 05:06:22
Tagged date                              : UTC 2018-03-19 05:06:22

General
Complete name                            : /Users/glebarhipov/Desktop/Adriano Celentano - Dormi Amore La Situazione Non Е Buona/09 Adriano Celentano - Fascino.m4a
Format                                   : MPEG-4
Format profile                           : Apple audio with iTunes info
Codec ID                                 : M4A
File size                                : 25.9 MiB
Duration                                 : 3mn 54s
Overall bit rate mode                    : Variable
Overall bit rate                         : 928 Kbps
Album                                    : Dormi Amore La Situazione Non È Buona
Part/Position                            : 1
Part/Total                               : 1
Track name                               : Fascino
Track name/Position                      : 9
Track name/Total                         : 11
Performer                                : Adriano Celentano
Composer                                 : Gianni Bella
Genre                                    : Rock
Recorded date                            : 2007
Writing application                      : X Lossless Decoder 20131102, QuickTime 7.7.3
Cover                                    : Yes
iTunes_CDDB_1                            : 930B720B+219958+11+150+22550+42658+67490+91257+116356+134712+153367+167331+184905+198402
iTunes_CDDB_TrackNumber                  : 9

Audio
ID                                       : 1
Format                                   : ALAC
Codec ID                                 : alac
Codec ID/Info                            : Apple Lossless Audio Codec
Duration                                 : 3mn 54s
Duration_LastFrame                       : -16ms
Bit rate mode                            : Variable
Bit rate                                 : 926 Kbps
Channel(s)                               : 2 channels
Sampling rate                            : 44.1 KHz
Bit depth                                : 16 bits
Stream size                              : 25.9 MiB (100%)
Language                                 : English

General
Complete name                            : /Users/glebarhipov/Desktop/Adriano Celentano - Dormi Amore La Situazione Non Е Buona/10 Adriano Celentano - I Tuoi Artigli.m4a
Format                                   : MPEG-4
Format profile                           : Apple audio with iTunes info
Codec ID                                 : M4A
File size                                : 21.0 MiB
Duration                                 : 2mn 59s
Overall bit rate mode                    : Variable
Overall bit rate                         : 978 Kbps
Album                                    : Dormi Amore La Situazione Non È Buona
Part/Position                            : 1
Part/Total                               : 1
Track name                               : I Tuoi Artigli
Track name/Position                      : 10
Track name/Total                         : 11
Performer                                : Adriano Celentano
Composer                                 : Gianni Bella
Genre                                    : Rock
Recorded date                            : 2007
Encoded date                             : UTC 2024-01-23 23:01:34
Tagged date                              : UTC 2024-01-23 23:01:34
Writing application                      : X Lossless Decoder 20131102, QuickTime 7.7.3
Cover                                    : Yes
iTunes_CDDB_1                            : 930B720B+219958+11+150+22550+42658+67490+91257+116356+134712+153367+167331+184905+198402
iTunes_CDDB_TrackNumber                  : 10

Audio
ID                                       : 1
Format                                   : ALAC
Codec ID                                 : alac
Codec ID/Info                            : Apple Lossless Audio Codec
Duration                                 : 2mn 59s
Duration_LastFrame                       : -41ms
Bit rate mode                            : Variable
Bit rate                                 : 975 Kbps
Channel(s)                               : 2 channels
Sampling rate                            : 44.1 KHz
Bit depth                                : 16 bits
Stream size                              : 20.9 MiB (100%)
Language                                 : English
Encoded date                             : UTC 2024-01-23 23:01:34
Tagged date                              : UTC 2024-01-23 23:01:34

General
Complete name                            : /Users/glebarhipov/Desktop/Adriano Celentano - Dormi Amore La Situazione Non Е Buona/11 Adriano Celentano - Extra.m4a
Format                                   : MPEG-4
Format profile                           : Apple audio with iTunes info
Codec ID                                 : M4A
File size                                : 29.7 MiB
Duration                                 : 4mn 47s
Overall bit rate mode                    : Variable
Overall bit rate                         : 867 Kbps
Album                                    : Dormi Amore La Situazione Non È Buona
Part/Position                            : 1
Part/Total                               : 1
Track name                               : Extra
Track name/Position                      : 11
Track name/Total                         : 11
Performer                                : Adriano Celentano
Composer                                 : Domenico Modugno/Gianni Bella/Danijel Vuletic/Ludovico Einaudi/The Mogols/Tricarico
Genre                                    : Rock
Recorded date                            : 2007
Writing application                      : X Lossless Decoder 20131102, QuickTime 7.7.3
Cover                                    : Yes
iTunes_CDDB_1                            : 930B720B+219958+11+150+22550+42658+67490+91257+116356+134712+153367+167331+184905+198402
iTunes_CDDB_TrackNumber                  : 11

Audio
ID                                       : 1
Format                                   : ALAC
Codec ID                                 : alac
Codec ID/Info                            : Apple Lossless Audio Codec
Duration                                 : 4mn 47s
Duration_LastFrame                       : -50ms
Bit rate mode                            : Variable
Bit rate                                 : 865 Kbps
Channel(s)                               : 2 channels
Sampling rate                            : 44.1 KHz
Bit depth                                : 16 bits
Stream size                              : 29.6 MiB (100%)
Language                                 : English

General
Complete name                            : /Users/glebarhipov/Desktop/Adriano Celentano - Dormi Amore La Situazione Non Е Buona/Adriano Celentano - Dormi Amore La Situazione Non Е Buona.torrent
File size                                : 51.0 KiB

General
Complete name                            : /Users/glebarhipov/Desktop/Adriano Celentano - Dormi Amore La Situazione Non Е Buona/Dormi Amore La Situazione Non È Buona.cue
File size                                : 3.07 KiB

General
Complete name                            : /Users/glebarhipov/Desktop/Adriano Celentano - Dormi Amore La Situazione Non Е Buona/Dormi Amore La Situazione Non È Buona.log
File size                                : 11.7 KiB
Код:

X Lossless Decoder version 20131102 (145.0)

XLD extraction logfile from 2014-01-10 20:30:26 +0400

Adriano Celentano / Dormi Amore La Situazione Non È Buona

Used drive : HL-DT-ST DVDRW  GA32N (revision KE06)
Media type : Pressed CD

Ripper mode             : CDParanoia III 10.2
Disable audio cache     : OK for the drive with a cache less than 2750KiB
Make use of C2 pointers : NO
Read offset correction  : 103
Max retry count         : 20
Gap status              : Analyzed, Appended

TOC of the extracted CD
     Track |   Start  |  Length  | Start sector | End sector
    ---------------------------------------------------------
        1  | 00:00:00 | 04:58:50 |         0    |    22399
        2  | 04:58:50 | 04:28:08 |     22400    |    42507
        3  | 09:26:58 | 05:31:07 |     42508    |    67339
        4  | 14:57:65 | 05:16:67 |     67340    |    91106
        5  | 20:14:57 | 05:34:49 |     91107    |   116205
        6  | 25:49:31 | 04:04:56 |    116206    |   134561
        7  | 29:54:12 | 04:08:55 |    134562    |   153216
        8  | 34:02:67 | 03:06:14 |    153217    |   167180
        9  | 37:09:06 | 03:54:24 |    167181    |   184754
       10  | 41:03:30 | 02:59:72 |    184755    |   198251
       11  | 44:03:27 | 04:47:31 |    198252    |   219807

List of alternate offset correction values
        #  | Absolute | Relative | Confidence
    ------------------------------------------
        1  |   -573   |   -676   |      5

AccurateRip Summary (DiscID: 00155258-00b61465-930b720b)
    Track 01 : OK (v1+v2, confidence 24/29)
    Track 02 : OK (v1+v2, confidence 26/31)
    Track 03 : OK (v1+v2, confidence 26/31)
    Track 04 : OK (v1+v2, confidence 25/30)
    Track 05 : OK (v1+v2, confidence 25/30)
    Track 06 : OK (v1+v2, confidence 26/31)
    Track 07 : OK (v1+v2, confidence 25/30)
    Track 08 : OK (v1+v2, confidence 25/30)
    Track 09 : OK (v1+v2, confidence 25/30)
    Track 10 : OK (v1+v2, confidence 26/31)
    Track 11 : OK (v1+v2, confidence 26/30)
        ->All tracks accurately ripped.

All Tracks
    Album gain               : -8.13 dB
    Peak                     : 1.000000
    Statistics
        Read error                           : 0
        Skipped (treated as error)           : 0
        Edge jitter error (maybe fixed)      : 0
        Atom jitter error (maybe fixed)      : 0
        Drift error (maybe fixed)            : 0
        Dropped bytes error (maybe fixed)    : 0
        Duplicated bytes error (maybe fixed) : 0

Track 01
    Filename : /Users/glebarhipov/Desktop/Adriano Celentano/01 Adriano Celentano - Hai Bucato La Mia Vita.m4a
    Pre-gap length : 00:02:00

    Track gain               : -8.98 dB
    Peak                     : 0.997955
    CRC32 hash (test run)    : 8CBA6878
    CRC32 hash               : 8CBA6878
    CRC32 hash (skip zero)   : FA69D95F
    AccurateRip v1 signature : 56725E77
    AccurateRip v2 signature : 5F2A5793
        ->Accurately ripped (v1+v2, confidence 20+4/29)
    Statistics
        Read error                           : 0
        Skipped (treated as error)           : 0
        Edge jitter error (maybe fixed)      : 0
        Atom jitter error (maybe fixed)      : 0
        Drift error (maybe fixed)            : 0
        Dropped bytes error (maybe fixed)    : 0
        Duplicated bytes error (maybe fixed) : 0
        Inconsistency in error sectors       : 0

Track 02
    Filename : /Users/glebarhipov/Desktop/Adriano Celentano/02 Adriano Celentano - Aria... Non Sei Più Tu.m4a

    Track gain               : -8.63 dB
    Peak                     : 0.997772
    CRC32 hash (test run)    : 11643DD9
    CRC32 hash               : 11643DD9
    CRC32 hash (skip zero)   : AD117E19
    AccurateRip v1 signature : 978BA787
    AccurateRip v2 signature : 20E9E3FB
        ->Accurately ripped (v1+v2, confidence 22+4/31)
    Statistics
        Read error                           : 0
        Skipped (treated as error)           : 0
        Edge jitter error (maybe fixed)      : 0
        Atom jitter error (maybe fixed)      : 0
        Drift error (maybe fixed)            : 0
        Dropped bytes error (maybe fixed)    : 0
        Duplicated bytes error (maybe fixed) : 0
        Inconsistency in error sectors       : 0

Track 03
    Filename : /Users/glebarhipov/Desktop/Adriano Celentano/03 Adriano Celentano - Dormi Amore.m4a

    Track gain               : -8.10 dB
    Peak                     : 0.998047
    CRC32 hash (test run)    : A344C7EF
    CRC32 hash               : A344C7EF
    CRC32 hash (skip zero)   : 941FC741
    AccurateRip v1 signature : 0B93D0C4
    AccurateRip v2 signature : 68C47493
        ->Accurately ripped (v1+v2, confidence 22+4/31)
    Statistics
        Read error                           : 0
        Skipped (treated as error)           : 0
        Edge jitter error (maybe fixed)      : 0
        Atom jitter error (maybe fixed)      : 0
        Drift error (maybe fixed)            : 0
        Dropped bytes error (maybe fixed)    : 0
        Duplicated bytes error (maybe fixed) : 0
        Inconsistency in error sectors       : 0

Track 04
    Filename : /Users/glebarhipov/Desktop/Adriano Celentano/04 Adriano Celentano - La Situazione Non E' Buona.m4a

    Track gain               : -8.73 dB
    Peak                     : 0.998047
    CRC32 hash (test run)    : C12C39CF
    CRC32 hash               : C12C39CF
    CRC32 hash (skip zero)   : 31437C5D
    AccurateRip v1 signature : 45210A12
    AccurateRip v2 signature : EC82100B
        ->Accurately ripped (v1+v2, confidence 21+4/30)
    Statistics
        Read error                           : 0
        Skipped (treated as error)           : 0
        Edge jitter error (maybe fixed)      : 0
        Atom jitter error (maybe fixed)      : 0
        Drift error (maybe fixed)            : 0
        Dropped bytes error (maybe fixed)    : 0
        Duplicated bytes error (maybe fixed) : 0
        Inconsistency in error sectors       : 0

Track 05
    Filename : /Users/glebarhipov/Desktop/Adriano Celentano/05 Adriano Celentano - Ragazzo Del Sud.m4a

    Track gain               : -7.27 dB
    Peak                     : 0.998077
    CRC32 hash (test run)    : 11A524A9
    CRC32 hash               : 11A524A9
    CRC32 hash (skip zero)   : 5BF7A775
    AccurateRip v1 signature : EA918FCB
    AccurateRip v2 signature : 52746AF8
        ->Accurately ripped (v1+v2, confidence 21+4/30)
    Statistics
        Read error                           : 0
        Skipped (treated as error)           : 0
        Edge jitter error (maybe fixed)      : 0
        Atom jitter error (maybe fixed)      : 0
        Drift error (maybe fixed)            : 0
        Dropped bytes error (maybe fixed)    : 0
        Duplicated bytes error (maybe fixed) : 0
        Inconsistency in error sectors       : 0

Track 06
    Filename : /Users/glebarhipov/Desktop/Adriano Celentano/06 Adriano Celentano - Vorrei Sapere.m4a

    Track gain               : -7.67 dB
    Peak                     : 0.997986
    CRC32 hash (test run)    : CD673C5A
    CRC32 hash               : CD673C5A
    CRC32 hash (skip zero)   : DB0F6C68
    AccurateRip v1 signature : A6E7AFE9
    AccurateRip v2 signature : F8A342CB
        ->Accurately ripped (v1+v2, confidence 22+4/31)
    Statistics
        Read error                           : 0
        Skipped (treated as error)           : 0
        Edge jitter error (maybe fixed)      : 0
        Atom jitter error (maybe fixed)      : 0
        Drift error (maybe fixed)            : 0
        Dropped bytes error (maybe fixed)    : 0
        Duplicated bytes error (maybe fixed) : 0
        Inconsistency in error sectors       : 0

Track 07
    Filename : /Users/glebarhipov/Desktop/Adriano Celentano/07 Adriano Celentano - Anna Magnani.m4a

    Track gain               : -7.62 dB
    Peak                     : 0.997925
    CRC32 hash (test run)    : C5DD45E9
    CRC32 hash               : C5DD45E9
    CRC32 hash (skip zero)   : CE70B1BC
    AccurateRip v1 signature : 520D355E
    AccurateRip v2 signature : 7580173C
        ->Accurately ripped (v1+v2, confidence 21+4/30)
    Statistics
        Read error                           : 0
        Skipped (treated as error)           : 0
        Edge jitter error (maybe fixed)      : 0
        Atom jitter error (maybe fixed)      : 0
        Drift error (maybe fixed)            : 0
        Dropped bytes error (maybe fixed)    : 0
        Duplicated bytes error (maybe fixed) : 0
        Inconsistency in error sectors       : 0

Track 08
    Filename : /Users/glebarhipov/Desktop/Adriano Celentano/08 Adriano Celentano - Fiori.m4a

    Track gain               : -8.42 dB
    Peak                     : 0.997955
    CRC32 hash (test run)    : 70EFE5A2
    CRC32 hash               : 70EFE5A2
    CRC32 hash (skip zero)   : 0E223E55
    AccurateRip v1 signature : 121EF8AD
    AccurateRip v2 signature : E0E1BC0D
        ->Accurately ripped (v1+v2, confidence 21+4/30)
    Statistics
        Read error                           : 0
        Skipped (treated as error)           : 0
        Edge jitter error (maybe fixed)      : 0
        Atom jitter error (maybe fixed)      : 0
        Drift error (maybe fixed)            : 0
        Dropped bytes error (maybe fixed)    : 0
        Duplicated bytes error (maybe fixed) : 0
        Inconsistency in error sectors       : 0

Track 09
    Filename : /Users/glebarhipov/Desktop/Adriano Celentano/09 Adriano Celentano - Fascino.m4a

    Track gain               : -6.94 dB
    Peak                     : 0.997955
    CRC32 hash (test run)    : 0EC023BD
    CRC32 hash               : 0EC023BD
    CRC32 hash (skip zero)   : 9972DAD8
    AccurateRip v1 signature : 5699B1B1
    AccurateRip v2 signature : 1E663B98
        ->Accurately ripped (v1+v2, confidence 21+4/30)
    Statistics
        Read error                           : 0
        Skipped (treated as error)           : 0
        Edge jitter error (maybe fixed)      : 0
        Atom jitter error (maybe fixed)      : 0
        Drift error (maybe fixed)            : 0
        Dropped bytes error (maybe fixed)    : 0
        Duplicated bytes error (maybe fixed) : 0
        Inconsistency in error sectors       : 0

Track 10
    Filename : /Users/glebarhipov/Desktop/Adriano Celentano/10 Adriano Celentano - I Tuoi Artigli.m4a

    Track gain               : -8.01 dB
    Peak                     : 0.998962
    CRC32 hash (test run)    : EE536DA9
    CRC32 hash               : EE536DA9
    CRC32 hash (skip zero)   : 3F66C3C4
    AccurateRip v1 signature : CA84D37D
    AccurateRip v2 signature : A6F02D73
        ->Accurately ripped (v1+v2, confidence 22+4/31)
    Statistics
        Read error                           : 0
        Skipped (treated as error)           : 0
        Edge jitter error (maybe fixed)      : 0
        Atom jitter error (maybe fixed)      : 0
        Drift error (maybe fixed)            : 0
        Dropped bytes error (maybe fixed)    : 0
        Duplicated bytes error (maybe fixed) : 0
        Inconsistency in error sectors       : 0

Track 11
    Filename : /Users/glebarhipov/Desktop/Adriano Celentano/11 Adriano Celentano - Extra.m4a

    Track gain               : -8.18 dB
    Peak                     : 1.000000
    CRC32 hash (test run)    : 4C44D32F
    CRC32 hash               : 4C44D32F
    CRC32 hash (skip zero)   : 80481A8B
    AccurateRip v1 signature : 514E6740
    AccurateRip v2 signature : E38B3E30
        ->Accurately ripped (v1+v2, confidence 22+4/30)
    Statistics
        Read error                           : 0
        Skipped (treated as error)           : 0
        Edge jitter error (maybe fixed)      : 0
        Atom jitter error (maybe fixed)      : 0
        Drift error (maybe fixed)            : 0
        Dropped bytes error (maybe fixed)    : 0
        Duplicated bytes error (maybe fixed) : 0
        Inconsistency in error sectors       : 0

No errors occurred

End of status report
Время раздачи: 24/7 (круглосуточно)
[NNM-Club.me]_Adriano Celentano - Dormi Amore La Situazione Non E Buona.torrent
 Торрент: Платиновая раздача  Зарегистрирован
 
Скачать


Примагнититься
 Зарегистрирован:   10 Янв 2014 20:49:18
 Размер:   319 MB  (
 Рейтинг:   4.9 (Голосов: 27)
 Поблагодарили:   115
 Проверка:   Оформление проверено модератором 11 Янв 2014 00:40:07
Как cкачать  ·  Как раздать  ·  Правильно оформить  ·  Поднять ратио!  
svpavkin63
Стаж: 11 лет 4 мес.
Сообщений: 1040
Ratio: 272.059
Поблагодарили: 12431
100%
russia.gif
Вот этого безобразия:
2. Aria … non sei più tu
3. Dormi amore
4. La situazione non è buona

Винда не понимает. Ряд приложений пишет "синтаксическая ошибка" и отказывается работать. Пришлось исправить. :(
db1967
Стаж: 12 лет
Сообщений: 54
Ratio: 10.328
100%
russia.gif
svpavkin63

На Фубаре с алак-овским плагином все видно и все играет :да:
Винда 7ка.
svpavkin63
Стаж: 11 лет 4 мес.
Сообщений: 1040
Ratio: 272.059
Поблагодарили: 12431
100%
russia.gif
db1967 писал(а): Перейти к сообщению
svpavkin63

На Фубаре с алак-овским плагином все видно и все играет :да:
Винда 7ка.

Извини, вопрос не в том, "играет или не играет, понимает или не понимает".
В конце концов это несущественно, пусть играет отражая "кразябазябры"! =)
Вопрос к оформлению релиза. Не... корректно заливать контент, который винда не переваривает или переваривает с трудом.
Далеко не все пользователи понимают то, что ты написал кирилическими знаками. :D
Показать сообщения:   
Начать новую тему   Ответить на тему    Торрент-трекер NNM-Club -> Аудио и Видео -> Музыка Lossless (ALAC) Часовой пояс: GMT + 3
Страница 1 из 1