Классический форум-трекер
canvas not supported
Нас вместе: 4 233 361

Плюшевый синдром / Противоядие / L' Antidote (2005) DVDRip


 
 
RSS
Начать новую тему   Ответить на тему    Торрент-трекер NNM-Club -> Зарубежное кино -> Зарубежные Фильмы (SD)
Автор Сообщение
smpeal ®
Стаж: 11 лет 9 мес.
Сообщений: 62
Ratio: 99.87
Поблагодарили: 7340
100%
ussr.gif
Плюшевый синдром / Противоядие / L' Antidote (2005) DVDRip
Год выпуска: 2005
Жанр: Комедия

Описание:
Жак Марти — крупный воротила, денежный мешок, живущий в роскоши. Им восхищаются, его боятся, ему завидуют. Марти стоит на пороге крупнейшей сделки в своей жизни, которая сделает его почти богом. Однако, как всегда очень не во время, с ним начинают происходить непонятные и неприятные вещи. Ползут слухи о странной болезни магната.

Под угрозой карьера и личная жизнь… Как вылечиться и избежать катастрофы? Найти скелет в собственном шкафу! Тем более, что в качестве скелета в данном случае выступает симпатичный плюшевый медвежонок родом из детства. Однако, и медвежата бывают разные… Больше того, Жаку Марти, кажется, придётся терпеть своё «плюшевое противоядие» рядом до конца своих дней…

Режиссер: Винсент Де Брюс
Актеры: Кристиан Клавье, Жак Вильре, Аньес Сораль, Энни Грегорио, Франсуа Морель, Даниэль Руссо, Пьер Вернье, Жюдит Магр, Бернар Деран, Кен Сэмюэлс

Продолжительность: 01:43:10
Качество видео: DVDRip
Перевод: Дублированный (Объединение "Мосфильм-Мастер")
Язык субтитров: Отсутствуют

Роли дублировали:
Юрий Деркач, Вячеслав Баранов, Любовь Германова, Олег Куценко, Андрей Ярославцев, Ольга Сирина, Никита Прозоровский, Нина Тобилевич



Дата мировой премьеры: 30 марта 2005
Дата российской премьеры: 10 ноября 2005
Дата выхода DVD релиза: 12 декабря 2005

Видеокодек: Xvid
Битрейт видео: ~1795 Kbps
Размер кадра: 704х384
Аудиокодек: AC3, 6 каналов
Битрейт аудио: 384 Kbps
Общее
Полное имя : Z:\Фильмы\Зарубежные\Франция\Плюшевый синдром (2005) DVDRip.avi
Формат : AVI
Формат/Информация : Audio Video Interleave
Размер файла : 1,58 Гбайт
Продолжительность : 1 ч. 43 м.
Общий поток : 2189 Кбит/сек
Программа кодирования : VirtualDubMod 1.5.10.2 (build 2540/release)
Библиотека кодирования : VirtualDubMod build 2540/release

Видео
Идентификатор : 0
Формат : MPEG-4 Visual
Профиль формата : Advanced Simple@L5
Параметр BVOP формата : 2
Параметр QPel формата : Нет
Параметр GMC формата : Без точки перехода
Параметр матрицы формата : Default (H.263)
Режим смешивания : Сжатый битовый поток
Идентификатор кодека : XVID
Идентификатор кодека/Подсказка : XviD
Продолжительность : 1 ч. 43 м.
Битрейт : 1795 Кбит/сек
Ширина : 704 пикселя
Высота : 384 пикселя
Соотношение сторон : 1,85:1
Частота кадров : 25,000 кадров/сек
Цветовое пространство : YUV
Субдискретизация насыщенности : 4:2:0
Битовая глубина : 8 бит
Тип развёртки : Прогрессивная
Метод сжатия : С потерями
Бит/(Пиксели*Кадры) : 0.266
Размер потока : 1,29 Гбайт (82%)
Библиотека кодирования : XviD 1.2.1 (UTC 2008-12-04)

Аудио
Идентификатор : 1
Формат : AC-3
Формат/Информация : Audio Coding 3
Расширение режима : CM (complete main)
Параметр Endianness формата : Big
Идентификатор кодека : 2000
Продолжительность : 1 ч. 43 м.
Вид битрейта : Постоянный
Битрейт : 384 Кбит/сек
Каналы : 6 каналов
Расположение каналов : Front: L C R, Side: L R, LFE
Частота : 48,0 КГц
Битовая глубина : 16 бит
Метод сжатия : С потерями
Размер потока : 283 Мбайт (18%)
Выравнивание : Разделение по промежуткам
Продолжительность промежутка : 40 мс. (1,00 видеокадр)
Время предзагрузки промежутка : 500 мс.
Скриншоты:

Время раздачи: По выходным с 12 до 24, иногда вечером в будни
[NNM-CLub.me]_L'antidote_2005_DVDRip.avi.torrent
 Торрент: Платиновая раздача  Зарегистрирован
 
Скачать


Примагнититься
 Зарегистрирован:   11 Янв 2014 17:56:42
 Размер:   1.58 GB  (
 Рейтинг:   4.6 (Голосов: 28)
 Поблагодарили:   129
 Проверка:   Оформление проверено модератором 11 Янв 2014 22:33:57
Как cкачать  ·  Как раздать  ·  Правильно оформить  ·  Поднять ратио!  
Показать сообщения:   
Начать новую тему   Ответить на тему    Торрент-трекер NNM-Club -> Зарубежное кино -> Зарубежные Фильмы (SD) Часовой пояс: GMT + 3
Страница 1 из 1