Классический форум-трекер
canvas not supported
Нас вместе: 4 165 233

Ария - Герой асфальта (1987) [ALAC|Lossless]<Heavy Metal>


 
 
RSS
Начать новую тему   Ответить на тему    Торрент-трекер NNM-Club -> Аудио и Видео -> Музыка Lossless (ALAC)
Автор Сообщение
Glebany ®
 
Стаж: 10 лет 8 мес.
Сообщений: 200
Ratio: 142.288
Поблагодарили: 5152
100%
Ария - Герой асфальта (1987)
Год: 1987
Жанр: Heavy Metal
Продолжительность: 00:38:28

Кодек: ALAC
Битрейт: Lossless
Источник: Собственный рип
Программа конвертер: XLD
Издатель (лейбл): 1987 Aria Records
1998 Moroz Records
Номер по каталогу: DMR 04498 CD

Треклист:
01. На cлужбе cилы зла
02. Герой асфальта
03. Мёртвая зона
04. 1100
05. Улица роз
06. Баллада о древнерусском войне
Код:

General
Complete name                            : /Users/glebarhipov/Desktop/Ария - Герой асфальта/01 Ария - На службе силы зла.m4a
Format                                   : MPEG-4
Format profile                           : Apple audio with iTunes info
Codec ID                                 : M4A
File size                                : 46.2 MiB
Duration                                 : 7mn 10s
Overall bit rate mode                    : Variable
Overall bit rate                         : 900 Kbps
Album                                    : Герой асфальта
Track name                               : На службе силы зла
Track name/Position                      : 1
Track name/Total                         : 6
Performer                                : Ария
Genre                                    : Heavy Metal
Recorded date                            : 1987
Encoded date                             : UTC 2029-04-22 23:35:42
Tagged date                              : UTC 2029-04-22 23:35:42
Writing application                      : X Lossless Decoder 20131102, QuickTime 7.7.3
iTunes_CDDB_1                            : 42090706+173475+6+150+32462+55982+86225+108367+135112
iTunes_CDDB_TrackNumber                  : 1

Audio
ID                                       : 1
Format                                   : ALAC
Codec ID                                 : alac
Codec ID/Info                            : Apple Lossless Audio Codec
Duration                                 : 7mn 10s
Duration_LastFrame                       : -43ms
Bit rate mode                            : Variable
Bit rate                                 : 899 Kbps
Channel(s)                               : 2 channels
Sampling rate                            : 44.1 KHz
Bit depth                                : 16 bits
Stream size                              : 46.2 MiB (100%)
Language                                 : English
Encoded date                             : UTC 2029-04-22 23:35:42
Tagged date                              : UTC 2029-04-22 23:35:42

General
Complete name                            : /Users/glebarhipov/Desktop/Ария - Герой асфальта/02 Ария - Герой асфальта.m4a
Format                                   : MPEG-4
Format profile                           : Apple audio with iTunes info
Codec ID                                 : M4A
File size                                : 36.6 MiB
Duration                                 : 5mn 13s
Overall bit rate mode                    : Variable
Overall bit rate                         : 978 Kbps
Album                                    : Герой асфальта
Track name                               : Герой асфальта
Track name/Position                      : 2
Track name/Total                         : 6
Performer                                : Ария
Genre                                    : Heavy Metal
Recorded date                            : 1987
Encoded date                             : UTC 1978-04-10 09:22:22
Tagged date                              : UTC 1978-04-10 09:22:22
Writing application                      : X Lossless Decoder 20131102, QuickTime 7.7.3
iTunes_CDDB_1                            : 42090706+173475+6+150+32462+55982+86225+108367+135112
iTunes_CDDB_TrackNumber                  : 2

Audio
ID                                       : 1
Format                                   : ALAC
Codec ID                                 : alac
Codec ID/Info                            : Apple Lossless Audio Codec
Duration                                 : 5mn 13s
Duration_LastFrame                       : -55ms
Bit rate mode                            : Variable
Bit rate                                 : 977 Kbps
Channel(s)                               : 2 channels
Sampling rate                            : 44.1 KHz
Bit depth                                : 16 bits
Stream size                              : 36.5 MiB (100%)
Language                                 : English
Encoded date                             : UTC 1978-04-10 09:22:22
Tagged date                              : UTC 1978-04-10 09:22:22

General
Complete name                            : /Users/glebarhipov/Desktop/Ария - Герой асфальта/03 Ария - Мертвая зона.m4a
Format                                   : MPEG-4
Format profile                           : Apple audio with iTunes info
Codec ID                                 : M4A
File size                                : 46.0 MiB
Duration                                 : 6mn 43s
Overall bit rate mode                    : Variable
Overall bit rate                         : 956 Kbps
Album                                    : Герой асфальта
Track name                               : Мертвая зона
Track name/Position                      : 3
Track name/Total                         : 6
Performer                                : Ария
Genre                                    : Heavy Metal
Recorded date                            : 1987
Writing application                      : X Lossless Decoder 20131102, QuickTime 7.7.3
iTunes_CDDB_1                            : 42090706+173475+6+150+32462+55982+86225+108367+135112
iTunes_CDDB_TrackNumber                  : 3

Audio
ID                                       : 1
Format                                   : ALAC
Codec ID                                 : alac
Codec ID/Info                            : Apple Lossless Audio Codec
Duration                                 : 6mn 43s
Duration_LastFrame                       : -44ms
Bit rate mode                            : Variable
Bit rate                                 : 955 Kbps
Channel(s)                               : 2 channels
Sampling rate                            : 44.1 KHz
Bit depth                                : 16 bits
Stream size                              : 45.9 MiB (100%)
Language                                 : English

General
Complete name                            : /Users/glebarhipov/Desktop/Ария - Герой асфальта/04 Ария - 1100.m4a
Format                                   : MPEG-4
Format profile                           : Apple audio with iTunes info
Codec ID                                 : M4A
File size                                : 32.7 MiB
Duration                                 : 4mn 55s
Overall bit rate mode                    : Variable
Overall bit rate                         : 930 Kbps
Album                                    : Герой асфальта
Track name                               : 1100
Track name/Position                      : 4
Track name/Total                         : 6
Performer                                : Ария
Genre                                    : Heavy Metal
Recorded date                            : 1987
Encoded date                             : UTC 1998-06-24 00:24:46
Tagged date                              : UTC 1998-06-24 00:24:46
Writing application                      : X Lossless Decoder 20131102, QuickTime 7.7.3
iTunes_CDDB_1                            : 42090706+173475+6+150+32462+55982+86225+108367+135112
iTunes_CDDB_TrackNumber                  : 4

Audio
ID                                       : 1
Format                                   : ALAC
Codec ID                                 : alac
Codec ID/Info                            : Apple Lossless Audio Codec
Duration                                 : 4mn 55s
Duration_LastFrame                       : -38ms
Bit rate mode                            : Variable
Bit rate                                 : 929 Kbps
Channel(s)                               : 2 channels
Sampling rate                            : 44.1 KHz
Bit depth                                : 16 bits
Stream size                              : 32.7 MiB (100%)
Language                                 : English
Encoded date                             : UTC 1998-06-24 00:24:46
Tagged date                              : UTC 1998-06-24 00:24:46

General
Complete name                            : /Users/glebarhipov/Desktop/Ария - Герой асфальта/05 Ария - Улица роз.m4a
Format                                   : MPEG-4
Format profile                           : Apple audio with iTunes info
Codec ID                                 : M4A
File size                                : 40.5 MiB
Duration                                 : 5mn 56s
Overall bit rate mode                    : Variable
Overall bit rate                         : 953 Kbps
Album                                    : Герой асфальта
Track name                               : Улица роз
Track name/Position                      : 5
Track name/Total                         : 6
Performer                                : Ария
Genre                                    : Heavy Metal
Recorded date                            : 1987
Writing application                      : X Lossless Decoder 20131102, QuickTime 7.7.3
iTunes_CDDB_1                            : 42090706+173475+6+150+32462+55982+86225+108367+135112
iTunes_CDDB_TrackNumber                  : 5

Audio
ID                                       : 1
Format                                   : ALAC
Codec ID                                 : alac
Codec ID/Info                            : Apple Lossless Audio Codec
Duration                                 : 5mn 56s
Duration_LastFrame                       : -59ms
Bit rate mode                            : Variable
Bit rate                                 : 952 Kbps
Channel(s)                               : 2 channels
Sampling rate                            : 44.1 KHz
Bit depth                                : 16 bits
Stream size                              : 40.5 MiB (100%)
Language                                 : English

General
Complete name                            : /Users/glebarhipov/Desktop/Ария - Герой асфальта/06 Ария - Баллада о древнерусском воине.m4a
Format                                   : MPEG-4
Format profile                           : Apple audio with iTunes info
Codec ID                                 : M4A
File size                                : 58.2 MiB
Duration                                 : 8mn 31s
Overall bit rate mode                    : Variable
Overall bit rate                         : 955 Kbps
Album                                    : Герой асфальта
Track name                               : Баллада о древнерусском воине
Track name/Position                      : 6
Track name/Total                         : 6
Performer                                : Ария
Genre                                    : Heavy Metal
Recorded date                            : 1987
Encoded date                             : UTC 2012-04-20 11:23:58
Tagged date                              : UTC 2012-04-20 11:23:58
Writing application                      : X Lossless Decoder 20131102, QuickTime 7.7.3
iTunes_CDDB_1                            : 42090706+173475+6+150+32462+55982+86225+108367+135112
iTunes_CDDB_TrackNumber                  : 6

Audio
ID                                       : 1
Format                                   : ALAC
Codec ID                                 : alac
Codec ID/Info                            : Apple Lossless Audio Codec
Duration                                 : 8mn 31s
Duration_LastFrame                       : -75ms
Bit rate mode                            : Variable
Bit rate                                 : 954 Kbps
Channel(s)                               : 2 channels
Sampling rate                            : 44.1 KHz
Bit depth                                : 16 bits
Stream size                              : 58.2 MiB (100%)
Language                                 : English
Encoded date                             : UTC 2012-04-20 11:23:58
Tagged date                              : UTC 2012-04-20 11:23:58

General
Complete name                            : /Users/glebarhipov/Desktop/Ария - Герой асфальта/ca62f04af9f0eb8d09755fefd2057953.jpg
Format                                   : JPEG
File size                                : 434 KiB

Image
Format                                   : JPEG
Width                                    : 500 pixels
Height                                   : 500 pixels
Color space                              : YUV
Chroma subsampling                       : 4:4:4
Bit depth                                : 8 bits
Compression mode                         : Lossy
Stream size                              : 434 KiB (100%)

General
Complete name                            : /Users/glebarhipov/Desktop/Ария - Герой асфальта/Герой асфальта.log
File size                                : 7.23 KiB
Код:

X Lossless Decoder version 20131102 (145.0)

XLD extraction logfile from 2014-01-12 06:48:16 +0400

Ария / Герой асфальта

Used drive : HL-DT-ST DVDRW  GA32N (revision KE06)
Media type : Pressed CD

Ripper mode             : CDParanoia III 10.2
Disable audio cache     : OK for the drive with a cache less than 2750KiB
Make use of C2 pointers : NO
Read offset correction  : 103
Max retry count         : 20
Gap status              : Analyzed, Appended

TOC of the extracted CD
     Track |   Start  |  Length  | Start sector | End sector
    ---------------------------------------------------------
        1  | 00:00:00 | 07:10:62 |         0    |    32311
        2  | 07:10:62 | 05:13:45 |     32312    |    55831
        3  | 12:24:32 | 06:43:18 |     55832    |    86074
        4  | 19:07:50 | 04:55:17 |     86075    |   108216
        5  | 24:02:67 | 05:56:45 |    108217    |   134961
        6  | 29:59:37 | 08:31:38 |    134962    |   173324

List of alternate offset correction values
        #  | Absolute | Relative | Confidence
    ------------------------------------------
        1  |   1431   |   1328   |     16

AccurateRip Summary (DiscID: 00090383-002febc9-42090706)
    Track 01 : OK (v1, confidence 2/30)
    Track 02 : NG (total 30 submissions)
    Track 03 : OK (v1, confidence 2/27)
    Track 04 : OK (v1, confidence 2/29)
    Track 05 : NG (total 30 submissions)
    Track 06 : OK (v1+v2, confidence 15/27, with different offset)
        ->4 tracks accurately ripped, 2 tracks not

All Tracks
    Album gain               : -3.37 dB
    Peak                     : 0.749176
    Statistics
        Read error                           : 0
        Skipped (treated as error)           : 0
        Edge jitter error (maybe fixed)      : 10
        Atom jitter error (maybe fixed)      : 3
        Drift error (maybe fixed)            : 0
        Dropped bytes error (maybe fixed)    : 3
        Duplicated bytes error (maybe fixed) : 7

Track 01
    Filename : /Users/glebarhipov/Desktop/Новая папка/01 Ария - На службе силы зла.m4a
    Pre-gap length : 00:02:00

    Track gain               : -3.84 dB
    Peak                     : 0.700043
    CRC32 hash (test run)    : 7E86A376
    CRC32 hash               : 7E86A376
    CRC32 hash (skip zero)   : 71D44FDA
    AccurateRip v1 signature : 06CDE863
    AccurateRip v2 signature : 351A457F
        ->Accurately ripped (v1, confidence 2/30)
    Statistics
        Read error                           : 0
        Skipped (treated as error)           : 0
        Edge jitter error (maybe fixed)      : 1
        Atom jitter error (maybe fixed)      : 0
        Drift error (maybe fixed)            : 0
        Dropped bytes error (maybe fixed)    : 0
        Duplicated bytes error (maybe fixed) : 1
        Inconsistency in error sectors       : 0

Track 02
    Filename : /Users/glebarhipov/Desktop/Новая папка/02 Ария - Герой асфальта.m4a

    Track gain               : -2.68 dB
    Peak                     : 0.726990
    CRC32 hash (test run)    : 2025F8F2
    CRC32 hash               : BD46F0A6
        ->Rip may not be accurate.
    CRC32 hash (skip zero)   : 8EC4B421
    AccurateRip v1 signature : 41FDBC04
    AccurateRip v2 signature : 36F28F0D
        ->Rip may not be accurate (total 30 submissions).
    Statistics
        Read error                           : 0
        Skipped (treated as error)           : 0
        Edge jitter error (maybe fixed)      : 2
        Atom jitter error (maybe fixed)      : 1
        Drift error (maybe fixed)            : 0
        Dropped bytes error (maybe fixed)    : 1
        Duplicated bytes error (maybe fixed) : 1
        Inconsistency in error sectors       : 0

Track 03
    Filename : /Users/glebarhipov/Desktop/Новая папка/03 Ария - Мертвая зона.m4a

    Track gain               : -2.95 dB
    Peak                     : 0.733398
    CRC32 hash (test run)    : ADF27AEC
    CRC32 hash               : ADF27AEC
    CRC32 hash (skip zero)   : 3367E653
    AccurateRip v1 signature : 91273E67
    AccurateRip v2 signature : D6C71F21
        ->Accurately ripped (v1, confidence 2/27)
    Statistics
        Read error                           : 0
        Skipped (treated as error)           : 0
        Edge jitter error (maybe fixed)      : 2
        Atom jitter error (maybe fixed)      : 1
        Drift error (maybe fixed)            : 0
        Dropped bytes error (maybe fixed)    : 0
        Duplicated bytes error (maybe fixed) : 1
        Inconsistency in error sectors       : 0

Track 04
    Filename : /Users/glebarhipov/Desktop/Новая папка/04 Ария - 1100.m4a

    Track gain               : -2.51 dB
    Peak                     : 0.749176
    CRC32 hash (test run)    : B31226D7
    CRC32 hash               : B31226D7
    CRC32 hash (skip zero)   : 2E209456
    AccurateRip v1 signature : 2FB49CEA
    AccurateRip v2 signature : 9EC582BA
        ->Accurately ripped (v1, confidence 2/29)
    Statistics
        Read error                           : 0
        Skipped (treated as error)           : 0
        Edge jitter error (maybe fixed)      : 2
        Atom jitter error (maybe fixed)      : 0
        Drift error (maybe fixed)            : 0
        Dropped bytes error (maybe fixed)    : 1
        Duplicated bytes error (maybe fixed) : 2
        Inconsistency in error sectors       : 0

Track 05
    Filename : /Users/glebarhipov/Desktop/Новая папка/05 Ария - Улица роз.m4a

    Track gain               : -3.36 dB
    Peak                     : 0.719177
    CRC32 hash (test run)    : 6DF5E5F5
    CRC32 hash               : 864BD7CD
        ->Rip may not be accurate.
    CRC32 hash (skip zero)   : 300FBF07
    AccurateRip v1 signature : AABE1FA7
    AccurateRip v2 signature : 7C2D9CFC
        ->Rip may not be accurate (total 30 submissions).
    Statistics
        Read error                           : 0
        Skipped (treated as error)           : 0
        Edge jitter error (maybe fixed)      : 2
        Atom jitter error (maybe fixed)      : 1
        Drift error (maybe fixed)            : 0
        Dropped bytes error (maybe fixed)    : 0
        Duplicated bytes error (maybe fixed) : 1
        Inconsistency in error sectors       : 0

Track 06
    Filename : /Users/glebarhipov/Desktop/Новая папка/06 Ария - Баллада о древнерусском воине.m4a

    Track gain               : -3.54 dB
    Peak                     : 0.739105
    CRC32 hash (test run)    : 59A5B6C6
    CRC32 hash               : 59A5B6C6
    CRC32 hash (skip zero)   : 40D40098
    AccurateRip v1 signature : C77B6732 (B245AA22 w/correction)
    AccurateRip v2 signature : C6B89D21 (3D406A78 w/correction)
        ->Accurately ripped with different offset (v1+v2, confidence 10+5/27, offset +1328)
    Statistics
        Read error                           : 0
        Skipped (treated as error)           : 0
        Edge jitter error (maybe fixed)      : 1
        Atom jitter error (maybe fixed)      : 0
        Drift error (maybe fixed)            : 0
        Dropped bytes error (maybe fixed)    : 1
        Duplicated bytes error (maybe fixed) : 1
        Inconsistency in error sectors       : 0

Some inconsistencies found

End of status report
Время раздачи: 24/7 (круглосуточно)
[NNM-Club.me]_Ariya - Geroy asfalta.torrent
 Торрент: Платиновая раздача  Зарегистрирован
 
Скачать


Примагнититься
 Зарегистрирован:   17 Янв 2014 20:52:57
 Размер:   261 MB  (
 Рейтинг:   4.9 (Голосов: 62)
 Поблагодарили:   133
 Проверка:   Оформление проверено модератором 17 Янв 2014 23:59:12
Как cкачать  ·  Как раздать  ·  Правильно оформить  ·  Поднять ратио!  
gvm55
Зам. Куратора Музыки
Спонсор и Реставратор Клуба, Uploader 100+
Стаж: 12 лет 5 мес.
Сообщений: 5005
Ratio: 163.704
Раздал: 193.8 TB
Поблагодарили: 72149
100%
Откуда: SPb
nnm-club.gif
В заголовке поправьте - пропустили букву. :пока:

_________________
Исправил релиз - напиши мне в со ссылкой на него.
Glebany ®
 
Стаж: 10 лет 8 мес.
Сообщений: 200
Ratio: 142.288
Поблагодарили: 5152
100%
gvm55 писал(а): Перейти к сообщению
В заголовке поправьте - пропустили букву. :пока:


Упс! спасибо!!! :приветствую:
darkshvein
Стаж: 8 лет 10 мес.
Сообщений: 9
Ratio: 46.296
100%
Цитата:
Кодек: ALAC

Смысл, я так понимаю, чтобы проигрывался на большинстве плееров?
Glebany ®
 
Стаж: 10 лет 8 мес.
Сообщений: 200
Ratio: 142.288
Поблагодарили: 5152
100%
darkshvein писал(а): Перейти к сообщению
Цитата:
Кодек: ALAC

Смысл, я так понимаю, чтобы проигрывался на большинстве плееров?


выложил исключительно для тех кто слушает на mac, iphone .... в flac или ape много кто выкладывает....
Dmitriy - 5x5
Стаж: 10 лет 7 мес.
Сообщений: 30
Ratio: 1280.546
Поблагодарили: 13862
100%
russia.gif
Благодарю! Эх.. юность моя!
Foresnet
Стаж: 14 лет 6 мес.
Сообщений: 22
Ratio: 7.173
Раздал: 957 GB
Поблагодарили: 196
51.85%
Откуда: г.Псков
russia.gif
Пардон, думал виндозная раздача.
Adriano_
Стаж: 10 лет 7 мес.
Сообщений: 588
Ratio: 217.057
Поблагодарили: 85
100%
Откуда: LV-426
Баллада о древнерусском войне?
WTF?
"Войн", "андройд", "рептилойд" - расстрельный список.

И ещё, уважаемый Глеб Архипов! Рип неаккуратный, есть ошибки.
acrew
Стаж: 14 лет 9 мес.
Сообщений: 73
Ratio: 14.691
Поблагодарили: 449
12.09%
ussr.gif
Glebany писал(а): Перейти к сообщению
darkshvein писал(а): Перейти к сообщению
Цитата:
Кодек: ALAC

Смысл, я так понимаю, чтобы проигрывался на большинстве плееров?


выложил исключительно для тех кто слушает на mac, iphone .... в flac или ape много кто выкладывает....

А разница с Flac заметная? В качестве проигрывает?
Показать сообщения:   
Начать новую тему   Ответить на тему    Торрент-трекер NNM-Club -> Аудио и Видео -> Музыка Lossless (ALAC) Часовой пояс: GMT + 3
Страница 1 из 1