Классический форум-трекер
canvas not supported
Нас вместе: 4 166 201

ATB - Contact (2014) [ALAC|Tracks|WEB-DL]<Trance>


 
 
RSS
Начать новую тему   Ответить на тему    Торрент-трекер NNM-Club -> Аудио и Видео -> Музыка Lossless (ALAC)
Автор Сообщение
sseless ®
Меломан, Реставратор
Стаж: 9 лет
Сообщений: 3542
Ratio: 1386.827
Раздал: 45.33 TB
Поблагодарили: 160416
100%
north_korea.gif
ATB - Contact (2014)


Год: 2014 Издатель (лейбл): Kontor Records Номер по каталогу #: 1063694kon
Жанр: Trance Продолжительность: 02:21:05
Кодек: ALAC Битрейт: Lossless|WEB-DL Тип раздачи: Tracks Обложки: Вшиты Кодирование: Easy CD-DA Extractor+ iTunes
Самый ожидаемый альбом 2014 года для любителей электронной музыки — "Contact" Андре Таннебергера (нем. André Tanneberger ) — немецкого музыканта, музыкального продюсера и диджея, выступающего под псевдонимом ATB.
Продолжитeльность: 01:05:52
Треклист:
01. ATB feat. Sean Ryan - When It Ends It Starts Again (4:53)
02. ATB with Boss and Swan - Raging Bull (3:39)
03. ATB and JES - Together (4:44)
04. ATB feat. Stanfour - Face To Face (3:43)
05. ATB feat. Boss and Swan - Beam Me Up (4:34)
06. ATB and JES - Hard To Cure (6:07)
07. ATB feat. JanSoon - Now Or Never (4:38)
08. ATB feat. Sean Ryan - Straight To The Stars (4:23)
09. ATB with Boss and Swan - Walking Awake (5:11)
10. ATB and Taylr - Everything Is Beautiful (5:03)
11. ATB feat. JanSoon - What Are You Waiting For (4:13)
12. ATB feat. Tiff Lacey - Still Here (ATB's Anthem 2014 Version) (5:46)
13. ATB feat. Vanessa - Arms Wide Open (4:10)
14. ATB and York feat. JES - Right Back To You (4:48)
Код:

-----------------------

DON'T MODIFY THIS FILE

-----------------------

PERFORMER: auCDtect Task Manager, ver. 1.6.0 RC1 build 1.6.0.1
Copyright (c) 2008-2010 y-soft. All rights reserved
http://y-soft.org

ANALYZER: auCDtect: CD records authenticity detector, version 0.8.2
Copyright (c) 2004 Oleg Berngardt. All rights reserved.
Copyright (c) 2004 Alexander Djourik. All rights reserved.

FILE: 14. ATB and York feat. JES - Right Back To You.m4a
  Size: 39162469 Hash: 19E98826B2A725CA457604208ACB5332 Accuracy: -m0
  Conclusion: CDDA 100%
  Signature: 0D679D0B71169C142D069284D27AB7703B887F7E
FILE: 13. ATB feat. Vanessa - Arms Wide Open.m4a
  Size: 36127917 Hash: 05843CB06EC4D801C55F904D194E390E Accuracy: -m0
  Conclusion: CDDA 100%
  Signature: 28852BBF7105501010C558A3FF1E42FAA5FF9155
FILE: 12. ATB feat. Tiff Lacey - Still Here (ATB's Anthem 2014 Version).m4a
  Size: 48324004 Hash: 6DEAE5F590A5E79091BCEC448A4F52C6 Accuracy: -m0
  Conclusion: CDDA 100%
  Signature: 40B4A8FF502D25B4B8EFD80BA95A656BA12CA52C
FILE: 11. ATB feat. JanSoon - What Are You Waiting For.m4a
  Size: 37860660 Hash: CA0152A066357D73993F3E13D0775B20 Accuracy: -m0
  Conclusion: CDDA 100%
  Signature: 46EABAFC01A8690352A6CC504686F7566D18DF37
FILE: 10. ATB and Taylr - Everything Is Beautiful.m4a
  Size: 40501151 Hash: 25FC06E21B36EA5339425B47E3106584 Accuracy: -m0
  Conclusion: CDDA 100%
  Signature: FA52799A662F81390CF3CC078FD3D892043C560D
FILE: 09. ATB with Boss and Swan - Walking Awake.m4a
  Size: 38380956 Hash: C25D5CC30A1423C670CF5905B75BC7FF Accuracy: -m0
  Conclusion: CDDA 100%
  Signature: BABA9CA470524716B16B5EAC060F28583C9E3218
FILE: 08. ATB feat. Sean Ryan - Straight To The Stars.m4a
  Size: 29141063 Hash: 38CD129CD2DA031ACCBDCA2776EC65B6 Accuracy: -m0
  Conclusion: CDDA 100%
  Signature: 5D7489EEB6E1994474F24F57DA7CCA1901F41B5B
FILE: 07. ATB feat. JanSoon - Now Or Never.m4a
  Size: 39589639 Hash: 0AC7E2C4769E06B61EB1BE2BF55A9CA7 Accuracy: -m0
  Conclusion: CDDA 100%
  Signature: 368565DEABCAA530765E1139284BEE63E89FA8A1
FILE: 06. ATB and JES - Hard To Cure.m4a
  Size: 48706942 Hash: BD2674539A9C1B9B84FC3FC10F4CBACA Accuracy: -m0
  Conclusion: CDDA 100%
  Signature: 95A47E0C49098AB908DDD6F4EF8695405F394996
FILE: 05. ATB feat. Boss and Swan - Beam Me Up.m4a
  Size: 29346672 Hash: AFB8C8082AD038392B7F127F6335CE26 Accuracy: -m0
  Conclusion: CDDA 100%
  Signature: BC51542A64806648B0E9893D6952955AA2948A0A
FILE: 04. ATB feat. Stanfour - Face To Face.m4a
  Size: 32376949 Hash: E51BAF924D2A4C3317B327D3E50154E4 Accuracy: -m0
  Conclusion: CDDA 100%
  Signature: 6EDBEB420445DC695DBDA4E5E165BA312FDE5DC9
FILE: 03. ATB and JES - Together.m4a
  Size: 38459447 Hash: 489C31769D20397B40B35ED2425B1C2C Accuracy: -m0
  Conclusion: CDDA 100%
  Signature: 4EF2CD898809643E7B9B39BD68C1AA890123E369
FILE: 02. ATB with Boss and Swan - Raging Bull.m4a
  Size: 30644791 Hash: D3803D0CA76A00C6E68E2DB8977B0CD3 Accuracy: -m0
  Conclusion: CDDA 100%
  Signature: 70F438D9927B14DC5AD7E5AFA0E6E2446F5A4324
FILE: 01. ATB feat. Sean Ryan - When It Ends It Starts Again.m4a
  Size: 39372178 Hash: 1650BDAF5B46A88638CEDA67BF7E8746 Accuracy: -m0
  Conclusion: CDDA 100%
  Signature: 3216D4CB8B38AA5A329A151F4BD2E0EE079AF18C
Продолжитeльность: 01:15:13
Трeклист:
01. ATB - Contact (5:35)
02. ATB - Trace Of Life (6:30)
03. ATB feat. Stefan Erbe - When Angels Travel (7:27)
04. ATB feat. Anova - Jetstream (4:28)
05. ATB - Supersonic (7:26)
06. ATB feat. Fade - Pacific Avenue (6:58)
07. ATB - Red Sun (7:53)
08. ATB - The Mission (6:53)
09. ATB - Love The Silence (5:49)
10. ATB - Cursed By Beauty (6:18)
11. ATB - Galaxia (7:06)
12. ATB feat. Anova - Breathe (2:50)
Код:

-----------------------

DON'T MODIFY THIS FILE

-----------------------

PERFORMER: auCDtect Task Manager, ver. 1.6.0 RC1 build 1.6.0.1
Copyright (c) 2008-2010 y-soft. All rights reserved
http://y-soft.org

ANALYZER: auCDtect: CD records authenticity detector, version 0.8.2
Copyright (c) 2004 Oleg Berngardt. All rights reserved.
Copyright (c) 2004 Alexander Djourik. All rights reserved.

FILE: 12. ATB feat. Anova - Breathe.m4a
  Size: 14831259 Hash: F599B8DAE867CF74F289A676FA70BFB6 Accuracy: -m0
  Conclusion: CDDA 100%
  Signature: 121CCD26F638CDD1F961A06BE2A75233BF34F7F6
FILE: 11. ATB - Galaxia.m4a
  Size: 45718527 Hash: EA77E6A26C9E7C57F55FF1F84EB04793 Accuracy: -m0
  Conclusion: CDDA 100%
  Signature: 2526437C53189A8714843033E6C2B4D35D941E45
FILE: 10. ATB - Cursed By Beauty.m4a
  Size: 44972893 Hash: 7E944176A730D2230B239983CF1737A0 Accuracy: -m0
  Conclusion: CDDA 100%
  Signature: 33F2454F0AF2CD1F7F15F30AED9B79D47E5B1846
FILE: 09. ATB - Love The Silence.m4a
  Size: 38174520 Hash: E54FBA684BD51FEC592CCBB96C189A06 Accuracy: -m0
  Conclusion: CDDA 100%
  Signature: 6CB1C0FA1F4E80FBABC41003E54191BA5E685F63
FILE: 08. ATB - The Mission.m4a
  Size: 47396711 Hash: C772FAB209D9315C54DB8FA2B2D4D7BF Accuracy: -m0
  Conclusion: CDDA 100%
  Signature: 71153ED0E32D775B6BD92267EDF11886AB6FCCA6
FILE: 07. ATB - Red Sun.m4a
  Size: 51631831 Hash: DEDCCA752B66CBE46C7C268D53009ED9 Accuracy: -m0
  Conclusion: CDDA 100%
  Signature: A2384DCBFD51F275D98BD29CFA1FC19BB2ABCB1C
FILE: 06. ATB feat. Fade - Pacific Avenue.m4a
  Size: 53806571 Hash: B73F8B0120CFCFD83BAA88CFE80F07C3 Accuracy: -m0
  Conclusion: CDDA 100%
  Signature: 268072DC9BF6744B483728B0A2AE881CB9CF1D34
FILE: 05. ATB - Supersonic.m4a
  Size: 52318402 Hash: ABACBEC5CAD709AA090EE15004E00580 Accuracy: -m0
  Conclusion: CDDA 100%
  Signature: 9E7A19179BBF6F5EA39663EFA0C912F9589588A5
FILE: 04. ATB feat. Anova - Jetstream.m4a
  Size: 31933178 Hash: 33F9D911E10589CEBD7D51E15ED3B529 Accuracy: -m0
  Conclusion: CDDA 99%
  Signature: C8F1738223452EED9232B24F4560862D9678AA36
FILE: 03. ATB feat. Stefan Erbe - When Angels Travel.m4a
  Size: 48778188 Hash: C5F152CDCFF2644EDDEA9AC2AB3CEE27 Accuracy: -m0
  Conclusion: CDDA 100%
  Signature: 3B28A9A321F25B1C91F014A604620C7DF224FB3F
FILE: 02. ATB - Trace Of Life.m4a
  Size: 44073551 Hash: E5C3C944ECF7BE5B237930C0CDFA17AA Accuracy: -m0
  Conclusion: CDDA 100%
  Signature: CCE9051F4CE19780A45B38FF18B4547141FDB6D8
FILE: 01. ATB - Contact.m4a
  Size: 43802147 Hash: 66D39ED1D0DDF2DDD8C40D2BD4E378EA Accuracy: -m0
  Conclusion: CDDA 100%
  Signature: FE8E55F8684E119C81133DCD1A90293B07A960B0

Код:

Общее
Полное имя                               : C:\ATB - Contact (2014)\CD1\01. ATB feat. Sean Ryan - When It Ends It Starts Again.m4a
Формат                                   : MPEG-4
Профиль формата                          : Apple audio with iTunes info
Идентификатор кодека                     : M4A
Размер файла                             : 37,5 Мбайт
Продолжительность                        : 4 м. 53 с.
Режим общего битрейта                    : Переменный
Общий поток                              : 1072 Кбит/сек
Альбом                                   : Contact
Альбом/Исполнитель                       : ATB
Часть/Положение                          : 1
Часть/Всего                              : 2
Трек                                     : When It Ends It Starts Again
Трек/Положение                           : 1
Трек/Всего                               : 14
Исполнитель                              : ATB feat. Sean Ryan
Жанр                                     : Trance
Дата записи                              : 2014
Дата кодирования                         : UTC 2014-01-21 07:07:24
Дата пометки                             : UTC 2014-01-21 14:41:05
Программа кодирования                    : Easy CD-DA Extractor (http://www.poikosoft.com)
Обложка                                  : Yes
soal                                     : Contact
sonm                                     : When It Ends It Starts Again
soar                                     : ATB feat. Sean Ryan
soaa                                     : ATB

Аудио
Идентификатор                            : 1
Формат                                   : ALAC
Идентификатор кодека                     : alac
Идентификатор кодека/Информация          : Apple Lossless Audio Codec
Продолжительность                        : 4 м. 53 с.
Duration_LastFrame                       : -58 мс.
Вид битрейта                             : Переменный
Битрейт                                  : 1068 Кбит/сек
Каналы                                   : 2 канала
Частота                                  : 44,1 КГц
Битовая глубина                          : 16 бит
Размер потока                            : 37,4 Мбайт (100%)
Язык                                     : English
Дата кодирования                         : UTC 2014-01-21 07:07:24
Дата пометки                             : UTC 2014-01-21 14:41:05

Общее
Полное имя                               : C:\ATB - Contact (2014)\CD1\02. ATB with Boss and Swan - Raging Bull.m4a
Формат                                   : MPEG-4
Профиль формата                          : Apple audio with iTunes info
Идентификатор кодека                     : M4A
Размер файла                             : 29,2 Мбайт
Продолжительность                        : 3 м. 39 с.
Режим общего битрейта                    : Переменный
Общий поток                              : 1117 Кбит/сек
Альбом                                   : Contact
Альбом/Исполнитель                       : ATB
Часть/Положение                          : 1
Часть/Всего                              : 2
Трек                                     : Raging Bull
Трек/Положение                           : 2
Трек/Всего                               : 14
Исполнитель                              : ATB with Boss and Swan
Жанр                                     : Trance
Дата записи                              : 2014
Дата кодирования                         : UTC 2014-01-21 07:07:24
Дата пометки                             : UTC 2014-01-21 14:41:05
Программа кодирования                    : Easy CD-DA Extractor (http://www.poikosoft.com)
Обложка                                  : Yes
soal                                     : Contact
sonm                                     : Raging Bull
soar                                     : ATB with Boss and Swan
soaa                                     : ATB

Аудио
Идентификатор                            : 1
Формат                                   : ALAC
Идентификатор кодека                     : alac
Идентификатор кодека/Информация          : Apple Lossless Audio Codec
Продолжительность                        : 3 м. 39 с.
Duration_LastFrame                       : -35 мс.
Вид битрейта                             : Переменный
Битрейт                                  : 1111 Кбит/сек
Каналы                                   : 2 канала
Частота                                  : 44,1 КГц
Битовая глубина                          : 16 бит
Размер потока                            : 29,1 Мбайт (99%)
Язык                                     : English
Дата кодирования                         : UTC 2014-01-21 07:07:24
Дата пометки                             : UTC 2014-01-21 14:41:05

Общее
Полное имя                               : C:\ATB - Contact (2014)\CD1\03. ATB and JES - Together.m4a
Формат                                   : MPEG-4
Профиль формата                          : Apple audio with iTunes info
Идентификатор кодека                     : M4A
Размер файла                             : 36,7 Мбайт
Продолжительность                        : 4 м. 44 с.
Режим общего битрейта                    : Переменный
Общий поток                              : 1082 Кбит/сек
Альбом                                   : Contact
Альбом/Исполнитель                       : ATB
Часть/Положение                          : 1
Часть/Всего                              : 2
Трек                                     : Together
Трек/Положение                           : 3
Трек/Всего                               : 14
Исполнитель                              : ATB and JES
Жанр                                     : Trance
Дата записи                              : 2014
Дата кодирования                         : UTC 2014-01-21 07:07:27
Дата пометки                             : UTC 2014-01-21 14:41:05
Программа кодирования                    : Easy CD-DA Extractor (http://www.poikosoft.com)
Обложка                                  : Yes
soal                                     : Contact
sonm                                     : Together
soar                                     : ATB and JES
soaa                                     : ATB

Аудио
Идентификатор                            : 1
Формат                                   : ALAC
Идентификатор кодека                     : alac
Идентификатор кодека/Информация          : Apple Lossless Audio Codec
Продолжительность                        : 4 м. 44 с.
Duration_LastFrame                       : -11 мс.
Вид битрейта                             : Переменный
Битрейт                                  : 1077 Кбит/сек
Каналы                                   : 2 канала
Частота                                  : 44,1 КГц
Битовая глубина                          : 16 бит
Размер потока                            : 36,5 Мбайт (100%)
Язык                                     : English
Дата кодирования                         : UTC 2014-01-21 07:07:27
Дата пометки                             : UTC 2014-01-21 14:41:05

Общее
Полное имя                               : C:\ATB - Contact (2014)\CD1\04. ATB feat. Stanfour - Face To Face.m4a
Формат                                   : MPEG-4
Профиль формата                          : Apple audio with iTunes info
Идентификатор кодека                     : M4A
Размер файла                             : 30,9 Мбайт
Продолжительность                        : 3 м. 43 с.
Режим общего битрейта                    : Переменный
Общий поток                              : 1160 Кбит/сек
Альбом                                   : Contact
Альбом/Исполнитель                       : ATB
Часть/Положение                          : 1
Часть/Всего                              : 2
Трек                                     : Face To Face
Трек/Положение                           : 4
Трек/Всего                               : 14
Исполнитель                              : ATB feat. Stanfour
Жанр                                     : Trance
Дата записи                              : 2014
Дата кодирования                         : UTC 2014-01-21 07:07:28
Дата пометки                             : UTC 2014-01-21 14:41:05
Программа кодирования                    : Easy CD-DA Extractor (http://www.poikosoft.com)
Обложка                                  : Yes
soal                                     : Contact
sonm                                     : Face To Face
soar                                     : ATB feat. Stanfour
soaa                                     : ATB

Аудио
Идентификатор                            : 1
Формат                                   : ALAC
Идентификатор кодека                     : alac
Идентификатор кодека/Информация          : Apple Lossless Audio Codec
Продолжительность                        : 3 м. 43 с.
Duration_LastFrame                       : -3 мс.
Вид битрейта                             : Переменный
Битрейт                                  : 1154 Кбит/сек
Каналы                                   : 2 канала
Частота                                  : 44,1 КГц
Битовая глубина                          : 16 бит
Размер потока                            : 30,7 Мбайт (100%)
Язык                                     : English
Дата кодирования                         : UTC 2014-01-21 07:07:28
Дата пометки                             : UTC 2014-01-21 14:41:05

Общее
Полное имя                               : C:\ATB - Contact (2014)\CD1\05. ATB feat. Boss and Swan - Beam Me Up.m4a
Формат                                   : MPEG-4
Профиль формата                          : Apple audio with iTunes info
Идентификатор кодека                     : M4A
Размер файла                             : 28,0 Мбайт
Продолжительность                        : 4 м. 34 с.
Режим общего битрейта                    : Переменный
Общий поток                              : 856 Кбит/сек
Альбом                                   : Contact
Альбом/Исполнитель                       : ATB
Часть/Положение                          : 1
Часть/Всего                              : 2
Трек                                     : Beam Me Up
Трек/Положение                           : 5
Трек/Всего                               : 14
Исполнитель                              : ATB feat. Boss and Swan
Жанр                                     : Trance
Дата записи                              : 2014
Дата кодирования                         : UTC 2014-01-21 07:07:31
Дата пометки                             : UTC 2014-01-21 14:41:06
Программа кодирования                    : Easy CD-DA Extractor (http://www.poikosoft.com)
Обложка                                  : Yes
sonm                                     : Beam Me Up
soar                                     : ATB feat. Boss and Swan
soaa                                     : ATB

Аудио
Идентификатор                            : 1
Формат                                   : ALAC
Идентификатор кодека                     : alac
Идентификатор кодека/Информация          : Apple Lossless Audio Codec
Продолжительность                        : 4 м. 34 с.
Duration_LastFrame                       : -48 мс.
Вид битрейта                             : Переменный
Битрейт                                  : 852 Кбит/сек
Каналы                                   : 2 канала
Частота                                  : 44,1 КГц
Битовая глубина                          : 16 бит
Размер потока                            : 27,8 Мбайт (99%)
Язык                                     : English
Дата кодирования                         : UTC 2014-01-21 07:07:31
Дата пометки                             : UTC 2014-01-21 14:41:06

Общее
Полное имя                               : C:\ATB - Contact (2014)\CD1\06. ATB and JES - Hard To Cure.m4a
Формат                                   : MPEG-4
Профиль формата                          : Apple audio with iTunes info
Идентификатор кодека                     : M4A
Размер файла                             : 46,5 Мбайт
Продолжительность                        : 6 м. 7 с.
Режим общего битрейта                    : Переменный
Общий поток                              : 1059 Кбит/сек
Альбом                                   : Contact
Альбом/Исполнитель                       : ATB
Часть/Положение                          : 1
Часть/Всего                              : 2
Трек                                     : Hard To Cure
Трек/Положение                           : 6
Трек/Всего                               : 14
Исполнитель                              : ATB and JES
Жанр                                     : Trance
Дата записи                              : 2014
Дата кодирования                         : UTC 2014-01-21 07:07:32
Дата пометки                             : UTC 2014-01-21 14:41:06
Программа кодирования                    : Easy CD-DA Extractor (http://www.poikosoft.com)
Обложка                                  : Yes
soal                                     : Contact
sonm                                     : Hard To Cure
soar                                     : ATB and JES
soaa                                     : ATB

Аудио
Идентификатор                            : 1
Формат                                   : ALAC
Идентификатор кодека                     : alac
Идентификатор кодека/Информация          : Apple Lossless Audio Codec
Продолжительность                        : 6 м. 7 с.
Duration_LastFrame                       : -17 мс.
Вид битрейта                             : Переменный
Битрейт                                  : 1056 Кбит/сек
Каналы                                   : 2 канала
Частота                                  : 44,1 КГц
Битовая глубина                          : 16 бит
Размер потока                            : 46,3 Мбайт (100%)
Язык                                     : English
Дата кодирования                         : UTC 2014-01-21 07:07:32
Дата пометки                             : UTC 2014-01-21 14:41:06

Общее
Полное имя                               : C:\ATB - Contact (2014)\CD1\07. ATB feat. JanSoon - Now Or Never.m4a
Формат                                   : MPEG-4
Профиль формата                          : Apple audio with iTunes info
Идентификатор кодека                     : M4A
Размер файла                             : 37,8 Мбайт
Продолжительность                        : 4 м. 38 с.
Режим общего битрейта                    : Переменный
Общий поток                              : 1138 Кбит/сек
Альбом                                   : Contact
Альбом/Исполнитель                       : ATB
Часть/Положение                          : 1
Часть/Всего                              : 2
Трек                                     : Now Or Never
Трек/Положение                           : 7
Трек/Всего                               : 14
Исполнитель                              : ATB feat. JanSoon
Жанр                                     : Trance
Дата записи                              : 2014
Дата кодирования                         : UTC 2014-01-21 07:07:35
Дата пометки                             : UTC 2014-01-21 14:41:06
Программа кодирования                    : Easy CD-DA Extractor (http://www.poikosoft.com)
Обложка                                  : Yes
soal                                     : Contact
sonm                                     : Now Or Never
soar                                     : ATB feat. JanSoon
soaa                                     : ATB

Аудио
Идентификатор                            : 1
Формат                                   : ALAC
Идентификатор кодека                     : alac
Идентификатор кодека/Информация          : Apple Lossless Audio Codec
Продолжительность                        : 4 м. 38 с.
Duration_LastFrame                       : -28 мс.
Вид битрейта                             : Переменный
Битрейт                                  : 1134 Кбит/сек
Каналы                                   : 2 канала
Частота                                  : 44,1 КГц
Битовая глубина                          : 16 бит
Размер потока                            : 37,6 Мбайт (100%)
Язык                                     : English
Дата кодирования                         : UTC 2014-01-21 07:07:35
Дата пометки                             : UTC 2014-01-21 14:41:06

Общее
Полное имя                               : C:\ATB - Contact (2014)\CD1\08. ATB feat. Sean Ryan - Straight To The Stars.m4a
Формат                                   : MPEG-4
Профиль формата                          : Apple audio with iTunes info
Идентификатор кодека                     : M4A
Размер файла                             : 27,8 Мбайт
Продолжительность                        : 4 м. 23 с.
Режим общего битрейта                    : Переменный
Общий поток                              : 885 Кбит/сек
Альбом                                   : Contact
Альбом/Исполнитель                       : ATB
Часть/Положение                          : 1
Часть/Всего                              : 2
Трек                                     : Straight To The Stars
Трек/Положение                           : 8
Трек/Всего                               : 14
Исполнитель                              : ATB feat. Sean Ryan
Жанр                                     : Trance
Дата записи                              : 2014
Дата кодирования                         : UTC 2014-01-21 07:07:37
Дата пометки                             : UTC 2014-01-21 14:41:06
Программа кодирования                    : Easy CD-DA Extractor (http://www.poikosoft.com)
Обложка                                  : Yes
soal                                     : Contact
sonm                                     : Straight To The Stars
soar                                     : ATB feat. Sean Ryan
soaa                                     : ATB

Аудио
Идентификатор                            : 1
Формат                                   : ALAC
Идентификатор кодека                     : alac
Идентификатор кодека/Информация          : Apple Lossless Audio Codec
Продолжительность                        : 4 м. 23 с.
Duration_LastFrame                       : -86 мс.
Вид битрейта                             : Переменный
Битрейт                                  : 880 Кбит/сек
Каналы                                   : 2 канала
Частота                                  : 44,1 КГц
Битовая глубина                          : 16 бит
Размер потока                            : 27,6 Мбайт (99%)
Язык                                     : English
Дата кодирования                         : UTC 2014-01-21 07:07:37
Дата пометки                             : UTC 2014-01-21 14:41:06

Общее
Полное имя                               : C:\ATB - Contact (2014)\CD1\09. ATB with Boss and Swan - Walking Awake.m4a
Формат                                   : MPEG-4
Профиль формата                          : Apple audio with iTunes info
Идентификатор кодека                     : M4A
Размер файла                             : 36,6 Мбайт
Продолжительность                        : 5 м. 11 с.
Режим общего битрейта                    : Переменный
Общий поток                              : 986 Кбит/сек
Альбом                                   : Contact
Альбом/Исполнитель                       : ATB
Часть/Положение                          : 1
Часть/Всего                              : 2
Трек                                     : Walking Awake
Трек/Положение                           : 9
Трек/Всего                               : 14
Исполнитель                              : ATB with Boss and Swan
Жанр                                     : Trance
Дата записи                              : 2014
Дата кодирования                         : UTC 2014-01-21 07:07:39
Дата пометки                             : UTC 2014-01-21 14:41:06
Программа кодирования                    : Easy CD-DA Extractor (http://www.poikosoft.com)
Обложка                                  : Yes
soal                                     : Contact
sonm                                     : Walking Awake
soar                                     : ATB with Boss and Swan
soaa                                     : ATB

Аудио
Идентификатор                            : 1
Формат                                   : ALAC
Идентификатор кодека                     : alac
Идентификатор кодека/Информация          : Apple Lossless Audio Codec
Продолжительность                        : 5 м. 11 с.
Duration_LastFrame                       : -65 мс.
Вид битрейта                             : Переменный
Битрейт                                  : 981 Кбит/сек
Каналы                                   : 2 канала
Частота                                  : 44,1 КГц
Битовая глубина                          : 16 бит
Размер потока                            : 36,4 Мбайт (100%)
Язык                                     : English
Дата кодирования                         : UTC 2014-01-21 07:07:39
Дата пометки                             : UTC 2014-01-21 14:41:06

Общее
Полное имя                               : C:\ATB - Contact (2014)\CD1\10. ATB and Taylr - Everything Is Beautiful.m4a
Формат                                   : MPEG-4
Профиль формата                          : Apple audio with iTunes info
Идентификатор кодека                     : M4A
Размер файла                             : 38,6 Мбайт
Продолжительность                        : 5 м. 3 с.
Режим общего битрейта                    : Переменный
Общий поток                              : 1068 Кбит/сек
Альбом                                   : Contact
Альбом/Исполнитель                       : ATB
Часть/Положение                          : 1
Часть/Всего                              : 2
Трек                                     : Everything Is Beautiful
Трек/Положение                           : 10
Трек/Всего                               : 14
Исполнитель                              : ATB and Taylr
Жанр                                     : Trance
Дата записи                              : 2014
Дата кодирования                         : UTC 2014-01-21 07:07:40
Дата пометки                             : UTC 2014-01-21 14:41:06
Программа кодирования                    : Easy CD-DA Extractor (http://www.poikosoft.com)
Обложка                                  : Yes
soal                                     : Contact
sonm                                     : Everything Is Beautiful
soar                                     : ATB and Taylr
soaa                                     : ATB

Аудио
Идентификатор                            : 1
Формат                                   : ALAC
Идентификатор кодека                     : alac
Идентификатор кодека/Информация          : Apple Lossless Audio Codec
Продолжительность                        : 5 м. 3 с.
Duration_LastFrame                       : -39 мс.
Вид битрейта                             : Переменный
Битрейт                                  : 1064 Кбит/сек
Каналы                                   : 2 канала
Частота                                  : 44,1 КГц
Битовая глубина                          : 16 бит
Размер потока                            : 38,5 Мбайт (100%)
Язык                                     : English
Дата кодирования                         : UTC 2014-01-21 07:07:40
Дата пометки                             : UTC 2014-01-21 14:41:06

Общее
Полное имя                               : C:\ATB - Contact (2014)\CD1\11. ATB feat. JanSoon - What Are You Waiting For.m4a
Формат                                   : MPEG-4
Профиль формата                          : Apple audio with iTunes info
Идентификатор кодека                     : M4A
Размер файла                             : 36,1 Мбайт
Продолжительность                        : 4 м. 13 с.
Режим общего битрейта                    : Переменный
Общий поток                              : 1194 Кбит/сек
Альбом                                   : Contact
Альбом/Исполнитель                       : ATB
Часть/Положение                          : 1
Часть/Всего                              : 2
Трек                                     : What Are You Waiting For
Трек/Положение                           : 11
Трек/Всего                               : 14
Исполнитель                              : ATB feat. JanSoon
Жанр                                     : Trance
Дата записи                              : 2014
Дата кодирования                         : UTC 2014-01-21 07:07:44
Дата пометки                             : UTC 2014-01-21 14:41:06
Программа кодирования                    : Easy CD-DA Extractor (http://www.poikosoft.com)
Обложка                                  : Yes
soal                                     : Contact
sonm                                     : What Are You Waiting For
soar                                     : ATB feat. JanSoon
soaa                                     : ATB

Аудио
Идентификатор                            : 1
Формат                                   : ALAC
Идентификатор кодека                     : alac
Идентификатор кодека/Информация          : Apple Lossless Audio Codec
Продолжительность                        : 4 м. 13 с.
Duration_LastFrame                       : -55 мс.
Вид битрейта                             : Переменный
Битрейт                                  : 1189 Кбит/сек
Каналы                                   : 2 канала
Частота                                  : 44,1 КГц
Битовая глубина                          : 16 бит
Размер потока                            : 36,0 Мбайт (100%)
Язык                                     : English
Дата кодирования                         : UTC 2014-01-21 07:07:44
Дата пометки                             : UTC 2014-01-21 14:41:06

Общее
Полное имя                               : C:\ATB - Contact (2014)\CD1\12. ATB feat. Tiff Lacey - Still Here (ATB's Anthem 2014 Version).m4a
Формат                                   : MPEG-4
Профиль формата                          : Apple audio with iTunes info
Идентификатор кодека                     : M4A
Размер файла                             : 46,1 Мбайт
Продолжительность                        : 5 м. 46 с.
Режим общего битрейта                    : Переменный
Общий поток                              : 1116 Кбит/сек
Альбом                                   : Contact
Альбом/Исполнитель                       : ATB
Часть/Положение                          : 1
Часть/Всего                              : 2
Трек                                     : Still Here (ATB's Anthem 2014 Version)
Трек/Положение                           : 12
Трек/Всего                               : 14
Исполнитель                              : ATB feat. Tiff Lacey
Жанр                                     : Trance
Дата записи                              : 2014
Дата кодирования                         : UTC 2014-01-21 07:07:45
Дата пометки                             : UTC 2014-01-21 14:41:06
Программа кодирования                    : Easy CD-DA Extractor (http://www.poikosoft.com)
Обложка                                  : Yes
soal                                     : Contact
sonm                                     : Still Here (ATB's Anthem 2014 Version)
soar                                     : ATB feat. Tiff Lacey
soaa                                     : ATB

Аудио
Идентификатор                            : 1
Формат                                   : ALAC
Идентификатор кодека                     : alac
Идентификатор кодека/Информация          : Apple Lossless Audio Codec
Продолжительность                        : 5 м. 46 с.
Duration_LastFrame                       : -42 мс.
Вид битрейта                             : Переменный
Битрейт                                  : 1113 Кбит/сек
Каналы                                   : 2 канала
Частота                                  : 44,1 КГц
Битовая глубина                          : 16 бит
Размер потока                            : 45,9 Мбайт (100%)
Язык                                     : English
Дата кодирования                         : UTC 2014-01-21 07:07:45
Дата пометки                             : UTC 2014-01-21 14:41:06

Общее
Полное имя                               : C:\ATB - Contact (2014)\CD1\13. ATB feat. Vanessa - Arms Wide Open.m4a
Формат                                   : MPEG-4
Профиль формата                          : Apple audio with iTunes info
Идентификатор кодека                     : M4A
Размер файла                             : 34,5 Мбайт
Продолжительность                        : 4 м. 10 с.
Режим общего битрейта                    : Переменный
Общий поток                              : 1154 Кбит/сек
Альбом                                   : Contact
Альбом/Исполнитель                       : ATB
Часть/Положение                          : 1
Часть/Всего                              : 2
Трек                                     : Arms Wide Open
Трек/Положение                           : 13
Трек/Всего                               : 14
Исполнитель                              : ATB feat. Vanessa
Жанр                                     : Trance
Дата записи                              : 2014
Дата кодирования                         : UTC 2014-01-21 07:07:48
Дата пометки                             : UTC 2014-01-21 14:41:06
Программа кодирования                    : Easy CD-DA Extractor (http://www.poikosoft.com)
Обложка                                  : Yes
soal                                     : Contact
sonm                                     : Arms Wide Open
soar                                     : ATB feat. Vanessa
soaa                                     : ATB

Аудио
Идентификатор                            : 1
Формат                                   : ALAC
Идентификатор кодека                     : alac
Идентификатор кодека/Информация          : Apple Lossless Audio Codec
Продолжительность                        : 4 м. 10 с.
Duration_LastFrame                       : -44 мс.
Вид битрейта                             : Переменный
Битрейт                                  : 1149 Кбит/сек
Каналы                                   : 2 канала
Частота                                  : 44,1 КГц
Битовая глубина                          : 16 бит
Размер потока                            : 34,3 Мбайт (100%)
Язык                                     : English
Дата кодирования                         : UTC 2014-01-21 07:07:48
Дата пометки                             : UTC 2014-01-21 14:41:06

Общее
Полное имя                               : C:\ATB - Contact (2014)\CD1\14. ATB and York feat. JES - Right Back To You.m4a
Формат                                   : MPEG-4
Профиль формата                          : Apple audio with iTunes info
Идентификатор кодека                     : M4A
Размер файла                             : 37,3 Мбайт
Продолжительность                        : 4 м. 48 с.
Режим общего битрейта                    : Переменный
Общий поток                              : 1087 Кбит/сек
Альбом                                   : Contact
Альбом/Исполнитель                       : ATB
Часть/Положение                          : 1
Часть/Всего                              : 2
Трек                                     : Right Back To You
Трек/Положение                           : 14
Трек/Всего                               : 14
Исполнитель                              : ATB and York feat. JES
Жанр                                     : Trance
Дата записи                              : 2014
Дата кодирования                         : UTC 2014-01-21 07:07:50
Дата пометки                             : UTC 2014-01-21 14:41:06
Программа кодирования                    : Easy CD-DA Extractor (http://www.poikosoft.com)
Обложка                                  : Yes
soal                                     : Contact
sonm                                     : Right Back To You
soar                                     : ATB and York feat. JES
soaa                                     : ATB

Аудио
Идентификатор                            : 1
Формат                                   : ALAC
Идентификатор кодека                     : alac
Идентификатор кодека/Информация          : Apple Lossless Audio Codec
Продолжительность                        : 4 м. 48 с.
Duration_LastFrame                       : -86 мс.
Вид битрейта                             : Переменный
Битрейт                                  : 1083 Кбит/сек
Каналы                                   : 2 канала
Частота                                  : 44,1 КГц
Битовая глубина                          : 16 бит
Размер потока                            : 37,2 Мбайт (100%)
Язык                                     : English
Дата кодирования                         : UTC 2014-01-21 07:07:50
Дата пометки                             : UTC 2014-01-21 14:41:06

Общее
Полное имя                               : C:\ATB - Contact (2014)\CD1\Folder.auCDtect.txt
Размер файла                             : 6,41 Кбайт

Общее
Полное имя                               : C:\ATB - Contact (2014)\CD1\Thumbs.db
Размер файла                             : 443 Кбайт

Общее
Полное имя                               : C:\ATB - Contact (2014)\CD2\01. ATB - Contact.m4a
Формат                                   : MPEG-4
Профиль формата                          : Apple audio with iTunes info
Идентификатор кодека                     : M4A
Размер файла                             : 41,8 Мбайт
Продолжительность                        : 5 м. 35 с.
Режим общего битрейта                    : Переменный
Общий поток                              : 1046 Кбит/сек
Альбом                                   : Contact
Альбом/Исполнитель                       : ATB
Часть/Положение                          : 2
Часть/Всего                              : 2
Трек                                     : Contact
Трек/Положение                           : 1
Трек/Всего                               : 12
Исполнитель                              : ATB
Жанр                                     : Trance
Дата записи                              : 2014
Дата кодирования                         : UTC 2014-01-21 07:07:51
Дата пометки                             : UTC 2014-01-21 14:41:07
Программа кодирования                    : Easy CD-DA Extractor (http://www.poikosoft.com)
Обложка                                  : Yes
soal                                     : Contact
sonm                                     : Contact
soar                                     : ATB
soaa                                     : ATB

Аудио
Идентификатор                            : 1
Формат                                   : ALAC
Идентификатор кодека                     : alac
Идентификатор кодека/Информация          : Apple Lossless Audio Codec
Продолжительность                        : 5 м. 35 с.
Duration_LastFrame                       : -57 мс.
Вид битрейта                             : Переменный
Битрейт                                  : 1042 Кбит/сек
Каналы                                   : 2 канала
Частота                                  : 44,1 КГц
Битовая глубина                          : 16 бит
Размер потока                            : 41,6 Мбайт (100%)
Язык                                     : English
Дата кодирования                         : UTC 2014-01-21 07:07:51
Дата пометки                             : UTC 2014-01-21 14:41:07

Общее
Полное имя                               : C:\ATB - Contact (2014)\CD2\02. ATB - Trace Of Life.m4a
Формат                                   : MPEG-4
Профиль формата                          : Apple audio with iTunes info
Идентификатор кодека                     : M4A
Размер файла                             : 42,0 Мбайт
Продолжительность                        : 6 м. 30 с.
Режим общего битрейта                    : Переменный
Общий поток                              : 903 Кбит/сек
Альбом                                   : Contact
Альбом/Исполнитель                       : ATB
Часть/Положение                          : 2
Часть/Всего                              : 2
Трек                                     : Trace Of Life
Трек/Положение                           : 2
Трек/Всего                               : 12
Исполнитель                              : ATB
Жанр                                     : Trance
Дата записи                              : 2014
Дата кодирования                         : UTC 2014-01-21 07:07:55
Дата пометки                             : UTC 2014-01-21 14:41:07
Программа кодирования                    : Easy CD-DA Extractor (http://www.poikosoft.com)
Обложка                                  : Yes
soal                                     : Contact
sonm                                     : Trace Of Life
soar                                     : ATB
soaa                                     : ATB

Аудио
Идентификатор                            : 1
Формат                                   : ALAC
Идентификатор кодека                     : alac
Идентификатор кодека/Информация          : Apple Lossless Audio Codec
Продолжительность                        : 6 м. 30 с.
Duration_LastFrame                       : -13 мс.
Вид битрейта                             : Переменный
Битрейт                                  : 900 Кбит/сек
Каналы                                   : 2 канала
Частота                                  : 44,1 КГц
Битовая глубина                          : 16 бит
Размер потока                            : 41,9 Мбайт (100%)
Язык                                     : English
Дата кодирования                         : UTC 2014-01-21 07:07:55
Дата пометки                             : UTC 2014-01-21 14:41:07

Общее
Полное имя                               : C:\ATB - Contact (2014)\CD2\03. ATB feat. Stefan Erbe - When Angels Travel.m4a
Формат                                   : MPEG-4
Профиль формата                          : Apple audio with iTunes info
Идентификатор кодека                     : M4A
Размер файла                             : 46,5 Мбайт
Продолжительность                        : 7 м. 27 с.
Режим общего битрейта                    : Переменный
Общий поток                              : 872 Кбит/сек
Альбом                                   : Contact
Альбом/Исполнитель                       : ATB
Часть/Положение                          : 2
Часть/Всего                              : 2
Трек                                     : When Angels Travel
Трек/Положение                           : 3
Трек/Всего                               : 12
Исполнитель                              : ATB feat. Stefan Erbe
Жанр                                     : Trance
Дата записи                              : 2014
Дата кодирования                         : UTC 2014-01-21 07:07:56
Дата пометки                             : UTC 2014-01-21 14:41:07
Программа кодирования                    : Easy CD-DA Extractor (http://www.poikosoft.com)
Обложка                                  : Yes
soal                                     : Contact
sonm                                     : When Angels Travel
soar                                     : ATB feat. Stefan Erbe
soaa                                     : ATB

Аудио
Идентификатор                            : 1
Формат                                   : ALAC
Идентификатор кодека                     : alac
Идентификатор кодека/Информация          : Apple Lossless Audio Codec
Продолжительность                        : 7 м. 27 с.
Duration_LastFrame                       : -28 мс.
Вид битрейта                             : Переменный
Битрейт                                  : 869 Кбит/сек
Каналы                                   : 2 канала
Частота                                  : 44,1 КГц
Битовая глубина                          : 16 бит
Размер потока                            : 46,4 Мбайт (100%)
Язык                                     : English
Дата кодирования                         : UTC 2014-01-21 07:07:56
Дата пометки                             : UTC 2014-01-21 14:41:07

Общее
Полное имя                               : C:\ATB - Contact (2014)\CD2\04. ATB feat. Anova - Jetstream.m4a
Формат                                   : MPEG-4
Профиль формата                          : Apple audio with iTunes info
Идентификатор кодека                     : M4A
Размер файла                             : 30,5 Мбайт
Продолжительность                        : 4 м. 28 с.
Режим общего битрейта                    : Переменный
Общий поток                              : 953 Кбит/сек
Альбом                                   : Contact
Альбом/Исполнитель                       : ATB
Часть/Положение                          : 2
Часть/Всего                              : 2
Трек                                     : Jetstream
Трек/Положение                           : 4
Трек/Всего                               : 12
Исполнитель                              : ATB feat. Anova
Жанр                                     : Trance
Дата записи                              : 2014
Дата кодирования                         : UTC 2014-01-21 07:08:01
Дата пометки                             : UTC 2014-01-21 14:41:07
Программа кодирования                    : Easy CD-DA Extractor (http://www.poikosoft.com)
Обложка                                  : Yes
soal                                     : Contact
sonm                                     : Jetstream
soar                                     : ATB feat. Anova
soaa                                     : ATB

Аудио
Идентификатор                            : 1
Формат                                   : ALAC
Идентификатор кодека                     : alac
Идентификатор кодека/Информация          : Apple Lossless Audio Codec
Продолжительность                        : 4 м. 28 с.
Duration_LastFrame                       : -51 мс.
Вид битрейта                             : Переменный
Битрейт                                  : 948 Кбит/сек
Каналы                                   : 2 канала
Частота                                  : 44,1 КГц
Битовая глубина                          : 16 бит
Размер потока                            : 30,3 Мбайт (100%)
Язык                                     : English
Дата кодирования                         : UTC 2014-01-21 07:08:01
Дата пометки                             : UTC 2014-01-21 14:41:07

Общее
Полное имя                               : C:\ATB - Contact (2014)\CD2\05. ATB - Supersonic.m4a
Формат                                   : MPEG-4
Профиль формата                          : Apple audio with iTunes info
Идентификатор кодека                     : M4A
Размер файла                             : 49,9 Мбайт
Продолжительность                        : 7 м. 26 с.
Режим общего битрейта                    : Переменный
Общий поток                              : 938 Кбит/сек
Альбом                                   : Contact
Альбом/Исполнитель                       : ATB
Часть/Положение                          : 2
Часть/Всего                              : 2
Трек                                     : Supersonic
Трек/Положение                           : 5
Трек/Всего                               : 12
Исполнитель                              : ATB
Жанр                                     : Trance
Дата записи                              : 2014
Дата кодирования                         : UTC 2014-01-21 07:08:03
Дата пометки                             : UTC 2014-01-21 14:41:07
Программа кодирования                    : Easy CD-DA Extractor (http://www.poikosoft.com)
Обложка                                  : Yes
soal                                     : Contact
sonm                                     : Supersonic
soar                                     : ATB
soaa                                     : ATB

Аудио
Идентификатор                            : 1
Формат                                   : ALAC
Идентификатор кодека                     : alac
Идентификатор кодека/Информация          : Apple Lossless Audio Codec
Продолжительность                        : 7 м. 26 с.
Duration_LastFrame                       : -8 мс.
Вид битрейта                             : Переменный
Битрейт                                  : 935 Кбит/сек
Каналы                                   : 2 канала
Частота                                  : 44,1 КГц
Битовая глубина                          : 16 бит
Размер потока                            : 49,7 Мбайт (100%)
Язык                                     : English
Дата кодирования                         : UTC 2014-01-21 07:08:03
Дата пометки                             : UTC 2014-01-21 14:41:07

Общее
Полное имя                               : C:\ATB - Contact (2014)\CD2\06. ATB feat. Fade - Pacific Avenue.m4a
Формат                                   : MPEG-4
Профиль формата                          : Apple audio with iTunes info
Идентификатор кодека                     : M4A
Размер файла                             : 51,3 Мбайт
Продолжительность                        : 6 м. 58 с.
Режим общего битрейта                    : Переменный
Общий поток                              : 1028 Кбит/сек
Альбом                                   : Contact
Альбом/Исполнитель                       : ATB
Часть/Положение                          : 2
Часть/Всего                              : 2
Трек                                     : Pacific Avenue
Трек/Положение                           : 6
Трек/Всего                               : 12
Исполнитель                              : ATB feat. Fade
Жанр                                     : Trance
Дата записи                              : 2014
Дата кодирования                         : UTC 2014-01-21 07:08:05
Дата пометки                             : UTC 2014-01-21 14:41:07
Программа кодирования                    : Easy CD-DA Extractor (http://www.poikosoft.com)
Обложка                                  : Yes
soal                                     : Contact
sonm                                     : Pacific Avenue
soar                                     : ATB feat. Fade
soaa                                     : ATB

Аудио
Идентификатор                            : 1
Формат                                   : ALAC
Идентификатор кодека                     : alac
Идентификатор кодека/Информация          : Apple Lossless Audio Codec
Продолжительность                        : 6 м. 58 с.
Duration_LastFrame                       : -35 мс.
Вид битрейта                             : Переменный
Битрейт                                  : 1025 Кбит/сек
Каналы                                   : 2 канала
Частота                                  : 44,1 КГц
Битовая глубина                          : 16 бит
Размер потока                            : 51,2 Мбайт (100%)
Язык                                     : English
Дата кодирования                         : UTC 2014-01-21 07:08:05
Дата пометки                             : UTC 2014-01-21 14:41:07

Общее
Полное имя                               : C:\ATB - Contact (2014)\CD2\07. ATB - Red Sun.m4a
Формат                                   : MPEG-4
Профиль формата                          : Apple audio with iTunes info
Идентификатор кодека                     : M4A
Размер файла                             : 49,2 Мбайт
Продолжительность                        : 7 м. 53 с.
Режим общего битрейта                    : Переменный
Общий поток                              : 873 Кбит/сек
Альбом                                   : Contact
Альбом/Исполнитель                       : ATB
Часть/Положение                          : 2
Часть/Всего                              : 2
Трек                                     : Red Sun
Трек/Положение                           : 7
Трек/Всего                               : 12
Исполнитель                              : ATB
Жанр                                     : Trance
Дата записи                              : 2014
Дата кодирования                         : UTC 2014-01-21 07:08:09
Дата пометки                             : UTC 2014-01-21 14:41:07
Программа кодирования                    : Easy CD-DA Extractor (http://www.poikosoft.com)
Обложка                                  : Yes
soal                                     : Contact
sonm                                     : Red Sun
soar                                     : ATB
soaa                                     : ATB

Аудио
Идентификатор                            : 1
Формат                                   : ALAC
Идентификатор кодека                     : alac
Идентификатор кодека/Информация          : Apple Lossless Audio Codec
Продолжительность                        : 7 м. 53 с.
Duration_LastFrame                       : -8 мс.
Вид битрейта                             : Переменный
Битрейт                                  : 870 Кбит/сек
Каналы                                   : 2 канала
Частота                                  : 44,1 КГц
Битовая глубина                          : 16 бит
Размер потока                            : 49,1 Мбайт (100%)
Язык                                     : English
Дата кодирования                         : UTC 2014-01-21 07:08:09
Дата пометки                             : UTC 2014-01-21 14:41:07

Общее
Полное имя                               : C:\ATB - Contact (2014)\CD2\08. ATB - The Mission.m4a
Формат                                   : MPEG-4
Профиль формата                          : Apple audio with iTunes info
Идентификатор кодека                     : M4A
Размер файла                             : 45,2 Мбайт
Продолжительность                        : 6 м. 53 с.
Режим общего битрейта                    : Переменный
Общий поток                              : 917 Кбит/сек
Альбом                                   : Contact
Альбом/Исполнитель                       : ATB
Часть/Положение                          : 2
Часть/Всего                              : 2
Трек                                     : The Mission
Трек/Положение                           : 8
Трек/Всего                               : 12
Исполнитель                              : ATB
Жанр                                     : Trance
Дата записи                              : 2014
Дата кодирования                         : UTC 2014-01-21 07:08:11
Дата пометки                             : UTC 2014-01-21 14:41:07
Программа кодирования                    : Easy CD-DA Extractor (http://www.poikosoft.com)
Обложка                                  : Yes
soal                                     : Contact
sonm                                     : The Mission
soar                                     : ATB
soaa                                     : ATB

Аудио
Идентификатор                            : 1
Формат                                   : ALAC
Идентификатор кодека                     : alac
Идентификатор кодека/Информация          : Apple Lossless Audio Codec
Продолжительность                        : 6 м. 53 с.
Duration_LastFrame                       : -20 мс.
Вид битрейта                             : Переменный
Битрейт                                  : 913 Кбит/сек
Каналы                                   : 2 канала
Частота                                  : 44,1 КГц
Битовая глубина                          : 16 бит
Размер потока                            : 45,0 Мбайт (100%)
Язык                                     : English
Дата кодирования                         : UTC 2014-01-21 07:08:11
Дата пометки                             : UTC 2014-01-21 14:41:07

Общее
Полное имя                               : C:\ATB - Contact (2014)\CD2\09. ATB - Love The Silence.m4a
Формат                                   : MPEG-4
Профиль формата                          : Apple audio with iTunes info
Идентификатор кодека                     : M4A
Размер файла                             : 36,4 Мбайт
Продолжительность                        : 5 м. 49 с.
Режим общего битрейта                    : Переменный
Общий поток                              : 875 Кбит/сек
Альбом                                   : Contact
Альбом/Исполнитель                       : ATB
Часть/Положение                          : 2
Часть/Всего                              : 2
Трек                                     : Love The Silence
Трек/Положение                           : 9
Трек/Всего                               : 12
Исполнитель                              : ATB
Жанр                                     : Trance
Дата записи                              : 2014
Дата кодирования                         : UTC 2014-01-21 07:08:16
Дата пометки                             : UTC 2014-01-21 14:41:08
Программа кодирования                    : Easy CD-DA Extractor (http://www.poikosoft.com)
Обложка                                  : Yes
soal                                     : Contact
sonm                                     : Love The Silence
soar                                     : ATB
soaa                                     : ATB

Аудио
Идентификатор                            : 1
Формат                                   : ALAC
Идентификатор кодека                     : alac
Идентификатор кодека/Информация          : Apple Lossless Audio Codec
Продолжительность                        : 5 м. 49 с.
Duration_LastFrame                       : -2 мс.
Вид битрейта                             : Переменный
Битрейт                                  : 871 Кбит/сек
Каналы                                   : 2 канала
Частота                                  : 44,1 КГц
Битовая глубина                          : 16 бит
Размер потока                            : 36,3 Мбайт (100%)
Язык                                     : English
Дата кодирования                         : UTC 2014-01-21 07:08:16
Дата пометки                             : UTC 2014-01-21 14:41:08

Общее
Полное имя                               : C:\ATB - Contact (2014)\CD2\10. ATB - Cursed By Beauty.m4a
Формат                                   : MPEG-4
Профиль формата                          : Apple audio with iTunes info
Идентификатор кодека                     : M4A
Размер файла                             : 42,9 Мбайт
Продолжительность                        : 6 м. 18 с.
Режим общего битрейта                    : Переменный
Общий поток                              : 950 Кбит/сек
Альбом                                   : Contact
Альбом/Исполнитель                       : ATB
Часть/Положение                          : 2
Часть/Всего                              : 2
Трек                                     : Cursed By Beauty
Трек/Положение                           : 10
Трек/Всего                               : 12
Исполнитель                              : ATB
Жанр                                     : Trance
Дата записи                              : 2014
Дата кодирования                         : UTC 2014-01-21 07:08:17
Дата пометки                             : UTC 2014-01-21 14:41:08
Программа кодирования                    : Easy CD-DA Extractor (http://www.poikosoft.com)
Обложка                                  : Yes
soal                                     : Contact
sonm                                     : Cursed By Beauty
soar                                     : ATB
soaa                                     : ATB

Аудио
Идентификатор                            : 1
Формат                                   : ALAC
Идентификатор кодека                     : alac
Идентификатор кодека/Информация          : Apple Lossless Audio Codec
Продолжительность                        : 6 м. 18 с.
Duration_LastFrame                       : -43 мс.
Вид битрейта                             : Переменный
Битрейт                                  : 946 Кбит/сек
Каналы                                   : 2 канала
Частота                                  : 44,1 КГц
Битовая глубина                          : 16 бит
Размер потока                            : 42,7 Мбайт (100%)
Язык                                     : English
Дата кодирования                         : UTC 2014-01-21 07:08:17
Дата пометки                             : UTC 2014-01-21 14:41:08

Общее
Полное имя                               : C:\ATB - Contact (2014)\CD2\11. ATB - Galaxia.m4a
Формат                                   : MPEG-4
Профиль формата                          : Apple audio with iTunes info
Идентификатор кодека                     : M4A
Размер файла                             : 43,6 Мбайт
Продолжительность                        : 7 м. 6 с.
Режим общего битрейта                    : Переменный
Общий поток                              : 858 Кбит/сек
Альбом                                   : Contact
Альбом/Исполнитель                       : ATB
Часть/Положение                          : 2
Часть/Всего                              : 2
Трек                                     : Galaxia
Трек/Положение                           : 11
Трек/Всего                               : 12
Исполнитель                              : ATB
Жанр                                     : Trance
Дата записи                              : 2014
Дата кодирования                         : UTC 2014-01-21 07:08:21
Дата пометки                             : UTC 2014-01-21 14:41:08
Программа кодирования                    : Easy CD-DA Extractor (http://www.poikosoft.com)
Обложка                                  : Yes
soal                                     : Contact
sonm                                     : Galaxia
soar                                     : ATB
soaa                                     : ATB

Аудио
Идентификатор                            : 1
Формат                                   : ALAC
Идентификатор кодека                     : alac
Идентификатор кодека/Информация          : Apple Lossless Audio Codec
Продолжительность                        : 7 м. 6 с.
Duration_LastFrame                       : -65 мс.
Вид битрейта                             : Переменный
Битрейт                                  : 855 Кбит/сек
Каналы                                   : 2 канала
Частота                                  : 44,1 КГц
Битовая глубина                          : 16 бит
Размер потока                            : 43,4 Мбайт (100%)
Язык                                     : English
Дата кодирования                         : UTC 2014-01-21 07:08:21
Дата пометки                             : UTC 2014-01-21 14:41:08

Общее
Полное имя                               : C:\ATB - Contact (2014)\CD2\12. ATB feat. Anova - Breathe.m4a
Формат                                   : MPEG-4
Профиль формата                          : Apple audio with iTunes info
Идентификатор кодека                     : M4A
Размер файла                             : 14,1 Мбайт
Продолжительность                        : 2 м. 50 с.
Режим общего битрейта                    : Переменный
Общий поток                              : 694 Кбит/сек
Альбом                                   : Contact
Альбом/Исполнитель                       : ATB
Часть/Положение                          : 2
Часть/Всего                              : 2
Трек                                     : Breathe
Трек/Положение                           : 12
Трек/Всего                               : 12
Исполнитель                              : ATB feat. Anova
Жанр                                     : Trance
Дата записи                              : 2014
Дата кодирования                         : UTC 2014-01-21 07:08:23
Дата пометки                             : UTC 2014-01-21 14:41:08
Программа кодирования                    : Easy CD-DA Extractor (http://www.poikosoft.com)
Обложка                                  : Yes
soal                                     : Contact
sonm                                     : Breathe
soar                                     : ATB feat. Anova
soaa                                     : ATB

Аудио
Идентификатор                            : 1
Формат                                   : ALAC
Идентификатор кодека                     : alac
Идентификатор кодека/Информация          : Apple Lossless Audio Codec
Продолжительность                        : 2 м. 50 с.
Duration_LastFrame                       : -46 мс.
Вид битрейта                             : Переменный
Битрейт                                  : 687 Кбит/сек
Каналы                                   : 2 канала
Частота                                  : 44,1 КГц
Битовая глубина                          : 16 бит
Размер потока                            : 14,0 Мбайт (99%)
Язык                                     : English
Дата кодирования                         : UTC 2014-01-21 07:08:23
Дата пометки                             : UTC 2014-01-21 14:41:08
Время раздачи: ( с 09:00 - 20:00 - до первых десяти сидов )
[NNM-Club.me]_ATB - Contact (2014).torrent
 Торрент: Платиновая раздача  Зарегистрирован
 
Скачать


Примагнититься
 Зарегистрирован:   21 Янв 2014 14:15:22
 Размер:   997 MB  (
 Рейтинг:   4.9 (Голосов: 34)
 Поблагодарили:   117
 Проверка:   Оформление проверено модератором 21 Янв 2014 14:56:20
Как cкачать  ·  Как раздать  ·  Правильно оформить  ·  Поднять ратио!  
Bu4inskiy
Стаж: 11 лет 5 мес.
Сообщений: 111
Ratio: 25.17
Раздал: 10.96 TB
100%
russia.gif
Супер музычка...)))
dc4223
Стаж: 11 лет 8 мес.
Сообщений: 14
Ratio: 9.196
Поблагодарили: 50
100%
russia.gif
Спасибо!!! ....очень ждал .
flexdev2011
Стаж: 10 лет 4 мес.
Сообщений: 2
Ratio: 3.484
20%
ukraine.gif
Спасибо! ) Можно вопрос: Издатель (лейбл): Kontor Records - это правда? Релиз только 24.01.2014 будет, раньше этой даты диск не прийдет. Или жегде-то релиз альбома случался раньше запланированной даты?
sseless ®
Меломан, Реставратор
Стаж: 9 лет
Сообщений: 3542
Ratio: 1386.827
Раздал: 45.33 TB
Поблагодарили: 160416
100%
north_korea.gif
flexdev2011 писал(а): Перейти к сообщению
случался
stpnv
Стаж: 8 лет 7 мес.
Сообщений: 4
Ratio: 5.92
0%
такую музыку в DTS-е бы послушать
второй диск особенно понравился
Lazyra
Стаж: 10 лет 7 мес.
Сообщений: 4907
Ratio: 1953.078
Раздал: 67.82 TB
Поблагодарили: 110598
100%
Откуда: Владимир
russia.gif
flexdev2011
Это Польский релиз!У них он раньше выходил , Поляки слили ..... Молодцы , и если не ошибаюсь на лейбле Маgic Music был выпущен!
Smoggg21
Стаж: 12 лет 8 мес.
Сообщений: 62
Ratio: 2.351
100%
Спасибо !!!!!!!!!!!!!!!1
Показать сообщения:   
Начать новую тему   Ответить на тему    Торрент-трекер NNM-Club -> Аудио и Видео -> Музыка Lossless (ALAC) Часовой пояс: GMT + 3
Страница 1 из 1