Классический форум-трекер
canvas not supported
Нас вместе: 4 166 398

Черный кофе - Переступи порог (1987) [ALAC|Lossless]<Rock>


 
 
RSS
Начать новую тему   Ответить на тему    Торрент-трекер NNM-Club -> Аудио и Видео -> Музыка Lossless (ALAC)
Автор Сообщение
Glebany ®
 
Стаж: 10 лет 8 мес.
Сообщений: 200
Ratio: 142.288
Поблагодарили: 5154
100%
Черный кофе - Переступи порог (1987)
Год: 1987
Жанр: Rock
Продолжительность: 00:44:49

Кодек: ALAC
Битрейт: Lossless
Источник: Собственный рип CD GOLD!
Программа конвертер: XLD
Издатель (лейбл): 1987 Мелодия, 1996 Триарий
Номер по каталогу: АМ 065

Треклист:
01. Переступи порог
02. Владимирская Русь
03. Жизни рассвет
04. Я ищу...
05. Мой дом
06. Звездный водоем
07. Пылает за окном звезда
08. Незнакомец
09. Черный кофе
10. Зимний портрет
11. Листья
12. Звуки космоса
Код:

General
Complete name                            : /Users/glebarhipov/Desktop/Черный кофе - Переступи порог/01 Чёрный Кофе - Переступи порог.m4a
Format                                   : MPEG-4
Format profile                           : Apple audio with iTunes info
Codec ID                                 : M4A
File size                                : 30.4 MiB
Duration                                 : 4mn 26s
Overall bit rate mode                    : Variable
Overall bit rate                         : 958 Kbps
Album                                    : Переступи порог
Track name                               : Переступи порог
Track name/Position                      : 1
Track name/Total                         : 12
Performer                                : Чёрный Кофе
Genre                                    : Rock
Recorded date                            : 1987
Encoded date                             : UTC 1993-08-09 12:47:10
Tagged date                              : UTC 1993-08-09 12:47:10
Writing application                      : X Lossless Decoder 20131102, QuickTime 7.7.3
iTunes_CDDB_1                            : B50A830C+202005+12+182+20125+44252+60070+80177+95312+110695+124060+142430+155030+171527+186535
iTunes_CDDB_TrackNumber                  : 1

Audio
ID                                       : 1
Format                                   : ALAC
Codec ID                                 : alac
Codec ID/Info                            : Apple Lossless Audio Codec
Duration                                 : 4mn 26s
Duration_LastFrame                       : -46ms
Bit rate mode                            : Variable
Bit rate                                 : 958 Kbps
Channel(s)                               : 2 channels
Sampling rate                            : 44.1 KHz
Bit depth                                : 16 bits
Stream size                              : 30.4 MiB (100%)
Language                                 : English
Encoded date                             : UTC 1993-08-09 12:47:10
Tagged date                              : UTC 1993-08-09 12:47:10

General
Complete name                            : /Users/glebarhipov/Desktop/Черный кофе - Переступи порог/02 Чёрный Кофе - Владимирская Русь.m4a
Format                                   : MPEG-4
Format profile                           : Apple audio with iTunes info
Codec ID                                 : M4A
File size                                : 35.0 MiB
Duration                                 : 5mn 21s
Overall bit rate mode                    : Variable
Overall bit rate                         : 913 Kbps
Album                                    : Переступи порог
Track name                               : Владимирская Русь
Track name/Position                      : 2
Track name/Total                         : 12
Performer                                : Чёрный Кофе
Genre                                    : Rock
Recorded date                            : 1987
Writing application                      : X Lossless Decoder 20131102, QuickTime 7.7.3
iTunes_CDDB_1                            : B50A830C+202005+12+182+20125+44252+60070+80177+95312+110695+124060+142430+155030+171527+186535
iTunes_CDDB_TrackNumber                  : 2

Audio
ID                                       : 1
Format                                   : ALAC
Codec ID                                 : alac
Codec ID/Info                            : Apple Lossless Audio Codec
Duration                                 : 5mn 21s
Duration_LastFrame                       : -42ms
Bit rate mode                            : Variable
Bit rate                                 : 912 Kbps
Channel(s)                               : 2 channels
Sampling rate                            : 44.1 KHz
Bit depth                                : 16 bits
Stream size                              : 35.0 MiB (100%)
Language                                 : English

General
Complete name                            : /Users/glebarhipov/Desktop/Черный кофе - Переступи порог/03 Чёрный Кофе - Жизни рассвет.m4a
Format                                   : MPEG-4
Format profile                           : Apple audio with iTunes info
Codec ID                                 : M4A
File size                                : 24.4 MiB
Duration                                 : 3mn 30s
Overall bit rate mode                    : Variable
Overall bit rate                         : 972 Kbps
Album                                    : Переступи порог
Track name                               : Жизни рассвет
Track name/Position                      : 3
Track name/Total                         : 12
Performer                                : Чёрный Кофе
Genre                                    : Rock
Recorded date                            : 1987
Encoded date                             : UTC 1980-04-25 18:32:46
Tagged date                              : UTC 1980-04-25 18:32:46
Writing application                      : X Lossless Decoder 20131102, QuickTime 7.7.3
iTunes_CDDB_1                            : B50A830C+202005+12+182+20125+44252+60070+80177+95312+110695+124060+142430+155030+171527+186535
iTunes_CDDB_TrackNumber                  : 3

Audio
ID                                       : 1
Format                                   : ALAC
Codec ID                                 : alac
Codec ID/Info                            : Apple Lossless Audio Codec
Duration                                 : 3mn 30s
Duration_LastFrame                       : -23ms
Bit rate mode                            : Variable
Bit rate                                 : 971 Kbps
Channel(s)                               : 2 channels
Sampling rate                            : 44.1 KHz
Bit depth                                : 16 bits
Stream size                              : 24.4 MiB (100%)
Language                                 : English
Encoded date                             : UTC 1980-04-25 18:32:46
Tagged date                              : UTC 1980-04-25 18:32:46

General
Complete name                            : /Users/glebarhipov/Desktop/Черный кофе - Переступи порог/04 Чёрный Кофе - Я ищу.m4a
Format                                   : MPEG-4
Format profile                           : Apple audio with iTunes info
Codec ID                                 : M4A
File size                                : 27.2 MiB
Duration                                 : 4mn 28s
Overall bit rate mode                    : Variable
Overall bit rate                         : 850 Kbps
Album                                    : Переступи порог
Track name                               : Я ищу
Track name/Position                      : 4
Track name/Total                         : 12
Performer                                : Чёрный Кофе
Genre                                    : Rock
Recorded date                            : 1987
Encoded date                             : UTC 2037-09-25 07:01:34
Tagged date                              : UTC 2037-09-25 07:01:34
Writing application                      : X Lossless Decoder 20131102, QuickTime 7.7.3
iTunes_CDDB_1                            : B50A830C+202005+12+182+20125+44252+60070+80177+95312+110695+124060+142430+155030+171527+186535
iTunes_CDDB_TrackNumber                  : 4

Audio
ID                                       : 1
Format                                   : ALAC
Codec ID                                 : alac
Codec ID/Info                            : Apple Lossless Audio Codec
Duration                                 : 4mn 28s
Duration_LastFrame                       : -51ms
Bit rate mode                            : Variable
Bit rate                                 : 849 Kbps
Channel(s)                               : 2 channels
Sampling rate                            : 44.1 KHz
Bit depth                                : 16 bits
Stream size                              : 27.1 MiB (100%)
Language                                 : English
Encoded date                             : UTC 2037-09-25 07:01:34
Tagged date                              : UTC 2037-09-25 07:01:34

General
Complete name                            : /Users/glebarhipov/Desktop/Черный кофе - Переступи порог/05 Чёрный Кофе - Мой дом.m4a
Format                                   : MPEG-4
Format profile                           : Apple audio with iTunes info
Codec ID                                 : M4A
File size                                : 22.9 MiB
Duration                                 : 3mn 21s
Overall bit rate mode                    : Variable
Overall bit rate                         : 954 Kbps
Album                                    : Переступи порог
Track name                               : Мой дом
Track name/Position                      : 5
Track name/Total                         : 12
Performer                                : Чёрный Кофе
Genre                                    : Rock
Recorded date                            : 1987
Writing application                      : X Lossless Decoder 20131102, QuickTime 7.7.3
iTunes_CDDB_1                            : B50A830C+202005+12+182+20125+44252+60070+80177+95312+110695+124060+142430+155030+171527+186535
iTunes_CDDB_TrackNumber                  : 5

Audio
ID                                       : 1
Format                                   : ALAC
Codec ID                                 : alac
Codec ID/Info                            : Apple Lossless Audio Codec
Duration                                 : 3mn 21s
Duration_LastFrame                       : -28ms
Bit rate mode                            : Variable
Bit rate                                 : 953 Kbps
Channel(s)                               : 2 channels
Sampling rate                            : 44.1 KHz
Bit depth                                : 16 bits
Stream size                              : 22.9 MiB (100%)
Language                                 : English

General
Complete name                            : /Users/glebarhipov/Desktop/Черный кофе - Переступи порог/06 Чёрный Кофе - Звездный водоем.m4a
Format                                   : MPEG-4
Format profile                           : Apple audio with iTunes info
Codec ID                                 : M4A
File size                                : 21.4 MiB
Duration                                 : 3mn 25s
Overall bit rate mode                    : Variable
Overall bit rate                         : 873 Kbps
Album                                    : Переступи порог
Track name                               : Звездный водоем
Track name/Position                      : 6
Track name/Total                         : 12
Performer                                : Чёрный Кофе
Genre                                    : Rock
Recorded date                            : 1987
Encoded date                             : UTC 1974-06-21 13:02:06
Tagged date                              : UTC 1974-06-21 13:02:06
Writing application                      : X Lossless Decoder 20131102, QuickTime 7.7.3
iTunes_CDDB_1                            : B50A830C+202005+12+182+20125+44252+60070+80177+95312+110695+124060+142430+155030+171527+186535
iTunes_CDDB_TrackNumber                  : 6

Audio
ID                                       : 1
Format                                   : ALAC
Codec ID                                 : alac
Codec ID/Info                            : Apple Lossless Audio Codec
Duration                                 : 3mn 25s
Duration_LastFrame                       : -65ms
Bit rate mode                            : Variable
Bit rate                                 : 872 Kbps
Channel(s)                               : 2 channels
Sampling rate                            : 44.1 KHz
Bit depth                                : 16 bits
Stream size                              : 21.3 MiB (100%)
Language                                 : English
Encoded date                             : UTC 1974-06-21 13:02:06
Tagged date                              : UTC 1974-06-21 13:02:06

General
Complete name                            : /Users/glebarhipov/Desktop/Черный кофе - Переступи порог/07 Чёрный Кофе - Пылает за окном звезда.m4a
Format                                   : MPEG-4
Format profile                           : Apple audio with iTunes info
Codec ID                                 : M4A
File size                                : 13.8 MiB
Duration                                 : 2mn 58s
Overall bit rate mode                    : Variable
Overall bit rate                         : 650 Kbps
Album                                    : Переступи порог
Track name                               : Пылает за окном звезда
Track name/Position                      : 7
Track name/Total                         : 12
Performer                                : Чёрный Кофе
Genre                                    : Rock
Recorded date                            : 1987
Encoded date                             : UTC 2014-05-06 02:22:06
Tagged date                              : UTC 2014-05-06 02:22:06
Writing application                      : X Lossless Decoder 20131102, QuickTime 7.7.3
iTunes_CDDB_1                            : B50A830C+202005+12+182+20125+44252+60070+80177+95312+110695+124060+142430+155030+171527+186535
iTunes_CDDB_TrackNumber                  : 7

Audio
ID                                       : 1
Format                                   : ALAC
Codec ID                                 : alac
Codec ID/Info                            : Apple Lossless Audio Codec
Duration                                 : 2mn 58s
Duration_LastFrame                       : -36ms
Bit rate mode                            : Variable
Bit rate                                 : 649 Kbps
Channel(s)                               : 2 channels
Sampling rate                            : 44.1 KHz
Bit depth                                : 16 bits
Stream size                              : 13.8 MiB (100%)
Language                                 : English
Encoded date                             : UTC 2014-05-06 02:22:06
Tagged date                              : UTC 2014-05-06 02:22:06

General
Complete name                            : /Users/glebarhipov/Desktop/Черный кофе - Переступи порог/08 Чёрный Кофе - Незнакомец.m4a
Format                                   : MPEG-4
Format profile                           : Apple audio with iTunes info
Codec ID                                 : M4A
File size                                : 29.4 MiB
Duration                                 : 4mn 4s
Overall bit rate mode                    : Variable
Overall bit rate                         : 1 006 Kbps
Album                                    : Переступи порог
Track name                               : Незнакомец
Track name/Position                      : 8
Track name/Total                         : 12
Performer                                : Чёрный Кофе
Genre                                    : Rock
Recorded date                            : 1987
Writing application                      : X Lossless Decoder 20131102, QuickTime 7.7.3
iTunes_CDDB_1                            : B50A830C+202005+12+182+20125+44252+60070+80177+95312+110695+124060+142430+155030+171527+186535
iTunes_CDDB_TrackNumber                  : 8

Audio
ID                                       : 1
Format                                   : ALAC
Codec ID                                 : alac
Codec ID/Info                            : Apple Lossless Audio Codec
Duration                                 : 4mn 4s
Duration_LastFrame                       : -84ms
Bit rate mode                            : Variable
Bit rate                                 : 1 005 Kbps
Channel(s)                               : 2 channels
Sampling rate                            : 44.1 KHz
Bit depth                                : 16 bits
Stream size                              : 29.4 MiB (100%)
Language                                 : English

General
Complete name                            : /Users/glebarhipov/Desktop/Черный кофе - Переступи порог/09 Чёрный Кофе - Черный Кофе.m4a
Format                                   : MPEG-4
Format profile                           : Apple audio with iTunes info
Codec ID                                 : M4A
File size                                : 19.3 MiB
Duration                                 : 2mn 48s
Overall bit rate mode                    : Variable
Overall bit rate                         : 962 Kbps
Album                                    : Переступи порог
Track name                               : Черный Кофе
Track name/Position                      : 9
Track name/Total                         : 12
Performer                                : Чёрный Кофе
Genre                                    : Rock
Recorded date                            : 1987
Writing application                      : X Lossless Decoder 20131102, QuickTime 7.7.3
iTunes_CDDB_1                            : B50A830C+202005+12+182+20125+44252+60070+80177+95312+110695+124060+142430+155030+171527+186535
iTunes_CDDB_TrackNumber                  : 9

Audio
ID                                       : 1
Format                                   : ALAC
Codec ID                                 : alac
Codec ID/Info                            : Apple Lossless Audio Codec
Duration                                 : 2mn 48s
Duration_LastFrame                       : -20ms
Bit rate mode                            : Variable
Bit rate                                 : 961 Kbps
Channel(s)                               : 2 channels
Sampling rate                            : 44.1 KHz
Bit depth                                : 16 bits
Stream size                              : 19.2 MiB (100%)
Language                                 : English

General
Complete name                            : /Users/glebarhipov/Desktop/Черный кофе - Переступи порог/10 Чёрный Кофе - Зимний портрет.m4a
Format                                   : MPEG-4
Format profile                           : Apple audio with iTunes info
Codec ID                                 : M4A
File size                                : 24.3 MiB
Duration                                 : 3mn 39s
Overall bit rate mode                    : Variable
Overall bit rate                         : 925 Kbps
Album                                    : Переступи порог
Track name                               : Зимний портрет
Track name/Position                      : 10
Track name/Total                         : 12
Performer                                : Чёрный Кофе
Genre                                    : Rock
Recorded date                            : 1987
Encoded date                             : UTC 2001-08-02 12:27:58
Tagged date                              : UTC 2001-08-02 12:27:58
Writing application                      : X Lossless Decoder 20131102, QuickTime 7.7.3
iTunes_CDDB_1                            : B50A830C+202005+12+182+20125+44252+60070+80177+95312+110695+124060+142430+155030+171527+186535
iTunes_CDDB_TrackNumber                  : 10

Audio
ID                                       : 1
Format                                   : ALAC
Codec ID                                 : alac
Codec ID/Info                            : Apple Lossless Audio Codec
Duration                                 : 3mn 39s
Duration_LastFrame                       : -72ms
Bit rate mode                            : Variable
Bit rate                                 : 924 Kbps
Channel(s)                               : 2 channels
Sampling rate                            : 44.1 KHz
Bit depth                                : 16 bits
Stream size                              : 24.2 MiB (100%)
Language                                 : English
Encoded date                             : UTC 2001-08-02 12:27:58
Tagged date                              : UTC 2001-08-02 12:27:58

General
Complete name                            : /Users/glebarhipov/Desktop/Черный кофе - Переступи порог/11 Чёрный Кофе - Листья.m4a
Format                                   : MPEG-4
Format profile                           : Apple audio with iTunes info
Codec ID                                 : M4A
File size                                : 17.8 MiB
Duration                                 : 3mn 20s
Overall bit rate mode                    : Variable
Overall bit rate                         : 748 Kbps
Album                                    : Переступи порог
Track name                               : Листья
Track name/Position                      : 11
Track name/Total                         : 12
Performer                                : Чёрный Кофе
Genre                                    : Rock
Recorded date                            : 1987
Encoded date                             : UTC 2039-11-12 12:47:10
Tagged date                              : UTC 2039-11-12 12:47:10
Writing application                      : X Lossless Decoder 20131102, QuickTime 7.7.3
iTunes_CDDB_1                            : B50A830C+202005+12+182+20125+44252+60070+80177+95312+110695+124060+142430+155030+171527+186535
iTunes_CDDB_TrackNumber                  : 11

Audio
ID                                       : 1
Format                                   : ALAC
Codec ID                                 : alac
Codec ID/Info                            : Apple Lossless Audio Codec
Duration                                 : 3mn 20s
Duration_LastFrame                       : -49ms
Bit rate mode                            : Variable
Bit rate                                 : 747 Kbps
Channel(s)                               : 2 channels
Sampling rate                            : 44.1 KHz
Bit depth                                : 16 bits
Stream size                              : 17.8 MiB (100%)
Language                                 : English
Encoded date                             : UTC 2039-11-12 12:47:10
Tagged date                              : UTC 2039-11-12 12:47:10

General
Complete name                            : /Users/glebarhipov/Desktop/Черный кофе - Переступи порог/12 Чёрный Кофе - Звуки космоса.m4a
Format                                   : MPEG-4
Format profile                           : Apple audio with iTunes info
Codec ID                                 : M4A
File size                                : 23.2 MiB
Duration                                 : 3mn 26s
Overall bit rate mode                    : Variable
Overall bit rate                         : 945 Kbps
Album                                    : Переступи порог
Track name                               : Звуки космоса
Track name/Position                      : 12
Track name/Total                         : 12
Performer                                : Чёрный Кофе
Genre                                    : Rock
Recorded date                            : 1987
Writing application                      : X Lossless Decoder 20131102, QuickTime 7.7.3
iTunes_CDDB_1                            : B50A830C+202005+12+182+20125+44252+60070+80177+95312+110695+124060+142430+155030+171527+186535
iTunes_CDDB_TrackNumber                  : 12

Audio
ID                                       : 1
Format                                   : ALAC
Codec ID                                 : alac
Codec ID/Info                            : Apple Lossless Audio Codec
Duration                                 : 3mn 26s
Duration_LastFrame                       : -19ms
Bit rate mode                            : Variable
Bit rate                                 : 944 Kbps
Channel(s)                               : 2 channels
Sampling rate                            : 44.1 KHz
Bit depth                                : 16 bits
Stream size                              : 23.2 MiB (100%)
Language                                 : English

General
Complete name                            : /Users/glebarhipov/Desktop/Черный кофе - Переступи порог/1345379955_5chernyy-kofe-perestupi-porog_thumb.jpg
Format                                   : JPEG
File size                                : 48.5 KiB

Image
Format                                   : JPEG
Width                                    : 500 pixels
Height                                   : 500 pixels
Color space                              : YUV
Chroma subsampling                       : 4:2:0
Bit depth                                : 8 bits
Compression mode                         : Lossy
Stream size                              : 48.5 KiB (100%)

General
Complete name                            : /Users/glebarhipov/Desktop/Черный кофе - Переступи порог/fperestupi_4a73de19735da712669280.jpg
Format                                   : JPEG
File size                                : 54.6 KiB

Image
Format                                   : JPEG
Width                                    : 638 pixels
Height                                   : 500 pixels
Color space                              : YUV
Chroma subsampling                       : 4:2:0
Bit depth                                : 8 bits
Compression mode                         : Lossy
Stream size                              : 54.6 KiB (100%)

General
Complete name                            : /Users/glebarhipov/Desktop/Черный кофе - Переступи порог/fperestupi_55a672feeb9c9ac5c02f27.jpg
Format                                   : JPEG
File size                                : 29.4 KiB

Image
Format                                   : JPEG
Width                                    : 500 pixels
Height                                   : 500 pixels
Color space                              : YUV
Chroma subsampling                       : 4:2:0
Bit depth                                : 8 bits
Compression mode                         : Lossy
Stream size                              : 29.4 KiB (100%)

General
Complete name                            : /Users/glebarhipov/Desktop/Черный кофе - Переступи порог/Переступи порог.log
File size                                : 12.4 KiB
Код:

X Lossless Decoder version 20131102 (145.0)

XLD extraction logfile from 2014-01-12 03:57:38 +0400

Чёрный Кофе / Переступи порог

Used drive : HL-DT-ST DVDRW  GA32N (revision KE06)
Media type : Pressed CD

Ripper mode             : CDParanoia III 10.2
Disable audio cache     : OK for the drive with a cache less than 2750KiB
Make use of C2 pointers : NO
Read offset correction  : 103
Max retry count         : 20
Gap status              : Analyzed, Appended

TOC of the extracted CD
     Track |   Start  |  Length  | Start sector | End sector
    ---------------------------------------------------------
        1  | 00:00:32 | 04:25:68 |        32    |    19974
        2  | 04:26:25 | 05:21:52 |     19975    |    44101
        3  | 09:48:02 | 03:30:68 |     44102    |    59919
        4  | 13:18:70 | 04:28:07 |     59920    |    80026
        5  | 17:47:02 | 03:21:60 |     80027    |    95161
        6  | 21:08:62 | 03:25:08 |     95162    |   110544
        7  | 24:33:70 | 02:58:15 |    110545    |   123909
        8  | 27:32:10 | 04:04:70 |    123910    |   142279
        9  | 31:37:05 | 02:48:00 |    142280    |   154879
       10  | 34:25:05 | 03:39:72 |    154880    |   171376
       11  | 38:05:02 | 03:20:08 |    171377    |   186384
       12  | 41:25:10 | 03:26:20 |    186385    |   201854

AccurateRip Summary
    Disc not found in AccurateRip DB.

All Tracks
    Album gain               : -3.61 dB
    Peak                     : 0.812683
    Statistics
        Read error                           : 0
        Skipped (treated as error)           : 0
        Edge jitter error (maybe fixed)      : 3
        Atom jitter error (maybe fixed)      : 2
        Drift error (maybe fixed)            : 0
        Dropped bytes error (maybe fixed)    : 0
        Duplicated bytes error (maybe fixed) : 0

Track 01
    Filename : /Users/glebarhipov/Desktop/Новая папка/01 Чёрный Кофе - Переступи порог.m4a
    Pre-gap length : 00:02:32

    Track gain               : -3.52 dB
    Peak                     : 0.758728
    CRC32 hash (test run)    : 56193312
    CRC32 hash               : 56193312
    CRC32 hash (skip zero)   : FD327C6E
    AccurateRip v1 signature : A0EABFBD
    AccurateRip v2 signature : 0306FEC0
        ->Track not present in AccurateRip database.
    Statistics
        Read error                           : 0
        Skipped (treated as error)           : 0
        Edge jitter error (maybe fixed)      : 1
        Atom jitter error (maybe fixed)      : 1
        Drift error (maybe fixed)            : 0
        Dropped bytes error (maybe fixed)    : 0
        Duplicated bytes error (maybe fixed) : 0
        Inconsistency in error sectors       : 0

Track 02
    Filename : /Users/glebarhipov/Desktop/Новая папка/02 Чёрный Кофе - Владимирская Русь.m4a
    Pre-gap length : 00:02:35

    Track gain               : -1.62 dB
    Peak                     : 0.760620
    CRC32 hash (test run)    : 2A8C15C9
    CRC32 hash               : 2A8C15C9
    CRC32 hash (skip zero)   : E5147848
    AccurateRip v1 signature : 193B6F03
    AccurateRip v2 signature : 2405FCA8
        ->Track not present in AccurateRip database.
    Statistics
        Read error                           : 0
        Skipped (treated as error)           : 0
        Edge jitter error (maybe fixed)      : 0
        Atom jitter error (maybe fixed)      : 0
        Drift error (maybe fixed)            : 0
        Dropped bytes error (maybe fixed)    : 0
        Duplicated bytes error (maybe fixed) : 0
        Inconsistency in error sectors       : 0

Track 03
    Filename : /Users/glebarhipov/Desktop/Новая папка/03 Чёрный Кофе - Жизни рассвет.m4a
    Pre-gap length : 00:02:47

    Track gain               : -4.08 dB
    Peak                     : 0.812683
    CRC32 hash (test run)    : D0830BC8
    CRC32 hash               : D0830BC8
    CRC32 hash (skip zero)   : F09E92E3
    AccurateRip v1 signature : 5D9487C9
    AccurateRip v2 signature : A095D0D3
        ->Track not present in AccurateRip database.
    Statistics
        Read error                           : 0
        Skipped (treated as error)           : 0
        Edge jitter error (maybe fixed)      : 1
        Atom jitter error (maybe fixed)      : 0
        Drift error (maybe fixed)            : 0
        Dropped bytes error (maybe fixed)    : 0
        Duplicated bytes error (maybe fixed) : 0
        Inconsistency in error sectors       : 0

Track 04
    Filename : /Users/glebarhipov/Desktop/Новая папка/04 Чёрный Кофе - Я ищу.m4a
    Pre-gap length : 00:02:43

    Track gain               : -2.88 dB
    Peak                     : 0.757538
    CRC32 hash (test run)    : 598791A3
    CRC32 hash               : 598791A3
    CRC32 hash (skip zero)   : C13DE8AA
    AccurateRip v1 signature : C6361C9E
    AccurateRip v2 signature : BCB62BDE
        ->Track not present in AccurateRip database.
    Statistics
        Read error                           : 0
        Skipped (treated as error)           : 0
        Edge jitter error (maybe fixed)      : 0
        Atom jitter error (maybe fixed)      : 0
        Drift error (maybe fixed)            : 0
        Dropped bytes error (maybe fixed)    : 0
        Duplicated bytes error (maybe fixed) : 0
        Inconsistency in error sectors       : 0

Track 05
    Filename : /Users/glebarhipov/Desktop/Новая папка/05 Чёрный Кофе - Мой дом.m4a
    Pre-gap length : 00:02:30

    Track gain               : -3.35 dB
    Peak                     : 0.759979
    CRC32 hash (test run)    : FA884C59
    CRC32 hash               : FA884C59
    CRC32 hash (skip zero)   : DB072D03
    AccurateRip v1 signature : 95446DDE
    AccurateRip v2 signature : 1DB32D5B
        ->Track not present in AccurateRip database.
    Statistics
        Read error                           : 0
        Skipped (treated as error)           : 0
        Edge jitter error (maybe fixed)      : 0
        Atom jitter error (maybe fixed)      : 0
        Drift error (maybe fixed)            : 0
        Dropped bytes error (maybe fixed)    : 0
        Duplicated bytes error (maybe fixed) : 0
        Inconsistency in error sectors       : 0

Track 06
    Filename : /Users/glebarhipov/Desktop/Новая папка/06 Чёрный Кофе - Звездный водоем.m4a
    Pre-gap length : 00:01:62

    Track gain               : -3.70 dB
    Peak                     : 0.760254
    CRC32 hash (test run)    : 46E756F4
    CRC32 hash               : 46E756F4
    CRC32 hash (skip zero)   : C0E939D8
    AccurateRip v1 signature : A8C89821
    AccurateRip v2 signature : EDA9C9B9
        ->Track not present in AccurateRip database.
    Statistics
        Read error                           : 0
        Skipped (treated as error)           : 0
        Edge jitter error (maybe fixed)      : 0
        Atom jitter error (maybe fixed)      : 0
        Drift error (maybe fixed)            : 0
        Dropped bytes error (maybe fixed)    : 0
        Duplicated bytes error (maybe fixed) : 0
        Inconsistency in error sectors       : 0

Track 07
    Filename : /Users/glebarhipov/Desktop/Новая папка/07 Чёрный Кофе - Пылает за окном звезда.m4a
    Pre-gap length : 00:01:70

    Track gain               : -1.20 dB
    Peak                     : 0.763306
    CRC32 hash (test run)    : 0BAB5BCA
    CRC32 hash               : 0BAB5BCA
    CRC32 hash (skip zero)   : DFEF1098
    AccurateRip v1 signature : 73699DBD
    AccurateRip v2 signature : F36A16A1
        ->Track not present in AccurateRip database.
    Statistics
        Read error                           : 0
        Skipped (treated as error)           : 0
        Edge jitter error (maybe fixed)      : 0
        Atom jitter error (maybe fixed)      : 0
        Drift error (maybe fixed)            : 0
        Dropped bytes error (maybe fixed)    : 0
        Duplicated bytes error (maybe fixed) : 0
        Inconsistency in error sectors       : 0

Track 08
    Filename : /Users/glebarhipov/Desktop/Новая папка/08 Чёрный Кофе - Незнакомец.m4a
    Pre-gap length : 00:03:03

    Track gain               : -5.32 dB
    Peak                     : 0.759460
    CRC32 hash (test run)    : 2CAA1492
    CRC32 hash               : 2CAA1492
    CRC32 hash (skip zero)   : 629F271D
    AccurateRip v1 signature : 48FDE612
    AccurateRip v2 signature : BB866EBE
        ->Track not present in AccurateRip database.
    Statistics
        Read error                           : 0
        Skipped (treated as error)           : 0
        Edge jitter error (maybe fixed)      : 0
        Atom jitter error (maybe fixed)      : 0
        Drift error (maybe fixed)            : 0
        Dropped bytes error (maybe fixed)    : 0
        Duplicated bytes error (maybe fixed) : 0
        Inconsistency in error sectors       : 0

Track 09
    Filename : /Users/glebarhipov/Desktop/Новая папка/09 Чёрный Кофе - Черный Кофе.m4a
    Pre-gap length : 00:02:00

    Track gain               : -2.58 dB
    Peak                     : 0.759094
    CRC32 hash (test run)    : 88A35F62
    CRC32 hash               : 88A35F62
    CRC32 hash (skip zero)   : F220CD62
    AccurateRip v1 signature : F2C25691
    AccurateRip v2 signature : A2D35B39
        ->Track not present in AccurateRip database.
    Statistics
        Read error                           : 0
        Skipped (treated as error)           : 0
        Edge jitter error (maybe fixed)      : 0
        Atom jitter error (maybe fixed)      : 0
        Drift error (maybe fixed)            : 0
        Dropped bytes error (maybe fixed)    : 0
        Duplicated bytes error (maybe fixed) : 0
        Inconsistency in error sectors       : 0

Track 10
    Filename : /Users/glebarhipov/Desktop/Новая папка/10 Чёрный Кофе - Зимний портрет.m4a
    Pre-gap length : 00:02:65

    Track gain               : -3.55 dB
    Peak                     : 0.811401
    CRC32 hash (test run)    : 29C32927
    CRC32 hash               : 29C32927
    CRC32 hash (skip zero)   : 1662D34B
    AccurateRip v1 signature : 7AC137A9
    AccurateRip v2 signature : 6D528352
        ->Track not present in AccurateRip database.
    Statistics
        Read error                           : 0
        Skipped (treated as error)           : 0
        Edge jitter error (maybe fixed)      : 0
        Atom jitter error (maybe fixed)      : 1
        Drift error (maybe fixed)            : 0
        Dropped bytes error (maybe fixed)    : 0
        Duplicated bytes error (maybe fixed) : 0
        Inconsistency in error sectors       : 0

Track 11
    Filename : /Users/glebarhipov/Desktop/Новая папка/11 Чёрный Кофе - Листья.m4a
    Pre-gap length : 00:03:02

    Track gain               : 0.24 dB
    Peak                     : 0.782074
    CRC32 hash (test run)    : EE02C52A
    CRC32 hash               : EE02C52A
    CRC32 hash (skip zero)   : AA6EDF24
    AccurateRip v1 signature : B4AA6F56
    AccurateRip v2 signature : B2309376
        ->Track not present in AccurateRip database.
    Statistics
        Read error                           : 0
        Skipped (treated as error)           : 0
        Edge jitter error (maybe fixed)      : 1
        Atom jitter error (maybe fixed)      : 0
        Drift error (maybe fixed)            : 0
        Dropped bytes error (maybe fixed)    : 0
        Duplicated bytes error (maybe fixed) : 0
        Inconsistency in error sectors       : 0

Track 12
    Filename : /Users/glebarhipov/Desktop/Новая папка/12 Чёрный Кофе - Звуки космоса.m4a
    Pre-gap length : 00:01:63

    Track gain               : -3.53 dB
    Peak                     : 0.759094
    CRC32 hash (test run)    : A952D6F1
    CRC32 hash               : A952D6F1
    CRC32 hash (skip zero)   : DBEA1B9F
    AccurateRip v1 signature : 8022E05F
    AccurateRip v2 signature : 98B71140
        ->Track not present in AccurateRip database.
    Statistics
        Read error                           : 0
        Skipped (treated as error)           : 0
        Edge jitter error (maybe fixed)      : 0
        Atom jitter error (maybe fixed)      : 0
        Drift error (maybe fixed)            : 0
        Dropped bytes error (maybe fixed)    : 0
        Duplicated bytes error (maybe fixed) : 0
        Inconsistency in error sectors       : 0

No errors occurred

End of status report
Время раздачи: 24/7 (круглосуточно)
[NNM-Club.me]_CHernyiy kofe - Perestupi porog.torrent
 Торрент: Платиновая раздача  Зарегистрирован
 
Скачать


Примагнититься
 Зарегистрирован:   26 Янв 2014 15:54:02
 Размер:   289 MB  (
 Рейтинг:   4.9 (Голосов: 49)
 Поблагодарили:   150
 Проверка:   Оформление проверено модератором 26 Янв 2014 17:23:07
Как cкачать  ·  Как раздать  ·  Правильно оформить  ·  Поднять ратио!  
bosa
Стаж: 12 лет 6 мес.
Сообщений: 22
Ratio: 3.031
32.79%
russia.gif
спасибо
Glebany ®
 
Стаж: 10 лет 8 мес.
Сообщений: 200
Ratio: 142.288
Поблагодарили: 5154
100%
bosa
Всегда пожалуйста!
heruvimrus
Стаж: 11 лет 6 мес.
Сообщений: 138
Ratio: 6.53
Поблагодарили: 115
37.84%
Откуда: Севастопо​ль-Крым-Р​оссия​
russia.gif
Нука.. Вспомню беззаботное детство..

_________________
маринасочи
Стаж: 8 лет 2 мес.
Сообщений: 1273
Ratio: 3.331
100%
да уж какая ностальгия-как бальзам на из раненую душу-благодарю
Показать сообщения:   
Начать новую тему   Ответить на тему    Торрент-трекер NNM-Club -> Аудио и Видео -> Музыка Lossless (ALAC) Часовой пояс: GMT + 3
Страница 1 из 1