Классический форум-трекер
canvas not supported
Нас вместе: 4 166 487

Черный кофе - Александрия (2007) [ALAC|Lossless]<Rock>


 
 
RSS
Начать новую тему   Ответить на тему    Торрент-трекер NNM-Club -> Аудио и Видео -> Музыка Lossless (ALAC)
Автор Сообщение
Glebany ®
 
Стаж: 10 лет 8 мес.
Сообщений: 200
Ratio: 142.288
Поблагодарили: 5154
100%
Черный кофе - Александрия (2007)
Год: 2007
Жанр: Rock
Продолжительность: 00:40:12

Кодек: ALAC
Битрейт: Lossless
Источник: Собственный рип
Программа конвертер: XLD
Издатель (лейбл): Никитин
Номер по каталогу: ТФН-CD-05-07

Треклист:
1. «Александрия» инструментал
2. «Герой»
3. «Краски»
4. «Удел»
5. «Ночной ястреб» инструментал
6. «Утренняя песня»
7. «Остров»
8. «Обитель» инструментал
9. «Плач о радости»
10. «Жди и надейся»
Код:

General
Complete name                            : /Users/glebarhipov/Desktop/Черный кофе - Александрия/01 Чёрный Кофе - Александрия.m4a
Format                                   : MPEG-4
Format profile                           : Apple audio with iTunes info
Codec ID                                 : M4A
File size                                : 8.17 MiB
Duration                                 : 1mn 32s
Overall bit rate mode                    : Variable
Overall bit rate                         : 745 Kbps
Album                                    : Alexandria
Album/Performer                          : Чёрный кофе
Part/Position                            : 1
Part/Total                               : 1
Track name                               : Александрия
Track name/Position                      : 1
Track name/Total                         : 10
Performer                                : Чёрный Кофе
Genre                                    : Rock
Recorded date                            : 2007
Writing application                      : X Lossless Decoder 20131102, QuickTime 7.7.3
iTunes_CDDB_1                            : 8609720A+181500+10+150+7050+31919+50755+63535+87251+104790+132238+150582+170418
iTunes_CDDB_TrackNumber                  : 1
MusicBrainz Track Id                     : 04388b5e-6b7f-42e3-852c-10010da92570
MusicBrainz Album Id                     : f2bb0b42-ed44-4458-bb5a-b396acab1a68
MusicBrainz Artist Id                    : 229cc68b-2a26-4d4c-8963-b70af1e63377
MusicBrainz Album Artist Id              : 229cc68b-2a26-4d4c-8963-b70af1e63377
MusicBrainz Disc Id                      : eSeZb9gGMSX2oyuC5ZBclRlHmCI-

Audio
ID                                       : 1
Format                                   : ALAC
Codec ID                                 : alac
Codec ID/Info                            : Apple Lossless Audio Codec
Duration                                 : 1mn 32s
Duration_LastFrame                       : -44ms
Bit rate mode                            : Variable
Bit rate                                 : 743 Kbps
Channel(s)                               : 2 channels
Sampling rate                            : 44.1 KHz
Bit depth                                : 16 bits
Stream size                              : 8.15 MiB (100%)
Language                                 : English

General
Complete name                            : /Users/glebarhipov/Desktop/Черный кофе - Александрия/02 Чёрный Кофе - Герой.m4a
Format                                   : MPEG-4
Format profile                           : Apple audio with iTunes info
Codec ID                                 : M4A
File size                                : 40.1 MiB
Duration                                 : 5mn 31s
Overall bit rate mode                    : Variable
Overall bit rate                         : 1 016 Kbps
Album                                    : Alexandria
Album/Performer                          : Чёрный кофе
Part/Position                            : 1
Part/Total                               : 1
Track name                               : Герой
Track name/Position                      : 2
Track name/Total                         : 10
Performer                                : Чёрный Кофе
Genre                                    : Rock
Recorded date                            : 2007
Encoded date                             : UTC 2036-09-19 09:03:10
Tagged date                              : UTC 2036-09-19 09:03:10
Writing application                      : X Lossless Decoder 20131102, QuickTime 7.7.3
iTunes_CDDB_1                            : 8609720A+181500+10+150+7050+31919+50755+63535+87251+104790+132238+150582+170418
iTunes_CDDB_TrackNumber                  : 2
MusicBrainz Track Id                     : 9307014b-ea04-41e2-b9b6-158887242c6e
MusicBrainz Album Id                     : f2bb0b42-ed44-4458-bb5a-b396acab1a68
MusicBrainz Artist Id                    : 229cc68b-2a26-4d4c-8963-b70af1e63377
MusicBrainz Album Artist Id              : 229cc68b-2a26-4d4c-8963-b70af1e63377
MusicBrainz Disc Id                      : eSeZb9gGMSX2oyuC5ZBclRlHmCI-

Audio
ID                                       : 1
Format                                   : ALAC
Codec ID                                 : alac
Codec ID/Info                            : Apple Lossless Audio Codec
Duration                                 : 5mn 31s
Duration_LastFrame                       : -87ms
Bit rate mode                            : Variable
Bit rate                                 : 1 014 Kbps
Channel(s)                               : 2 channels
Sampling rate                            : 44.1 KHz
Bit depth                                : 16 bits
Stream size                              : 40.1 MiB (100%)
Language                                 : English
Encoded date                             : UTC 2036-09-19 09:03:10
Tagged date                              : UTC 2036-09-19 09:03:10

General
Complete name                            : /Users/glebarhipov/Desktop/Черный кофе - Александрия/03 Чёрный Кофе - Краски.m4a
Format                                   : MPEG-4
Format profile                           : Apple audio with iTunes info
Codec ID                                 : M4A
File size                                : 30.4 MiB
Duration                                 : 4mn 11s
Overall bit rate mode                    : Variable
Overall bit rate                         : 1 016 Kbps
Album                                    : Alexandria
Album/Performer                          : Чёрный кофе
Part/Position                            : 1
Part/Total                               : 1
Track name                               : Краски
Track name/Position                      : 3
Track name/Total                         : 10
Performer                                : Чёрный Кофе
Genre                                    : Rock
Recorded date                            : 2007
Encoded date                             : UTC 1971-11-11 02:02:54
Tagged date                              : UTC 1971-11-11 02:02:54
Writing application                      : X Lossless Decoder 20131102, QuickTime 7.7.3
iTunes_CDDB_1                            : 8609720A+181500+10+150+7050+31919+50755+63535+87251+104790+132238+150582+170418
iTunes_CDDB_TrackNumber                  : 3
MusicBrainz Track Id                     : 248bb010-3bdd-4ecc-9332-0fd404ad5ea8
MusicBrainz Album Id                     : f2bb0b42-ed44-4458-bb5a-b396acab1a68
MusicBrainz Artist Id                    : 229cc68b-2a26-4d4c-8963-b70af1e63377
MusicBrainz Album Artist Id              : 229cc68b-2a26-4d4c-8963-b70af1e63377
MusicBrainz Disc Id                      : eSeZb9gGMSX2oyuC5ZBclRlHmCI-

Audio
ID                                       : 1
Format                                   : ALAC
Codec ID                                 : alac
Codec ID/Info                            : Apple Lossless Audio Codec
Duration                                 : 4mn 11s
Bit rate mode                            : Variable
Bit rate                                 : 1 015 Kbps
Channel(s)                               : 2 channels
Sampling rate                            : 44.1 KHz
Bit depth                                : 16 bits
Stream size                              : 30.4 MiB (100%)
Language                                 : English
Encoded date                             : UTC 1971-11-11 02:02:54
Tagged date                              : UTC 1971-11-11 02:02:54

General
Complete name                            : /Users/glebarhipov/Desktop/Черный кофе - Александрия/04 Чёрный Кофе - Удел.m4a
Format                                   : MPEG-4
Format profile                           : Apple audio with iTunes info
Codec ID                                 : M4A
File size                                : 21.3 MiB
Duration                                 : 2mn 50s
Overall bit rate mode                    : Variable
Overall bit rate                         : 1 048 Kbps
Album                                    : Alexandria
Album/Performer                          : Чёрный кофе
Part/Position                            : 1
Part/Total                               : 1
Track name                               : Удел
Track name/Position                      : 4
Track name/Total                         : 10
Performer                                : Чёрный Кофе
Genre                                    : Rock
Recorded date                            : 2007
Encoded date                             : UTC 2011-03-15 11:02:38
Tagged date                              : UTC 2011-03-15 11:02:38
Writing application                      : X Lossless Decoder 20131102, QuickTime 7.7.3
iTunes_CDDB_1                            : 8609720A+181500+10+150+7050+31919+50755+63535+87251+104790+132238+150582+170418
iTunes_CDDB_TrackNumber                  : 4
MusicBrainz Track Id                     : 7aeedfde-fb39-4bba-8196-a04821503d6d
MusicBrainz Album Id                     : f2bb0b42-ed44-4458-bb5a-b396acab1a68
MusicBrainz Artist Id                    : 229cc68b-2a26-4d4c-8963-b70af1e63377
MusicBrainz Album Artist Id              : 229cc68b-2a26-4d4c-8963-b70af1e63377
MusicBrainz Disc Id                      : eSeZb9gGMSX2oyuC5ZBclRlHmCI-

Audio
ID                                       : 1
Format                                   : ALAC
Codec ID                                 : alac
Codec ID/Info                            : Apple Lossless Audio Codec
Duration                                 : 2mn 50s
Duration_LastFrame                       : -34ms
Bit rate mode                            : Variable
Bit rate                                 : 1 047 Kbps
Channel(s)                               : 2 channels
Sampling rate                            : 44.1 KHz
Bit depth                                : 16 bits
Stream size                              : 21.3 MiB (100%)
Language                                 : English
Encoded date                             : UTC 2011-03-15 11:02:38
Tagged date                              : UTC 2011-03-15 11:02:38

General
Complete name                            : /Users/glebarhipov/Desktop/Черный кофе - Александрия/05 Чёрный Кофе - Ночной Ястреб.m4a
Format                                   : MPEG-4
Format profile                           : Apple audio with iTunes info
Codec ID                                 : M4A
File size                                : 34.4 MiB
Duration                                 : 5mn 16s
Overall bit rate mode                    : Variable
Overall bit rate                         : 912 Kbps
Album                                    : Alexandria
Album/Performer                          : Чёрный кофе
Part/Position                            : 1
Part/Total                               : 1
Track name                               : Ночной Ястреб
Track name/Position                      : 5
Track name/Total                         : 10
Performer                                : Чёрный Кофе
Genre                                    : Rock
Recorded date                            : 2007
Writing application                      : X Lossless Decoder 20131102, QuickTime 7.7.3
iTunes_CDDB_1                            : 8609720A+181500+10+150+7050+31919+50755+63535+87251+104790+132238+150582+170418
iTunes_CDDB_TrackNumber                  : 5
MusicBrainz Track Id                     : e66e1ae0-ee66-498c-b817-18f958f05805
MusicBrainz Album Id                     : f2bb0b42-ed44-4458-bb5a-b396acab1a68
MusicBrainz Artist Id                    : 229cc68b-2a26-4d4c-8963-b70af1e63377
MusicBrainz Album Artist Id              : 229cc68b-2a26-4d4c-8963-b70af1e63377
MusicBrainz Disc Id                      : eSeZb9gGMSX2oyuC5ZBclRlHmCI-

Audio
ID                                       : 1
Format                                   : ALAC
Codec ID                                 : alac
Codec ID/Info                            : Apple Lossless Audio Codec
Duration                                 : 5mn 16s
Duration_LastFrame                       : -42ms
Bit rate mode                            : Variable
Bit rate                                 : 911 Kbps
Channel(s)                               : 2 channels
Sampling rate                            : 44.1 KHz
Bit depth                                : 16 bits
Stream size                              : 34.3 MiB (100%)
Language                                 : English

General
Complete name                            : /Users/glebarhipov/Desktop/Черный кофе - Александрия/06 Чёрный Кофе - Утренняя Песня.m4a
Format                                   : MPEG-4
Format profile                           : Apple audio with iTunes info
Codec ID                                 : M4A
File size                                : 28.7 MiB
Duration                                 : 3mn 53s
Overall bit rate mode                    : Variable
Overall bit rate                         : 1 029 Kbps
Album                                    : Alexandria
Album/Performer                          : Чёрный кофе
Part/Position                            : 1
Part/Total                               : 1
Track name                               : Утренняя Песня
Track name/Position                      : 6
Track name/Total                         : 10
Performer                                : Чёрный Кофе
Genre                                    : Rock
Recorded date                            : 2007
Encoded date                             : UTC 1993-08-29 06:06:06
Tagged date                              : UTC 1993-08-29 06:06:06
Writing application                      : X Lossless Decoder 20131102, QuickTime 7.7.3
iTunes_CDDB_1                            : 8609720A+181500+10+150+7050+31919+50755+63535+87251+104790+132238+150582+170418
iTunes_CDDB_TrackNumber                  : 6
MusicBrainz Track Id                     : e62ac84e-be5e-4e85-9636-a2fe4a350070
MusicBrainz Album Id                     : f2bb0b42-ed44-4458-bb5a-b396acab1a68
MusicBrainz Artist Id                    : 229cc68b-2a26-4d4c-8963-b70af1e63377
MusicBrainz Album Artist Id              : 229cc68b-2a26-4d4c-8963-b70af1e63377
MusicBrainz Disc Id                      : eSeZb9gGMSX2oyuC5ZBclRlHmCI-

Audio
ID                                       : 1
Format                                   : ALAC
Codec ID                                 : alac
Codec ID/Info                            : Apple Lossless Audio Codec
Duration                                 : 3mn 53s
Duration_LastFrame                       : -18ms
Bit rate mode                            : Variable
Bit rate                                 : 1 029 Kbps
Channel(s)                               : 2 channels
Sampling rate                            : 44.1 KHz
Bit depth                                : 16 bits
Stream size                              : 28.7 MiB (100%)
Language                                 : English
Encoded date                             : UTC 1993-08-29 06:06:06
Tagged date                              : UTC 1993-08-29 06:06:06

General
Complete name                            : /Users/glebarhipov/Desktop/Черный кофе - Александрия/07 Чёрный Кофе - Остров.m4a
Format                                   : MPEG-4
Format profile                           : Apple audio with iTunes info
Codec ID                                 : M4A
File size                                : 40.2 MiB
Duration                                 : 6mn 5s
Overall bit rate mode                    : Variable
Overall bit rate                         : 922 Kbps
Album                                    : Alexandria
Album/Performer                          : Чёрный кофе
Part/Position                            : 1
Part/Total                               : 1
Track name                               : Остров
Track name/Position                      : 7
Track name/Total                         : 10
Performer                                : Чёрный Кофе
Genre                                    : Rock
Recorded date                            : 2007
Writing application                      : X Lossless Decoder 20131102, QuickTime 7.7.3
iTunes_CDDB_1                            : 8609720A+181500+10+150+7050+31919+50755+63535+87251+104790+132238+150582+170418
iTunes_CDDB_TrackNumber                  : 7
MusicBrainz Track Id                     : 7e987cab-bd95-4e62-8871-5cf844f04c22
MusicBrainz Album Id                     : f2bb0b42-ed44-4458-bb5a-b396acab1a68
MusicBrainz Artist Id                    : 229cc68b-2a26-4d4c-8963-b70af1e63377
MusicBrainz Album Artist Id              : 229cc68b-2a26-4d4c-8963-b70af1e63377
MusicBrainz Disc Id                      : eSeZb9gGMSX2oyuC5ZBclRlHmCI-

Audio
ID                                       : 1
Format                                   : ALAC
Codec ID                                 : alac
Codec ID/Info                            : Apple Lossless Audio Codec
Duration                                 : 6mn 5s
Duration_LastFrame                       : -66ms
Bit rate mode                            : Variable
Bit rate                                 : 921 Kbps
Channel(s)                               : 2 channels
Sampling rate                            : 44.1 KHz
Bit depth                                : 16 bits
Stream size                              : 40.2 MiB (100%)
Language                                 : English

General
Complete name                            : /Users/glebarhipov/Desktop/Черный кофе - Александрия/08 Чёрный Кофе - Обитель.m4a
Format                                   : MPEG-4
Format profile                           : Apple audio with iTunes info
Codec ID                                 : M4A
File size                                : 25.2 MiB
Duration                                 : 4mn 4s
Overall bit rate mode                    : Variable
Overall bit rate                         : 865 Kbps
Album                                    : Alexandria
Album/Performer                          : Чёрный кофе
Part/Position                            : 1
Part/Total                               : 1
Track name                               : Обитель
Track name/Position                      : 8
Track name/Total                         : 10
Performer                                : Чёрный Кофе
Genre                                    : Rock
Recorded date                            : 2007
Encoded date                             : UTC 1980-05-15 11:51:42
Tagged date                              : UTC 1980-05-15 11:51:42
Writing application                      : X Lossless Decoder 20131102, QuickTime 7.7.3
iTunes_CDDB_1                            : 8609720A+181500+10+150+7050+31919+50755+63535+87251+104790+132238+150582+170418
iTunes_CDDB_TrackNumber                  : 8
MusicBrainz Track Id                     : 7cba867d-bc35-41e6-8c78-4a6a13da770d
MusicBrainz Album Id                     : f2bb0b42-ed44-4458-bb5a-b396acab1a68
MusicBrainz Artist Id                    : 229cc68b-2a26-4d4c-8963-b70af1e63377
MusicBrainz Album Artist Id              : 229cc68b-2a26-4d4c-8963-b70af1e63377
MusicBrainz Disc Id                      : eSeZb9gGMSX2oyuC5ZBclRlHmCI-

Audio
ID                                       : 1
Format                                   : ALAC
Codec ID                                 : alac
Codec ID/Info                            : Apple Lossless Audio Codec
Duration                                 : 4mn 4s
Duration_LastFrame                       : -59ms
Bit rate mode                            : Variable
Bit rate                                 : 864 Kbps
Channel(s)                               : 2 channels
Sampling rate                            : 44.1 KHz
Bit depth                                : 16 bits
Stream size                              : 25.2 MiB (100%)
Language                                 : English
Encoded date                             : UTC 1980-05-15 11:51:42
Tagged date                              : UTC 1980-05-15 11:51:42

General
Complete name                            : /Users/glebarhipov/Desktop/Черный кофе - Александрия/09 Чёрный Кофе - Плач О Радости.m4a
Format                                   : MPEG-4
Format profile                           : Apple audio with iTunes info
Codec ID                                 : M4A
File size                                : 31.9 MiB
Duration                                 : 4mn 24s
Overall bit rate mode                    : Variable
Overall bit rate                         : 1 012 Kbps
Album                                    : Alexandria
Album/Performer                          : Чёрный кофе
Part/Position                            : 1
Part/Total                               : 1
Track name                               : Плач О Радости
Track name/Position                      : 9
Track name/Total                         : 10
Performer                                : Чёрный Кофе
Genre                                    : Rock
Recorded date                            : 2007
Encoded date                             : UTC 2038-04-27 04:40:46
Tagged date                              : UTC 2038-04-27 04:40:46
Writing application                      : X Lossless Decoder 20131102, QuickTime 7.7.3
iTunes_CDDB_1                            : 8609720A+181500+10+150+7050+31919+50755+63535+87251+104790+132238+150582+170418
iTunes_CDDB_TrackNumber                  : 9
MusicBrainz Track Id                     : 54e831f6-bff7-40a8-8152-878adfd2e106
MusicBrainz Album Id                     : f2bb0b42-ed44-4458-bb5a-b396acab1a68
MusicBrainz Artist Id                    : 229cc68b-2a26-4d4c-8963-b70af1e63377
MusicBrainz Album Artist Id              : 229cc68b-2a26-4d4c-8963-b70af1e63377
MusicBrainz Disc Id                      : eSeZb9gGMSX2oyuC5ZBclRlHmCI-

Audio
ID                                       : 1
Format                                   : ALAC
Codec ID                                 : alac
Codec ID/Info                            : Apple Lossless Audio Codec
Duration                                 : 4mn 24s
Duration_LastFrame                       : -42ms
Bit rate mode                            : Variable
Bit rate                                 : 1 011 Kbps
Channel(s)                               : 2 channels
Sampling rate                            : 44.1 KHz
Bit depth                                : 16 bits
Stream size                              : 31.9 MiB (100%)
Language                                 : English
Encoded date                             : UTC 2038-04-27 04:40:46
Tagged date                              : UTC 2038-04-27 04:40:46

General
Complete name                            : /Users/glebarhipov/Desktop/Черный кофе - Александрия/10 Чёрный Кофе - Жди И Надейся.m4a
Format                                   : MPEG-4
Format profile                           : Apple audio with iTunes info
Codec ID                                 : M4A
File size                                : 15.8 MiB
Duration                                 : 2mn 27s
Overall bit rate mode                    : Variable
Overall bit rate                         : 899 Kbps
Album                                    : Alexandria
Album/Performer                          : Чёрный кофе
Part/Position                            : 1
Part/Total                               : 1
Track name                               : Жди И Надейся
Track name/Position                      : 10
Track name/Total                         : 10
Performer                                : Чёрный Кофе
Genre                                    : Rock
Recorded date                            : 2007
Writing application                      : X Lossless Decoder 20131102, QuickTime 7.7.3
iTunes_CDDB_1                            : 8609720A+181500+10+150+7050+31919+50755+63535+87251+104790+132238+150582+170418
iTunes_CDDB_TrackNumber                  : 10
MusicBrainz Track Id                     : 13b66d6a-9897-4716-8c21-61db03ac28a7
MusicBrainz Album Id                     : f2bb0b42-ed44-4458-bb5a-b396acab1a68
MusicBrainz Artist Id                    : 229cc68b-2a26-4d4c-8963-b70af1e63377
MusicBrainz Album Artist Id              : 229cc68b-2a26-4d4c-8963-b70af1e63377
MusicBrainz Disc Id                      : eSeZb9gGMSX2oyuC5ZBclRlHmCI-

Audio
ID                                       : 1
Format                                   : ALAC
Codec ID                                 : alac
Codec ID/Info                            : Apple Lossless Audio Codec
Duration                                 : 2mn 27s
Duration_LastFrame                       : -12ms
Bit rate mode                            : Variable
Bit rate                                 : 898 Kbps
Channel(s)                               : 2 channels
Sampling rate                            : 44.1 KHz
Bit depth                                : 16 bits
Stream size                              : 15.8 MiB (100%)
Language                                 : English

General
Complete name                            : /Users/glebarhipov/Desktop/Черный кофе - Александрия/62f28cca837b5aad859465a1eea82093.jpg
Format                                   : JPEG
File size                                : 202 KiB

Image
Format                                   : JPEG
Width                                    : 500 pixels
Height                                   : 500 pixels
Color space                              : YUV
Chroma subsampling                       : 4:2:0
Bit depth                                : 8 bits
Compression mode                         : Lossy
Stream size                              : 202 KiB (100%)

General
Complete name                            : /Users/glebarhipov/Desktop/Черный кофе - Александрия/66042ace5440.jpg
Format                                   : JPEG
File size                                : 61.9 KiB

Image
Format                                   : JPEG
Width                                    : 640 pixels
Height                                   : 493 pixels
Color space                              : YUV
Chroma subsampling                       : 4:2:0
Bit depth                                : 8 bits
Compression mode                         : Lossy
Stream size                              : 61.9 KiB (100%)

General
Complete name                            : /Users/glebarhipov/Desktop/Черный кофе - Александрия/Alexandria.log
File size                                : 10.7 KiB
Код:

X Lossless Decoder version 20131102 (145.0)

XLD extraction logfile from 2014-01-12 05:40:05 +0400

Чёрный кофе / Alexandria

Used drive : HL-DT-ST DVDRW  GA32N (revision KE06)
Media type : Pressed CD

Ripper mode             : CDParanoia III 10.2
Disable audio cache     : OK for the drive with a cache less than 2750KiB
Make use of C2 pointers : NO
Read offset correction  : 103
Max retry count         : 20
Gap status              : Analyzed, Appended

TOC of the extracted CD
     Track |   Start  |  Length  | Start sector | End sector
    ---------------------------------------------------------
        1  | 00:00:00 | 01:32:00 |         0    |     6899
        2  | 01:32:00 | 05:31:44 |      6900    |    31768
        3  | 07:03:44 | 04:11:11 |     31769    |    50604
        4  | 11:14:55 | 02:50:30 |     50605    |    63384
        5  | 14:05:10 | 05:16:16 |     63385    |    87100
        6  | 19:21:26 | 03:53:64 |     87101    |   104639
        7  | 23:15:15 | 06:05:73 |    104640    |   132087
        8  | 29:21:13 | 04:04:44 |    132088    |   150431
        9  | 33:25:57 | 04:24:36 |    150432    |   170267
       10  | 37:50:18 | 02:27:57 |    170268    |   181349

AccurateRip Summary (DiscID: 000eee6a-0079f16d-8609720a)
    Track 01 : OK (v1+v2, confidence 4/4)
    Track 02 : OK (v1+v2, confidence 4/4)
    Track 03 : OK (v1+v2, confidence 4/4)
    Track 04 : OK (v1+v2, confidence 4/4)
    Track 05 : OK (v1+v2, confidence 4/4)
    Track 06 : OK (v1+v2, confidence 4/4)
    Track 07 : OK (v1+v2, confidence 4/4)
    Track 08 : OK (v1+v2, confidence 4/4)
    Track 09 : OK (v1+v2, confidence 4/4)
    Track 10 : OK (v1+v2, confidence 2/3)
        ->All tracks accurately ripped.

All Tracks
    Album gain               : -6.81 dB
    Peak                     : 0.999969
    Statistics
        Read error                           : 0
        Skipped (treated as error)           : 0
        Edge jitter error (maybe fixed)      : 1
        Atom jitter error (maybe fixed)      : 0
        Drift error (maybe fixed)            : 0
        Dropped bytes error (maybe fixed)    : 1
        Duplicated bytes error (maybe fixed) : 1

Track 01
    Filename : /Users/glebarhipov/Desktop/Новая папка/01 Чёрный Кофе - Александрия.m4a
    Pre-gap length : 00:02:00

    Track gain               : -3.29 dB
    Peak                     : 0.999969
    CRC32 hash (test run)    : D3E0DCC8
    CRC32 hash               : D3E0DCC8
    CRC32 hash (skip zero)   : F47D58E4
    AccurateRip v1 signature : 3D6F750C
    AccurateRip v2 signature : 5F945DB6
        ->Accurately ripped (v1+v2, confidence 2+2/4)
    Statistics
        Read error                           : 0
        Skipped (treated as error)           : 0
        Edge jitter error (maybe fixed)      : 0
        Atom jitter error (maybe fixed)      : 0
        Drift error (maybe fixed)            : 0
        Dropped bytes error (maybe fixed)    : 0
        Duplicated bytes error (maybe fixed) : 0
        Inconsistency in error sectors       : 0

Track 02
    Filename : /Users/glebarhipov/Desktop/Новая папка/02 Чёрный Кофе - Герой.m4a

    Track gain               : -7.54 dB
    Peak                     : 0.999969
    CRC32 hash (test run)    : 54C4248F
    CRC32 hash               : 54C4248F
    CRC32 hash (skip zero)   : 30DCDF9E
    AccurateRip v1 signature : F4FB2F2F
    AccurateRip v2 signature : 4F75DB7F
        ->Accurately ripped (v1+v2, confidence 2+2/4)
    Statistics
        Read error                           : 0
        Skipped (treated as error)           : 0
        Edge jitter error (maybe fixed)      : 1
        Atom jitter error (maybe fixed)      : 0
        Drift error (maybe fixed)            : 0
        Dropped bytes error (maybe fixed)    : 1
        Duplicated bytes error (maybe fixed) : 1
        Inconsistency in error sectors       : 0

Track 03
    Filename : /Users/glebarhipov/Desktop/Новая папка/03 Чёрный Кофе - Краски.m4a

    Track gain               : -7.26 dB
    Peak                     : 0.999969
    CRC32 hash (test run)    : C8607964
    CRC32 hash               : C8607964
    CRC32 hash (skip zero)   : 20EBEDC0
    AccurateRip v1 signature : 9996F191
    AccurateRip v2 signature : 21A72273
        ->Accurately ripped (v1+v2, confidence 2+2/4)
    Statistics
        Read error                           : 0
        Skipped (treated as error)           : 0
        Edge jitter error (maybe fixed)      : 0
        Atom jitter error (maybe fixed)      : 0
        Drift error (maybe fixed)            : 0
        Dropped bytes error (maybe fixed)    : 0
        Duplicated bytes error (maybe fixed) : 0
        Inconsistency in error sectors       : 0

Track 04
    Filename : /Users/glebarhipov/Desktop/Новая папка/04 Чёрный Кофе - Удел.m4a

    Track gain               : -7.86 dB
    Peak                     : 0.999969
    CRC32 hash (test run)    : 5766F042
    CRC32 hash               : 5766F042
    CRC32 hash (skip zero)   : AE287D10
    AccurateRip v1 signature : BF705B57
    AccurateRip v2 signature : ACF6BBF8
        ->Accurately ripped (v1+v2, confidence 2+2/4)
    Statistics
        Read error                           : 0
        Skipped (treated as error)           : 0
        Edge jitter error (maybe fixed)      : 0
        Atom jitter error (maybe fixed)      : 0
        Drift error (maybe fixed)            : 0
        Dropped bytes error (maybe fixed)    : 0
        Duplicated bytes error (maybe fixed) : 0
        Inconsistency in error sectors       : 0

Track 05
    Filename : /Users/glebarhipov/Desktop/Новая папка/05 Чёрный Кофе - Ночной Ястреб.m4a
    Pre-gap length : 00:02:00

    Track gain               : -5.49 dB
    Peak                     : 0.999969
    CRC32 hash (test run)    : 6D243750
    CRC32 hash               : 6D243750
    CRC32 hash (skip zero)   : 9C89F6BB
    AccurateRip v1 signature : 02128E97
    AccurateRip v2 signature : C201380A
        ->Accurately ripped (v1+v2, confidence 2+2/4)
    Statistics
        Read error                           : 0
        Skipped (treated as error)           : 0
        Edge jitter error (maybe fixed)      : 0
        Atom jitter error (maybe fixed)      : 0
        Drift error (maybe fixed)            : 0
        Dropped bytes error (maybe fixed)    : 0
        Duplicated bytes error (maybe fixed) : 0
        Inconsistency in error sectors       : 0

Track 06
    Filename : /Users/glebarhipov/Desktop/Новая папка/06 Чёрный Кофе - Утренняя Песня.m4a

    Track gain               : -7.23 dB
    Peak                     : 0.999969
    CRC32 hash (test run)    : C85C7689
    CRC32 hash               : C85C7689
    CRC32 hash (skip zero)   : EB69AE3B
    AccurateRip v1 signature : 913E918A
    AccurateRip v2 signature : 8BF4BE43
        ->Accurately ripped (v1+v2, confidence 2+2/4)
    Statistics
        Read error                           : 0
        Skipped (treated as error)           : 0
        Edge jitter error (maybe fixed)      : 0
        Atom jitter error (maybe fixed)      : 0
        Drift error (maybe fixed)            : 0
        Dropped bytes error (maybe fixed)    : 0
        Duplicated bytes error (maybe fixed) : 0
        Inconsistency in error sectors       : 0

Track 07
    Filename : /Users/glebarhipov/Desktop/Новая папка/07 Чёрный Кофе - Остров.m4a

    Track gain               : -6.01 dB
    Peak                     : 0.999969
    CRC32 hash (test run)    : 46EE4B4D
    CRC32 hash               : 46EE4B4D
    CRC32 hash (skip zero)   : 405E3473
    AccurateRip v1 signature : C058F2DF
    AccurateRip v2 signature : 75D3A54E
        ->Accurately ripped (v1+v2, confidence 2+2/4)
    Statistics
        Read error                           : 0
        Skipped (treated as error)           : 0
        Edge jitter error (maybe fixed)      : 0
        Atom jitter error (maybe fixed)      : 0
        Drift error (maybe fixed)            : 0
        Dropped bytes error (maybe fixed)    : 0
        Duplicated bytes error (maybe fixed) : 0
        Inconsistency in error sectors       : 0

Track 08
    Filename : /Users/glebarhipov/Desktop/Новая папка/08 Чёрный Кофе - Обитель.m4a

    Track gain               : -3.38 dB
    Peak                     : 0.999969
    CRC32 hash (test run)    : 36D1DD7A
    CRC32 hash               : 36D1DD7A
    CRC32 hash (skip zero)   : 81ECC7B4
    AccurateRip v1 signature : D4BD955B
    AccurateRip v2 signature : 2B161F96
        ->Accurately ripped (v1+v2, confidence 2+2/4)
    Statistics
        Read error                           : 0
        Skipped (treated as error)           : 0
        Edge jitter error (maybe fixed)      : 0
        Atom jitter error (maybe fixed)      : 0
        Drift error (maybe fixed)            : 0
        Dropped bytes error (maybe fixed)    : 0
        Duplicated bytes error (maybe fixed) : 0
        Inconsistency in error sectors       : 0

Track 09
    Filename : /Users/glebarhipov/Desktop/Новая папка/09 Чёрный Кофе - Плач О Радости.m4a

    Track gain               : -5.87 dB
    Peak                     : 0.999969
    CRC32 hash (test run)    : ED3C19EE
    CRC32 hash               : ED3C19EE
    CRC32 hash (skip zero)   : 984438C0
    AccurateRip v1 signature : 7BE6A8B5
    AccurateRip v2 signature : FC514D3F
        ->Accurately ripped (v1+v2, confidence 2+2/4)
    Statistics
        Read error                           : 0
        Skipped (treated as error)           : 0
        Edge jitter error (maybe fixed)      : 0
        Atom jitter error (maybe fixed)      : 0
        Drift error (maybe fixed)            : 0
        Dropped bytes error (maybe fixed)    : 0
        Duplicated bytes error (maybe fixed) : 0
        Inconsistency in error sectors       : 0

Track 10
    Filename : /Users/glebarhipov/Desktop/Новая папка/10 Чёрный Кофе - Жди И Надейся.m4a
    Pre-gap length : 00:02:22

    Track gain               : -5.80 dB
    Peak                     : 0.999969
    CRC32 hash (test run)    : 2E9E3C60
    CRC32 hash               : 2E9E3C60
    CRC32 hash (skip zero)   : DFDEEA8C
    AccurateRip v1 signature : 804AE51E
    AccurateRip v2 signature : 3A889748
        ->Accurately ripped (v1+v2, confidence 1+1/3)
    Statistics
        Read error                           : 0
        Skipped (treated as error)           : 0
        Edge jitter error (maybe fixed)      : 0
        Atom jitter error (maybe fixed)      : 0
        Drift error (maybe fixed)            : 0
        Dropped bytes error (maybe fixed)    : 0
        Duplicated bytes error (maybe fixed) : 0
        Inconsistency in error sectors       : 0

No errors occurred

End of status report
Время раздачи: 24/7 (круглосуточно)
[NNM-Club.me]_CHernyiy kofe - Aleksandriya.torrent
 Торрент: Платиновая раздача  Зарегистрирован
 
Скачать


Примагнититься
 Зарегистрирован:   26 Янв 2014 17:40:49
 Размер:   277 MB  (
 Рейтинг:   4.7 (Голосов: 17)
 Поблагодарили:   67
 Проверка:   Оформление проверено модератором 26 Янв 2014 19:48:03
Как cкачать  ·  Как раздать  ·  Правильно оформить  ·  Поднять ратио!  
Asakra
Стаж: 10 лет 5 мес.
Сообщений: 12
Ratio: 216.496
100%
вернитесь на раздачу, плиз
Показать сообщения:   
Начать новую тему   Ответить на тему    Торрент-трекер NNM-Club -> Аудио и Видео -> Музыка Lossless (ALAC) Часовой пояс: GMT + 3
Страница 1 из 1