Классический форум-трекер
canvas not supported
Нас вместе: 4 166 471

Lady GaGa - The Fame (2008) [ALAC 24/96|tracks (Vinyl-Rip)]<Pop>


 
 
RSS
Начать новую тему   Ответить на тему    Торрент-трекер NNM-Club -> Аудио и Видео -> Музыка Lossless (ALAC)
Автор Сообщение
kat@kat ®
Модератор Apple
Стаж: 11 лет 10 мес.
Сообщений: 37972
Ratio: 260.076
Поблагодарили: 567419
100%
Lady GaGa - The Fame (2008)
Год: 2013
Жанр: Pop
Лейбл: StreamLine Records
Номер по каталогу: B0011805-1
Продолжительность: 00:50:28

Кодек: ALAC
Тип раздачи: Tracks
Вшитые обложки: Есть
Кодирование: X Lossless Decoder 20130720, QuickTime 7.7.1
Исходник: flac|tracks 24bit 96kHz Vinyl-Rip
Оборудование: оборудование, на котором проводилась оцифровка, не указано автором рипа

Треклист:
01. Just Dance (Feat. Colby O' Donis) (4:01)
02. LoveGame (3:38)
03. Paparazzi (3:29)
04. Poker Face (3:59)
05. Eh, Eh (Nothing Else I Can Say) (2:57)
06. Beautiful, Dirty, Rich (2:54)
07. The Fame (3:43)
08. Money Honey (2:51)
09. Starstruck (Feat. Space Cowboy And Flo Rida) (3:39)
10. Boys Boys Boys (3:21)
11. Paper Gansta (4:24)
12. Brown Eyes (4:05)
13. I Like It Rough (3:23)
14. Summerboy (4:11)
Код:
General
Complete name          : /Users/Kat/Music/iTunes/iTunes Media/Music/Lady GaGa/The Fame (V)/01 Just Dance (Feat. Colby O' Donis).m4a
Format              : MPEG-4
Format profile            : Apple audio with iTunes info
Codec ID              : M4A
File size              : 87.7 MiB
Duration              : 4mn 1s
Overall bit rate mode        : Variable
Overall bit rate          : 3 051 Kbps
Album              : The Fame (V)
Part/Position            : 1
Part/Total            : 1
Track name            : Just Dance (Feat. Colby O' Donis)
Track name/Position        : 1
Track name/Total          : 14
Performer            : Lady GaGa
Genre              : Pop
Recorded date            : 2008
Tagged date            : UTC 2013-09-16 11:39:52
Writing application          : X Lossless Decoder 20130720, QuickTime 7.7.1
Cover              : Yes

Audio
ID                : 1
Format              : ALAC
Codec ID              : alac
Codec ID/Info            : Apple Lossless Audio Codec
Duration              : 4mn 1s
Duration_LastFrame        : -40ms
Bit rate mode            : Variable
Bit rate              : 3 046 Kbps
Channel(s)            : 2 channels
Sampling rate            : 96.0 KHz
Bit depth              : 24 bits
Stream size            : 87.5 MiB (100%)
Language            : English
Tagged date            : UTC 2013-09-16 11:39:52

General
Complete name          : /Users/Kat/Music/iTunes/iTunes Media/Music/Lady GaGa/The Fame (V)/02 LoveGame.m4a
Format              : MPEG-4
Format profile            : Apple audio with iTunes info
Codec ID              : M4A
File size              : 79.5 MiB
Duration              : 3mn 38s
Overall bit rate mode        : Variable
Overall bit rate          : 3 060 Kbps
Album              : The Fame (V)
Part/Position            : 1
Part/Total            : 1
Track name            : LoveGame
Track name/Position        : 2
Track name/Total          : 14
Performer            : Lady GaGa
Genre              : Pop
Recorded date            : 2008
Tagged date            : UTC 2013-09-16 11:40:03
Writing application          : X Lossless Decoder 20130720, QuickTime 7.7.1
Cover              : Yes

Audio
ID                : 1
Format              : ALAC
Codec ID              : alac
Codec ID/Info            : Apple Lossless Audio Codec
Duration              : 3mn 38s
Duration_LastFrame        : -6ms
Bit rate mode            : Variable
Bit rate              : 3 055 Kbps
Channel(s)            : 2 channels
Sampling rate            : 96.0 KHz
Bit depth              : 24 bits
Stream size            : 79.4 MiB (100%)
Language            : English
Tagged date            : UTC 2013-09-16 11:40:03

General
Complete name          : /Users/Kat/Music/iTunes/iTunes Media/Music/Lady GaGa/The Fame (V)/03 Paparazzi.m4a
Format              : MPEG-4
Format profile            : Apple audio with iTunes info
Codec ID              : M4A
File size              : 75.1 MiB
Duration              : 3mn 29s
Overall bit rate mode        : Variable
Overall bit rate          : 3 008 Kbps
Album              : The Fame (V)
Part/Position            : 1
Part/Total            : 1
Track name            : Paparazzi
Track name/Position        : 3
Track name/Total          : 14
Performer            : Lady GaGa
Genre              : Pop
Tagged date            : UTC 2013-09-16 11:40:08
Writing application          : X Lossless Decoder 20130720, QuickTime 7.7.1
Cover              : Yes

Audio
ID                : 1
Format              : ALAC
Codec ID              : alac
Codec ID/Info            : Apple Lossless Audio Codec
Duration              : 3mn 29s
Duration_LastFrame        : -37ms
Bit rate mode            : Variable
Bit rate              : 3 002 Kbps
Channel(s)            : 2 channels
Sampling rate            : 96.0 KHz
Bit depth              : 24 bits
Stream size            : 75.0 MiB (100%)
Language            : English
Tagged date            : UTC 2013-09-16 11:40:08

General
Complete name          : /Users/Kat/Music/iTunes/iTunes Media/Music/Lady GaGa/The Fame (V)/04 Poker Face.m4a
Format              : MPEG-4
Format profile            : Apple audio with iTunes info
Codec ID              : M4A
File size              : 87.6 MiB
Duration              : 3mn 58s
Overall bit rate mode        : Variable
Overall bit rate          : 3 081 Kbps
Album              : The Fame (V)
Part/Position            : 1
Part/Total            : 1
Track name            : Poker Face
Track name/Position        : 4
Track name/Total          : 14
Performer            : Lady GaGa
Genre              : Pop
Recorded date            : 2008
Tagged date            : UTC 2013-09-16 11:40:15
Writing application          : X Lossless Decoder 20130720, QuickTime 7.7.1
Cover              : Yes

Audio
ID                : 1
Format              : ALAC
Codec ID              : alac
Codec ID/Info            : Apple Lossless Audio Codec
Duration              : 3mn 58s
Duration_LastFrame        : -2ms
Bit rate mode            : Variable
Bit rate              : 3 076 Kbps
Channel(s)            : 2 channels
Sampling rate            : 96.0 KHz
Bit depth              : 24 bits
Stream size            : 87.5 MiB (100%)
Language            : English
Tagged date            : UTC 2013-09-16 11:40:15

General
Complete name          : /Users/Kat/Music/iTunes/iTunes Media/Music/Lady GaGa/The Fame (V)/05 Eh, Eh (Nothing Else I Can Say).m4a
Format              : MPEG-4
Format profile            : Apple audio with iTunes info
Codec ID              : M4A
File size              : 65.6 MiB
Duration              : 2mn 57s
Overall bit rate mode        : Variable
Overall bit rate          : 3 101 Kbps
Album              : The Fame (V)
Part/Position            : 1
Part/Total            : 1
Track name            : Eh, Eh (Nothing Else I Can Say)
Track name/Position        : 5
Track name/Total          : 14
Performer            : Lady GaGa
Genre              : Pop
Recorded date            : 2008
Tagged date            : UTC 2013-09-16 11:40:19
Writing application          : X Lossless Decoder 20130720, QuickTime 7.7.1
Cover              : Yes

Audio
ID                : 1
Format              : ALAC
Codec ID              : alac
Codec ID/Info            : Apple Lossless Audio Codec
Duration              : 2mn 57s
Duration_LastFrame        : -19ms
Bit rate mode            : Variable
Bit rate              : 3 094 Kbps
Channel(s)            : 2 channels
Sampling rate            : 96.0 KHz
Bit depth              : 24 bits
Stream size            : 65.5 MiB (100%)
Language            : English
Tagged date            : UTC 2013-09-16 11:40:19

General
Complete name          : /Users/Kat/Music/iTunes/iTunes Media/Music/Lady GaGa/The Fame (V)/06 Beautiful, Dirty, Rich.m4a
Format              : MPEG-4
Format profile            : Apple audio with iTunes info
Codec ID              : M4A
File size              : 63.3 MiB
Duration              : 2mn 53s
Overall bit rate mode        : Variable
Overall bit rate          : 3 057 Kbps
Album              : The Fame (V)
Part/Position            : 1
Part/Total            : 1
Track name            : Beautiful, Dirty, Rich
Track name/Position        : 6
Track name/Total          : 14
Performer            : Lady GaGa
Genre              : Pop
Recorded date            : 2008
Tagged date            : UTC 2013-09-16 11:40:23
Writing application          : X Lossless Decoder 20130720, QuickTime 7.7.1
Cover              : Yes

Audio
ID                : 1
Format              : ALAC
Codec ID              : alac
Codec ID/Info            : Apple Lossless Audio Codec
Duration              : 2mn 53s
Duration_LastFrame        : -37ms
Bit rate mode            : Variable
Bit rate              : 3 050 Kbps
Channel(s)            : 2 channels
Sampling rate            : 96.0 KHz
Bit depth              : 24 bits
Stream size            : 63.2 MiB (100%)
Language            : English
Tagged date            : UTC 2013-09-16 11:40:23

General
Complete name          : /Users/Kat/Music/iTunes/iTunes Media/Music/Lady GaGa/The Fame (V)/07 The Fame.m4a
Format              : MPEG-4
Format profile            : Apple audio with iTunes info
Codec ID              : M4A
File size              : 85.5 MiB
Duration              : 3mn 42s
Overall bit rate mode        : Variable
Overall bit rate          : 3 218 Kbps
Album              : The Fame (V)
Part/Position            : 1
Part/Total            : 1
Track name            : The Fame
Track name/Position        : 7
Track name/Total          : 14
Performer            : Lady GaGa
Genre              : Pop
Recorded date            : 2008
Tagged date            : UTC 2013-09-16 11:40:28
Writing application          : X Lossless Decoder 20130720, QuickTime 7.7.1
Cover              : Yes

Audio
ID                : 1
Format              : ALAC
Codec ID              : alac
Codec ID/Info            : Apple Lossless Audio Codec
Duration              : 3mn 42s
Duration_LastFrame        : -12ms
Bit rate mode            : Variable
Bit rate              : 3 213 Kbps
Channel(s)            : 2 channels
Sampling rate            : 96.0 KHz
Bit depth              : 24 bits
Stream size            : 85.4 MiB (100%)
Language            : English
Tagged date            : UTC 2013-09-16 11:40:28

General
Complete name          : /Users/Kat/Music/iTunes/iTunes Media/Music/Lady GaGa/The Fame (V)/08 Money Honey.m4a
Format              : MPEG-4
Format profile            : Apple audio with iTunes info
Codec ID              : M4A
File size              : 63.8 MiB
Duration              : 2mn 50s
Overall bit rate mode        : Variable
Overall bit rate          : 3 141 Kbps
Album              : The Fame (V)
Part/Position            : 1
Part/Total            : 1
Track name            : Money Honey
Track name/Position        : 8
Track name/Total          : 14
Performer            : Lady GaGa
Genre              : Pop
Recorded date            : 2008
Tagged date            : UTC 2013-09-16 11:40:32
Writing application          : X Lossless Decoder 20130720, QuickTime 7.7.1
Cover              : Yes

Audio
ID                : 1
Format              : ALAC
Codec ID              : alac
Codec ID/Info            : Apple Lossless Audio Codec
Duration              : 2mn 50s
Duration_LastFrame        : -24ms
Bit rate mode            : Variable
Bit rate              : 3 134 Kbps
Channel(s)            : 2 channels
Sampling rate            : 96.0 KHz
Bit depth              : 24 bits
Stream size            : 63.7 MiB (100%)
Language            : English
Tagged date            : UTC 2013-09-16 11:40:32

General
Complete name          : /Users/Kat/Music/iTunes/iTunes Media/Music/Lady GaGa/The Fame (V)/09 Starstruck (Feat. Space Cowboy And Flo Rida).m4a
Format              : MPEG-4
Format profile            : Apple audio with iTunes info
Codec ID              : M4A
File size              : 79.3 MiB
Duration              : 3mn 39s
Overall bit rate mode        : Variable
Overall bit rate          : 3 036 Kbps
Album              : The Fame (V)
Part/Position            : 1
Part/Total            : 1
Track name            : Starstruck (Feat. Space Cowboy And Flo Rida)
Track name/Position        : 9
Track name/Total          : 14
Performer            : Lady GaGa
Genre              : Pop
Recorded date            : 2008
Tagged date            : UTC 2013-09-16 11:40:36
Writing application          : X Lossless Decoder 20130720, QuickTime 7.7.1
Cover              : Yes

Audio
ID                : 1
Format              : ALAC
Codec ID              : alac
Codec ID/Info            : Apple Lossless Audio Codec
Duration              : 3mn 39s
Duration_LastFrame        : -32ms
Bit rate mode            : Variable
Bit rate              : 3 030 Kbps
Channel(s)            : 2 channels
Sampling rate            : 96.0 KHz
Bit depth              : 24 bits
Stream size            : 79.2 MiB (100%)
Language            : English
Tagged date            : UTC 2013-09-16 11:40:36

General
Complete name          : /Users/Kat/Music/iTunes/iTunes Media/Music/Lady GaGa/The Fame (V)/10 Boys Boys Boys.m4a
Format              : MPEG-4
Format profile            : Apple audio with iTunes info
Codec ID              : M4A
File size              : 75.7 MiB
Duration              : 3mn 20s
Overall bit rate mode        : Variable
Overall bit rate          : 3 160 Kbps
Album              : The Fame (V)
Part/Position            : 1
Part/Total            : 1
Track name            : Boys Boys Boys
Track name/Position        : 10
Track name/Total          : 14
Performer            : Lady GaGa
Genre              : Pop
Recorded date            : 2008
Tagged date            : UTC 2013-09-16 11:40:40
Writing application          : X Lossless Decoder 20130720, QuickTime 7.7.1
Cover              : Yes

Audio
ID                : 1
Format              : ALAC
Codec ID              : alac
Codec ID/Info            : Apple Lossless Audio Codec
Duration              : 3mn 20s
Duration_LastFrame        : -7ms
Bit rate mode            : Variable
Bit rate              : 3 154 Kbps
Channel(s)            : 2 channels
Sampling rate            : 96.0 KHz
Bit depth              : 24 bits
Stream size            : 75.6 MiB (100%)
Language            : English
Tagged date            : UTC 2013-09-16 11:40:40

General
Complete name          : /Users/Kat/Music/iTunes/iTunes Media/Music/Lady GaGa/The Fame (V)/11 Paper Gansta.m4a
Format              : MPEG-4
Format profile            : Apple audio with iTunes info
Codec ID              : M4A
File size              : 95.2 MiB
Duration              : 4mn 23s
Overall bit rate mode        : Variable
Overall bit rate          : 3 030 Kbps
Album              : The Fame (V)
Part/Position            : 1
Part/Total            : 1
Track name            : Paper Gansta
Track name/Position        : 11
Track name/Total          : 14
Performer            : Lady GaGa
Genre              : Pop
Recorded date            : 2008
Tagged date            : UTC 2013-09-16 11:40:45
Writing application          : X Lossless Decoder 20130720, QuickTime 7.7.1
Cover              : Yes

Audio
ID                : 1
Format              : ALAC
Codec ID              : alac
Codec ID/Info            : Apple Lossless Audio Codec
Duration              : 4mn 23s
Duration_LastFrame        : -32ms
Bit rate mode            : Variable
Bit rate              : 3 025 Kbps
Channel(s)            : 2 channels
Sampling rate            : 96.0 KHz
Bit depth              : 24 bits
Stream size            : 95.0 MiB (100%)
Language            : English
Tagged date            : UTC 2013-09-16 11:40:45

General
Complete name          : /Users/Kat/Music/iTunes/iTunes Media/Music/Lady GaGa/The Fame (V)/12 Brown Eyes.m4a
Format              : MPEG-4
Format profile            : Apple audio with iTunes info
Codec ID              : M4A
File size              : 87.6 MiB
Duration              : 4mn 5s
Overall bit rate mode        : Variable
Overall bit rate          : 2 999 Kbps
Album              : The Fame (V)
Part/Position            : 1
Part/Total            : 1
Track name            : Brown Eyes
Track name/Position        : 12
Track name/Total          : 14
Performer            : Lady GaGa
Genre              : Pop
Recorded date            : 2008
Tagged date            : UTC 2013-09-16 11:40:50
Writing application          : X Lossless Decoder 20130720, QuickTime 7.7.1
Cover              : Yes

Audio
ID                : 1
Format              : ALAC
Codec ID              : alac
Codec ID/Info            : Apple Lossless Audio Codec
Duration              : 4mn 5s
Duration_LastFrame        : -30ms
Bit rate mode            : Variable
Bit rate              : 2 994 Kbps
Channel(s)            : 2 channels
Sampling rate            : 96.0 KHz
Bit depth              : 24 bits
Stream size            : 87.5 MiB (100%)
Language            : English
Tagged date            : UTC 2013-09-16 11:40:50

General
Complete name          : /Users/Kat/Music/iTunes/iTunes Media/Music/Lady GaGa/The Fame (V)/13 I Like It Rough.m4a
Format              : MPEG-4
Format profile            : Apple audio with iTunes info
Codec ID              : M4A
File size              : 76.5 MiB
Duration              : 3mn 22s
Overall bit rate mode        : Variable
Overall bit rate          : 3 167 Kbps
Album              : The Fame (V)
Part/Position            : 1
Part/Total            : 1
Track name            : I Like It Rough
Track name/Position        : 13
Track name/Total          : 14
Performer            : Lady GaGa
Genre              : Pop
Recorded date            : 2008
Tagged date            : UTC 2013-09-16 11:40:56
Writing application          : X Lossless Decoder 20130720, QuickTime 7.7.1
Cover              : Yes

Audio
ID                : 1
Format              : ALAC
Codec ID              : alac
Codec ID/Info            : Apple Lossless Audio Codec
Duration              : 3mn 22s
Duration_LastFrame        : -13ms
Bit rate mode            : Variable
Bit rate              : 3 161 Kbps
Channel(s)            : 2 channels
Sampling rate            : 96.0 KHz
Bit depth              : 24 bits
Stream size            : 76.3 MiB (100%)
Language            : English
Tagged date            : UTC 2013-09-16 11:40:56

General
Complete name          : /Users/Kat/Music/iTunes/iTunes Media/Music/Lady GaGa/The Fame (V)/14 Summerboy.m4a
Format              : MPEG-4
Format profile            : Apple audio with iTunes info
Codec ID              : M4A
File size              : 95.4 MiB
Duration              : 4mn 11s
Overall bit rate mode        : Variable
Overall bit rate          : 3 187 Kbps
Album              : The Fame (V)
Part/Position            : 1
Part/Total            : 1
Track name            : Summerboy
Track name/Position        : 14
Track name/Total          : 14
Performer            : Lady GaGa
Genre              : Pop
Recorded date            : 2008
Tagged date            : UTC 2013-09-16 11:41:01
Writing application          : X Lossless Decoder 20130720, QuickTime 7.7.1
Cover              : Yes

Audio
ID                : 1
Format              : ALAC
Codec ID              : alac
Codec ID/Info            : Apple Lossless Audio Codec
Duration              : 4mn 11s
Bit rate mode            : Variable
Bit rate              : 3 183 Kbps
Channel(s)            : 2 channels
Sampling rate            : 96.0 KHz
Bit depth              : 24 bits
Stream size            : 95.2 MiB (100%)
Language            : English
Время раздачи:
[NNM-Club.me]_Lady Gaga (2008) The Fame (ALAC 24-Bit 96kHz).torrent
 Торрент: Платиновая раздача  Зарегистрирован
 
Скачать


Примагнититься
 Зарегистрирован:   30 Янв 2014 11:47:40
 Размер:   1.1 GB  (
 Рейтинг:   4.4 (Голосов: 25)
 Поблагодарили:   62
 Проверка:   Оформление проверено модератором 30 Янв 2014 18:09:28
Как cкачать  ·  Как раздать  ·  Правильно оформить  ·  Поднять ратио!  
sseless
Меломан, Реставратор
Стаж: 9 лет
Сообщений: 3542
Ratio: 1386.827
Раздал: 45.33 TB
Поблагодарили: 160424
100%
north_korea.gif
kat@kat
Спасибо! :респект: Сейчас мы послушаем как оно звучит.
kat@kat ®
Модератор Apple
Стаж: 11 лет 10 мес.
Сообщений: 37972
Ratio: 260.076
Поблагодарили: 567419
100%
sseless
:) Я думаю, кто-то сможет сравнить с имеющимся на трекере aac, alac, flac и mp3 … Интересно мнение ))
tranklukator
Стаж: 13 лет 2 мес.
Сообщений: 16
Ratio: 5.472
100%
russia.gif
Станьте пожалуйста на раздачу, не могу качнуть несколько дней.
tranklukator
Стаж: 13 лет 2 мес.
Сообщений: 16
Ratio: 5.472
100%
russia.gif
kat@kat
Станьте пожалуйста на раздачу, не могу качнуть несколько дней.
Показать сообщения:   
Начать новую тему   Ответить на тему    Торрент-трекер NNM-Club -> Аудио и Видео -> Музыка Lossless (ALAC) Часовой пояс: GMT + 3
Страница 1 из 1