Классический форум-трекер
canvas not supported
Нас вместе: 4 165 223

Guthrie Govan - Erotic Cakes (1996)Reissue/2011, JTC Records/ [ALAC|Tracks]<Instrumental Guitar Rock>


 
 
RSS
Начать новую тему   Ответить на тему    Торрент-трекер NNM-Club -> Аудио и Видео -> Музыка Lossless (ALAC)
Автор Сообщение
sseless ®
Меломан, Реставратор
Стаж: 9 лет
Сообщений: 3542
Ratio: 1386.827
Раздал: 45.33 TB
Поблагодарили: 160396
100%
north_korea.gif
Guthrie Govan - Erotic Cakes (1996/2011)
Год: 1996/2011
Страна-производитель диска: UK
Лейбл: JTC Records
Каталожный №: JTC 001
Жанр: Instrumental Guitar Rock
Продолжительность: 00:54:58

Кодек: ALAC
Битрейт: Lossless
Тип раздачи: Tracks
Обложки: Вшиты
Кодирование: CUETools + iTunes

Треклист:
01. Waves
02. Erotic Cakes
03. Wonderful Slippery Thing
04. Ner Ner
05. Fives
06. Uncle Skunk
07. Sevens
08. Eric
09. Slided Boy
10. Rhode Island Shred
11. Hangover
Код:

Общее
Полное имя                               : C:\Guthrie Govan - Erotic Cakes - 2011\01. Waves.m4a
Формат                                   : MPEG-4
Профиль формата                          : Apple audio with iTunes info
Идентификатор кодека                     : M4A
Размер файла                             : 35,1 Мбайт
Продолжительность                        : 5 м. 8 с.
Режим общего битрейта                    : Переменный
Общий поток                              : 953 Кбит/сек
Альбом                                   : Erotic Cakes
Альбом/Исполнитель                       : Guthrie Govan
Часть/Положение                          : 1
Часть/Всего                              : 1
Трек                                     : Waves
Трек/Положение                           : 1
Трек/Всего                               : 11
Исполнитель                              : Guthrie Govan
Жанр                                     : Instrumental Rock
Дата записи                              : 2011
Дата кодирования                         : UTC 2014-02-06 02:59:19
Дата пометки                             : UTC 2014-02-06 10:34:24
Программа кодирования                    : CUETools 2.1.4
Обложка                                  : Yes
soal                                     : Erotic Cakes
soar                                     : Guthrie Govan
soaa                                     : Guthrie Govan

Аудио
Идентификатор                            : 1
Формат                                   : ALAC
Идентификатор кодека                     : alac
Идентификатор кодека/Информация          : Apple Lossless Audio Codec
Продолжительность                        : 5 м. 8 с.
Duration_LastFrame                       : -38 мс.
Вид битрейта                             : Переменный
Битрейт                                  : 950 Кбит/сек
Каналы                                   : 2 канала
Частота                                  : 44,1 КГц
Битовая глубина                          : 16 бит
Размер потока                            : 35,0 Мбайт (100%)
Дата кодирования                         : UTC 2014-02-06 02:59:19
Дата пометки                             : UTC 2014-02-06 10:34:24

Общее
Полное имя                               : C:\Guthrie Govan - Erotic Cakes - 2011\02. Erotic Cakes.m4a
Формат                                   : MPEG-4
Профиль формата                          : Apple audio with iTunes info
Идентификатор кодека                     : M4A
Размер файла                             : 26,9 Мбайт
Продолжительность                        : 3 м. 50 с.
Режим общего битрейта                    : Переменный
Общий поток                              : 979 Кбит/сек
Альбом                                   : Erotic Cakes
Альбом/Исполнитель                       : Guthrie Govan
Часть/Положение                          : 1
Часть/Всего                              : 1
Трек                                     : Erotic Cakes
Трек/Положение                           : 2
Трек/Всего                               : 11
Исполнитель                              : Guthrie Govan
Жанр                                     : Instrumental Rock
Дата записи                              : 2011
Дата кодирования                         : UTC 2014-02-06 02:59:23
Дата пометки                             : UTC 2014-02-06 10:34:24
Программа кодирования                    : CUETools 2.1.4
Обложка                                  : Yes
soal                                     : Erotic Cakes
soar                                     : Guthrie Govan
soaa                                     : Guthrie Govan

Аудио
Идентификатор                            : 1
Формат                                   : ALAC
Идентификатор кодека                     : alac
Идентификатор кодека/Информация          : Apple Lossless Audio Codec
Продолжительность                        : 3 м. 50 с.
Duration_LastFrame                       : -6 мс.
Вид битрейта                             : Переменный
Битрейт                                  : 975 Кбит/сек
Каналы                                   : 2 канала
Частота                                  : 44,1 КГц
Битовая глубина                          : 16 бит
Размер потока                            : 26,8 Мбайт (100%)
Дата кодирования                         : UTC 2014-02-06 02:59:23
Дата пометки                             : UTC 2014-02-06 10:34:24

Общее
Полное имя                               : C:\Guthrie Govan - Erotic Cakes - 2011\03. Wonderful Slippery Thing.m4a
Формат                                   : MPEG-4
Профиль формата                          : Apple audio with iTunes info
Идентификатор кодека                     : M4A
Размер файла                             : 21,3 Мбайт
Продолжительность                        : 3 м. 20 с.
Режим общего битрейта                    : Переменный
Общий поток                              : 891 Кбит/сек
Альбом                                   : Erotic Cakes
Альбом/Исполнитель                       : Guthrie Govan
Часть/Положение                          : 1
Часть/Всего                              : 1
Трек                                     : Wonderful Slippery Thing
Трек/Положение                           : 3
Трек/Всего                               : 11
Исполнитель                              : Guthrie Govan
Жанр                                     : Instrumental Rock
Дата записи                              : 2011
Дата кодирования                         : UTC 2014-02-06 02:59:27
Дата пометки                             : UTC 2014-02-06 10:34:29
Программа кодирования                    : CUETools 2.1.4
Обложка                                  : Yes
soal                                     : Erotic Cakes
soar                                     : Guthrie Govan
soaa                                     : Guthrie Govan

Аудио
Идентификатор                            : 1
Формат                                   : ALAC
Идентификатор кодека                     : alac
Идентификатор кодека/Информация          : Apple Lossless Audio Codec
Продолжительность                        : 3 м. 20 с.
Duration_LastFrame                       : -46 мс.
Вид битрейта                             : Переменный
Битрейт                                  : 886 Кбит/сек
Каналы                                   : 2 канала
Частота                                  : 44,1 КГц
Битовая глубина                          : 16 бит
Размер потока                            : 21,2 Мбайт (100%)
Дата кодирования                         : UTC 2014-02-06 02:59:27
Дата пометки                             : UTC 2014-02-06 10:34:29

Общее
Полное имя                               : C:\Guthrie Govan - Erotic Cakes - 2011\04. Ner Ner.m4a
Формат                                   : MPEG-4
Профиль формата                          : Apple audio with iTunes info
Идентификатор кодека                     : M4A
Размер файла                             : 53,9 Мбайт
Продолжительность                        : 8 м. 4 с.
Режим общего битрейта                    : Переменный
Общий поток                              : 932 Кбит/сек
Альбом                                   : Erotic Cakes
Альбом/Исполнитель                       : Guthrie Govan
Часть/Положение                          : 1
Часть/Всего                              : 1
Трек                                     : Ner Ner
Трек/Положение                           : 4
Трек/Всего                               : 11
Исполнитель                              : Guthrie Govan
Жанр                                     : Instrumental Rock
Дата записи                              : 2011
Дата кодирования                         : UTC 2014-02-06 02:59:56
Дата пометки                             : UTC 2014-02-06 10:34:33
Программа кодирования                    : CUETools 2.1.4
Обложка                                  : Yes
soal                                     : Erotic Cakes
soar                                     : Guthrie Govan
soaa                                     : Guthrie Govan

Аудио
Идентификатор                            : 1
Формат                                   : ALAC
Идентификатор кодека                     : alac
Идентификатор кодека/Информация          : Apple Lossless Audio Codec
Продолжительность                        : 8 м. 4 с.
Duration_LastFrame                       : -73 мс.
Вид битрейта                             : Переменный
Битрейт                                  : 930 Кбит/сек
Каналы                                   : 2 канала
Частота                                  : 44,1 КГц
Битовая глубина                          : 16 бит
Размер потока                            : 53,8 Мбайт (100%)
Дата кодирования                         : UTC 2014-02-06 02:59:56
Дата пометки                             : UTC 2014-02-06 10:34:33

Общее
Полное имя                               : C:\Guthrie Govan - Erotic Cakes - 2011\05. Fives.m4a
Формат                                   : MPEG-4
Профиль формата                          : Apple audio with iTunes info
Идентификатор кодека                     : M4A
Размер файла                             : 30,6 Мбайт
Продолжительность                        : 4 м. 36 с.
Режим общего битрейта                    : Переменный
Общий поток                              : 928 Кбит/сек
Альбом                                   : Erotic Cakes
Альбом/Исполнитель                       : Guthrie Govan
Часть/Положение                          : 1
Часть/Всего                              : 1
Трек                                     : Fives
Трек/Положение                           : 5
Трек/Всего                               : 11
Исполнитель                              : Guthrie Govan
Жанр                                     : Instrumental Rock
Дата записи                              : 2011
Дата кодирования                         : UTC 2014-02-06 03:00:14
Дата пометки                             : UTC 2014-02-06 10:34:34
Программа кодирования                    : CUETools 2.1.4
Обложка                                  : Yes
soal                                     : Erotic Cakes
soar                                     : Guthrie Govan
soaa                                     : Guthrie Govan

Аудио
Идентификатор                            : 1
Формат                                   : ALAC
Идентификатор кодека                     : alac
Идентификатор кодека/Информация          : Apple Lossless Audio Codec
Продолжительность                        : 4 м. 36 с.
Duration_LastFrame                       : -77 мс.
Вид битрейта                             : Переменный
Битрейт                                  : 924 Кбит/сек
Каналы                                   : 2 канала
Частота                                  : 44,1 КГц
Битовая глубина                          : 16 бит
Размер потока                            : 30,4 Мбайт (100%)
Дата кодирования                         : UTC 2014-02-06 03:00:14
Дата пометки                             : UTC 2014-02-06 10:34:34

Общее
Полное имя                               : C:\Guthrie Govan - Erotic Cakes - 2011\06. Uncle Skunk.m4a
Формат                                   : MPEG-4
Профиль формата                          : Apple audio with iTunes info
Идентификатор кодека                     : M4A
Размер файла                             : 35,6 Мбайт
Продолжительность                        : 5 м. 29 с.
Режим общего битрейта                    : Переменный
Общий поток                              : 907 Кбит/сек
Альбом                                   : Erotic Cakes
Альбом/Исполнитель                       : Guthrie Govan
Часть/Положение                          : 1
Часть/Всего                              : 1
Трек                                     : Uncle Skunk
Трек/Положение                           : 6
Трек/Всего                               : 11
Исполнитель                              : Guthrie Govan
Жанр                                     : Instrumental Rock
Дата записи                              : 2011
Дата кодирования                         : UTC 2014-02-06 03:00:25
Дата пометки                             : UTC 2014-02-06 10:34:34
Программа кодирования                    : CUETools 2.1.4
Обложка                                  : Yes
soal                                     : Erotic Cakes
soar                                     : Guthrie Govan
soaa                                     : Guthrie Govan

Аудио
Идентификатор                            : 1
Формат                                   : ALAC
Идентификатор кодека                     : alac
Идентификатор кодека/Информация          : Apple Lossless Audio Codec
Продолжительность                        : 5 м. 29 с.
Duration_LastFrame                       : -19 мс.
Вид битрейта                             : Переменный
Битрейт                                  : 904 Кбит/сек
Каналы                                   : 2 канала
Частота                                  : 44,1 КГц
Битовая глубина                          : 16 бит
Размер потока                            : 35,5 Мбайт (100%)
Дата кодирования                         : UTC 2014-02-06 03:00:25
Дата пометки                             : UTC 2014-02-06 10:34:34

Общее
Полное имя                               : C:\Guthrie Govan - Erotic Cakes - 2011\07. Sevens.m4a
Формат                                   : MPEG-4
Профиль формата                          : Apple audio with iTunes info
Идентификатор кодека                     : M4A
Размер файла                             : 40,5 Мбайт
Продолжительность                        : 5 м. 57 с.
Режим общего битрейта                    : Переменный
Общий поток                              : 951 Кбит/сек
Альбом                                   : Erotic Cakes
Альбом/Исполнитель                       : Guthrie Govan
Часть/Положение                          : 1
Часть/Всего                              : 1
Трек                                     : Sevens
Трек/Положение                           : 7
Трек/Всего                               : 11
Исполнитель                              : Guthrie Govan
Жанр                                     : Instrumental Rock
Дата записи                              : 2011
Дата кодирования                         : UTC 2014-02-06 03:00:35
Дата пометки                             : UTC 2014-02-06 10:34:34
Программа кодирования                    : CUETools 2.1.4
Обложка                                  : Yes
soal                                     : Erotic Cakes
soar                                     : Guthrie Govan
soaa                                     : Guthrie Govan

Аудио
Идентификатор                            : 1
Формат                                   : ALAC
Идентификатор кодека                     : alac
Идентификатор кодека/Информация          : Apple Lossless Audio Codec
Продолжительность                        : 5 м. 57 с.
Duration_LastFrame                       : -70 мс.
Вид битрейта                             : Переменный
Битрейт                                  : 948 Кбит/сек
Каналы                                   : 2 канала
Частота                                  : 44,1 КГц
Битовая глубина                          : 16 бит
Размер потока                            : 40,4 Мбайт (100%)
Дата кодирования                         : UTC 2014-02-06 03:00:35
Дата пометки                             : UTC 2014-02-06 10:34:34

Общее
Полное имя                               : C:\Guthrie Govan - Erotic Cakes - 2011\08. Eric.m4a
Формат                                   : MPEG-4
Профиль формата                          : Apple audio with iTunes info
Идентификатор кодека                     : M4A
Размер файла                             : 34,8 Мбайт
Продолжительность                        : 5 м. 5 с.
Режим общего битрейта                    : Переменный
Общий поток                              : 955 Кбит/сек
Альбом                                   : Erotic Cakes
Альбом/Исполнитель                       : Guthrie Govan
Часть/Положение                          : 1
Часть/Всего                              : 1
Трек                                     : Eric
Трек/Положение                           : 8
Трек/Всего                               : 11
Исполнитель                              : Guthrie Govan
Жанр                                     : Instrumental Rock
Дата записи                              : 2011
Дата кодирования                         : UTC 2014-02-06 03:00:42
Дата пометки                             : UTC 2014-02-06 10:34:34
Программа кодирования                    : CUETools 2.1.4
Обложка                                  : Yes
soal                                     : Erotic Cakes
soar                                     : Guthrie Govan
soaa                                     : Guthrie Govan

Аудио
Идентификатор                            : 1
Формат                                   : ALAC
Идентификатор кодека                     : alac
Идентификатор кодека/Информация          : Apple Lossless Audio Codec
Продолжительность                        : 5 м. 5 с.
Duration_LastFrame                       : -81 мс.
Вид битрейта                             : Переменный
Битрейт                                  : 952 Кбит/сек
Каналы                                   : 2 канала
Частота                                  : 44,1 КГц
Битовая глубина                          : 16 бит
Размер потока                            : 34,7 Мбайт (100%)
Дата кодирования                         : UTC 2014-02-06 03:00:42
Дата пометки                             : UTC 2014-02-06 10:34:34

Общее
Полное имя                               : C:\Guthrie Govan - Erotic Cakes - 2011\09. Slidey Boy.m4a
Формат                                   : MPEG-4
Профиль формата                          : Apple audio with iTunes info
Идентификатор кодека                     : M4A
Размер файла                             : 30,3 Мбайт
Продолжительность                        : 4 м. 35 с.
Режим общего битрейта                    : Переменный
Общий поток                              : 923 Кбит/сек
Альбом                                   : Erotic Cakes
Альбом/Исполнитель                       : Guthrie Govan
Часть/Положение                          : 1
Часть/Всего                              : 1
Трек                                     : Slidey Boy
Трек/Положение                           : 9
Трек/Всего                               : 11
Исполнитель                              : Guthrie Govan
Жанр                                     : Instrumental Rock
Дата записи                              : 2011
Дата кодирования                         : UTC 2014-02-06 03:00:48
Дата пометки                             : UTC 2014-02-06 10:34:34
Программа кодирования                    : CUETools 2.1.4
Обложка                                  : Yes
soal                                     : Erotic Cakes
soar                                     : Guthrie Govan
soaa                                     : Guthrie Govan

Аудио
Идентификатор                            : 1
Формат                                   : ALAC
Идентификатор кодека                     : alac
Идентификатор кодека/Информация          : Apple Lossless Audio Codec
Продолжительность                        : 4 м. 35 с.
Duration_LastFrame                       : -43 мс.
Вид битрейта                             : Переменный
Битрейт                                  : 920 Кбит/сек
Каналы                                   : 2 канала
Частота                                  : 44,1 КГц
Битовая глубина                          : 16 бит
Размер потока                            : 30,2 Мбайт (100%)
Дата кодирования                         : UTC 2014-02-06 03:00:48
Дата пометки                             : UTC 2014-02-06 10:34:34

Общее
Полное имя                               : C:\Guthrie Govan - Erotic Cakes - 2011\10. Rhode Island Shred.m4a
Формат                                   : MPEG-4
Профиль формата                          : Apple audio with iTunes info
Идентификатор кодека                     : M4A
Размер файла                             : 14,8 Мбайт
Продолжительность                        : 2 м. 18 с.
Режим общего битрейта                    : Переменный
Общий поток                              : 897 Кбит/сек
Альбом                                   : Erotic Cakes
Альбом/Исполнитель                       : Guthrie Govan
Часть/Положение                          : 1
Часть/Всего                              : 1
Трек                                     : Rhode Island Shred
Трек/Положение                           : 10
Трек/Всего                               : 11
Исполнитель                              : Guthrie Govan
Жанр                                     : Instrumental Rock
Дата записи                              : 2011
Дата кодирования                         : UTC 2014-02-06 03:00:51
Дата пометки                             : UTC 2014-02-06 10:34:34
Программа кодирования                    : CUETools 2.1.4
Обложка                                  : Yes
soal                                     : Erotic Cakes
soar                                     : Guthrie Govan
soaa                                     : Guthrie Govan

Аудио
Идентификатор                            : 1
Формат                                   : ALAC
Идентификатор кодека                     : alac
Идентификатор кодека/Информация          : Apple Lossless Audio Codec
Продолжительность                        : 2 м. 18 с.
Duration_LastFrame                       : -19 мс.
Вид битрейта                             : Переменный
Битрейт                                  : 891 Кбит/сек
Каналы                                   : 2 канала
Частота                                  : 44,1 КГц
Битовая глубина                          : 16 бит
Размер потока                            : 14,7 Мбайт (99%)
Дата кодирования                         : UTC 2014-02-06 03:00:51
Дата пометки                             : UTC 2014-02-06 10:34:34

Общее
Полное имя                               : C:\Guthrie Govan - Erotic Cakes - 2011\11. Hangover.m4a
Формат                                   : MPEG-4
Профиль формата                          : Apple audio with iTunes info
Идентификатор кодека                     : M4A
Размер файла                             : 42,9 Мбайт
Продолжительность                        : 6 м. 32 с.
Режим общего битрейта                    : Переменный
Общий поток                              : 917 Кбит/сек
Альбом                                   : Erotic Cakes
Альбом/Исполнитель                       : Guthrie Govan
Часть/Положение                          : 1
Часть/Всего                              : 1
Трек                                     : Hangover
Трек/Положение                           : 11
Трек/Всего                               : 11
Исполнитель                              : Guthrie Govan
Жанр                                     : Instrumental Rock
Дата записи                              : 2011
Дата кодирования                         : UTC 2014-02-06 03:01:01
Дата пометки                             : UTC 2014-02-06 10:34:36
Программа кодирования                    : CUETools 2.1.4
Обложка                                  : Yes
soal                                     : Erotic Cakes
soar                                     : Guthrie Govan
soaa                                     : Guthrie Govan

Аудио
Идентификатор                            : 1
Формат                                   : ALAC
Идентификатор кодека                     : alac
Идентификатор кодека/Информация          : Apple Lossless Audio Codec
Продолжительность                        : 6 м. 32 с.
Duration_LastFrame                       : -57 мс.
Вид битрейта                             : Переменный
Битрейт                                  : 914 Кбит/сек
Каналы                                   : 2 канала
Частота                                  : 44,1 КГц
Битовая глубина                          : 16 бит
Размер потока                            : 42,8 Мбайт (100%)
Дата кодирования                         : UTC 2014-02-06 03:01:01
Дата пометки                             : UTC 2014-02-06 10:34:36
Код:

Exact Audio Copy V1.0 beta 3 from 29. August 2011

EAC extraction logfile from 8. April 2012, 13:30

Guthrie Govan / Erotic Cakes

Used drive  : HL-DT-STDVDRAM GU10N   Adapter: 3  ID: 0

Read mode               : Secure
Utilize accurate stream : Yes
Defeat audio cache      : Yes
Make use of C2 pointers : No

Read offset correction                      : 667
Overread into Lead-In and Lead-Out          : No
Fill up missing offset samples with silence : Yes
Delete leading and trailing silent blocks   : No
Null samples used in CRC calculations       : Yes
Used interface                              : Native Win32 interface for Win NT & 2000

Used output format : Internal WAV Routines
Sample format      : 44.100 Hz; 16 Bit; Stereo

TOC of the extracted CD

     Track |   Start  |  Length  | Start sector | End sector
    ---------------------------------------------------------
        1  |  0:00.00 |  5:08.66 |         0    |    23165
        2  |  5:08.66 |  3:50.60 |     23166    |    40475
        3  |  8:59.51 |  3:20.57 |     40476    |    55532
        4  | 12:20.33 |  8:04.57 |     55533    |    91889
        5  | 20:25.15 |  4:36.18 |     91890    |   112607
        6  | 25:01.33 |  5:29.11 |    112608    |   137293
        7  | 30:30.44 |  5:57.04 |    137294    |   164072
        8  | 36:27.48 |  5:05.37 |    164073    |   186984
        9  | 41:33.10 |  4:35.12 |    186985    |   207621
       10  | 46:08.22 |  2:18.14 |    207622    |   217985
       11  | 48:26.36 |  6:32.27 |    217986    |   247412

Range status and errors

Selected range

     Filename c:\Private\Music - to burn\To backup\Guthrie Govan 2011 - Erotic Cakes\Guthrie Govan - Erotic Cakes.wav

     Peak level 97.3 %
     Extraction speed 3.8 X
     Range quality 100.0 %
     Test CRC 1B39D502
     Copy CRC 1B39D502
     Copy OK

No errors occurred

AccurateRip summary

Track  1  cannot be verified as accurate (confidence 13)  [4492292E], AccurateRip returned [98F8EAB9]  (AR v2)
Track  2  cannot be verified as accurate (confidence 13)  [706A1D74], AccurateRip returned [E46A361F]  (AR v2)
Track  3  cannot be verified as accurate (confidence 13)  [D2D08932], AccurateRip returned [89C2B567]  (AR v2)
Track  4  cannot be verified as accurate (confidence 13)  [64858E24], AccurateRip returned [7BEBB85D]  (AR v2)
Track  5  cannot be verified as accurate (confidence 13)  [735E4A97], AccurateRip returned [596ACB8E]  (AR v2)
Track  6  cannot be verified as accurate (confidence 13)  [1DDEC3E6], AccurateRip returned [0225D0C1]  (AR v2)
Track  7  cannot be verified as accurate (confidence 13)  [9CC6CA0D], AccurateRip returned [2642B127]  (AR v2)
Track  8  cannot be verified as accurate (confidence 13)  [7F7C24EE], AccurateRip returned [3ED983AB]  (AR v2)
Track  9  cannot be verified as accurate (confidence 12)  [1E1660D4], AccurateRip returned [702B4E57]  (AR v2)
Track 10  cannot be verified as accurate (confidence 12)  [BAE96EBE], AccurateRip returned [7E145D30]  (AR v2)
Track 11  cannot be verified as accurate (confidence 13)  [E4A3380F], AccurateRip returned [1C7CB7A8]  (AR v2)

No tracks could be verified as accurate
You may have a different pressing from the one(s) in the database

End of status report
Код:

-----------------------

DON'T MODIFY THIS FILE

-----------------------

PERFORMER: auCDtect Task Manager, ver. 1.6.0 RC1 build 1.6.0.1
Copyright (c) 2008-2010 y-soft. All rights reserved
http://y-soft.org

ANALYZER: auCDtect: CD records authenticity detector, version 0.8.2
Copyright (c) 2004 Oleg Berngardt. All rights reserved.
Copyright (c) 2004 Alexander Djourik. All rights reserved.

FILE: 11. Hangover.m4a
  Size: 44964271 Hash: 1F8E9DFD9536052E3C9C9500773325F0 Accuracy: -m0
  Conclusion: CDDA 100%
  Signature: D17F453BD35034EAE2F3B10825B1C71A6F80BFED
FILE: 10. Rhode Island Shred.m4a
  Size: 15501955 Hash: E02DF42B9FA903B784350BF2E791EBA5 Accuracy: -m0
  Conclusion: MPEG 95%
  Signature: 2B590A6742A599C6B604FBE1AB536AE1C25400E9
FILE: 09. Slidey Boy.m4a
  Size: 31749028 Hash: 58684D53E0E097E37F7D34CE04C4A71E Accuracy: -m0
  Conclusion: CDDA 100%
  Signature: 519142CE5A56778EB45B37E2B774AC598C32DE15
FILE: 08. Eric.m4a
  Size: 36466901 Hash: 48C689DF62CA1BB2E30C2C458261EDEB Accuracy: -m0
  Conclusion: CDDA 99%
  Signature: ACC14A8F00071C443675D87F7AD9FC4F4AE49D03
FILE: 07. Sevens.m4a
  Size: 42455654 Hash: DD81006AD3FB75C0928D38C1B86AAE7E Accuracy: -m0
  Conclusion: CDDA 100%
  Signature: 49457613745724F00251240525743255AFDF5828
FILE: 06. Uncle Skunk.m4a
  Size: 37316247 Hash: A28AD420FA604DB5C83463F45EC6BBD4 Accuracy: -m0
  Conclusion: CDDA 100%
  Signature: 294AF5E14AF5D6FDD0F1CBA5185F2E2D70A48937
FILE: 05. Fives.m4a
  Size: 32034021 Hash: C439228182B1DBC5731580812F7AF580 Accuracy: -m0
  Conclusion: CDDA 100%
  Signature: B13F88296E7E1972B57A09BBF2FE0E6A3772791E
FILE: 04. Ner Ner.m4a
  Size: 56500480 Hash: F6CC31388C2869F9E75BFB997EFA7432 Accuracy: -m0
  Conclusion: CDDA 100%
  Signature: AC0CB2D087F1A1FCCD0F32C1D8F484B0F37F609A
FILE: 03. Wonderful Slippery Thing.m4a
  Size: 22354497 Hash: 312FD41C73CC2E094B40AB1E3E1E1396 Accuracy: -m0
  Conclusion: CDDA 100%
  Signature: 78B5178E8F11B4FCE8E1641DB19133981032E4E1
FILE: 02. Erotic Cakes.m4a
  Size: 28252582 Hash: 21FEB3D7EC28D7A885511DB5F58D6854 Accuracy: -m0
  Conclusion: CDDA 100%
  Signature: A62C3840620B1C03A81565EC7AEDBA3ACDB65466
FILE: 01. Waves.m4a
  Size: 36799843 Hash: A45288BBD0B2A86717142EF081C0855B Accuracy: -m0
  Conclusion: MPEG 95%
  Signature: A1AE7AB7041AAA714A7714A42432C6146EAA991A
Время раздачи: ( с 09:00 - 20:00 - до первых десяти сидов )
[NNM-Club.me]_Guthrie Govan - Erotic Cakes.torrent
 Торрент: Платиновая раздача  Зарегистрирован
 
Скачать


Примагнититься
 Зарегистрирован:   06 Фев 2014 10:05:03
 Размер:   367 MB  (
 Рейтинг:   4.6 (Голосов: 16)
 Поблагодарили:   51
 Проверка:   Оформление проверено модератором 06 Фев 2014 10:06:51
Как cкачать  ·  Как раздать  ·  Правильно оформить  ·  Поднять ратио!  
tuktcbfc
Стаж: 10 лет 6 мес.
Сообщений: 50
Ratio: 28.785
23.36%
ничего себе.... ни одного комментария...
альбом просто шикарный. а таких виртуозных и изобретательных гитаристов, наверное, на пальцах одной руки можно пересчитать.
Кто уже привык к пассажам Стива Вая, Сатриани и Кико Лоурейро, ооооооочень советую послушать этот альбом.
возможно, пойдет не с первого раза, но у этой музыки такое пощипывающее мозг послевкусие, что к ней возвращаешься вновь и вновь.
sseless, огромное спасибо!
Kirilltroitsky
 
Стаж: 10 лет 10 мес.
Сообщений: 31
Ratio: 56.788
100%
ussr.gif
tuktcbfc писал(а): Перейти к сообщению
ничего себе.... ни одного комментария...
альбом просто шикарный. а таких виртуозных и изобретательных гитаристов, наверное, на пальцах одной руки можно пересчитать.
Кто уже привык к пассажам Стива Вая, Сатриани и Кико Лоурейро, ооооооочень советую послушать этот альбом.
возможно, пойдет не с первого раза, но у этой музыки такое пощипывающее мозг послевкусие, что к ней возвращаешься вновь и вновь.
sseless, огромное спасибо!


А собственно ответ на ваше удивление в вашем собственном ответе) Ничего не имею против Вая, Сатриани. Но, действительно, они популяризированны настолько, что считается, что каждому начинающему гитаристу и некого особо слушать кроме них)

а на самом деле, в по-настоящему профессиональном мире живут и ценятся вот такие гитаристы как Гатри. Это люди, которые засветились во многих проектах, но про которых мало кто слышал, но в то же самое время, профессионалы высоко ценят их. Гатри очень необычен.
Послушайте его работы со Стивеном Уилсоном. Стивем никогда не возьмет кого попало.
Спасибо за альбом, вообще удивительно, что он тут есть! не смог найти его в эппсторе, хотел купить.

Добавлено спустя 6 минут 45 секунд:

вот только...скачать его никак не получается)) некому раздать! блин, обидно.
Вот насколько непопулярная музыка)
tungus2000
Стаж: 7 лет 1 мес.
Сообщений: 44
Ratio: 2.632
93.04%
Огромное спасибо ! просто бомба !
Показать сообщения:   
Начать новую тему   Ответить на тему    Торрент-трекер NNM-Club -> Аудио и Видео -> Музыка Lossless (ALAC) Часовой пояс: GMT + 3
Страница 1 из 1