Классический форум-трекер
canvas not supported
Нас вместе: 4 166 372

Koan - Proteus (2013) [ALAC|Tracks|WEB-DL]<Downtempo, Progressive House, Psybient, Dubstep>


 
 
RSS
Начать новую тему   Ответить на тему    Торрент-трекер NNM-Club -> Аудио и Видео -> Музыка Lossless (ALAC)
Автор Сообщение
sseless ®
Меломан, Реставратор
Стаж: 9 лет
Сообщений: 3542
Ratio: 1386.827
Раздал: 45.33 TB
Поблагодарили: 160421
100%
north_korea.gif
Koan - Proteus (2013)
Год: 2013
Лейбл: Self-released
Жанр: Downtempo, Progressive House, Psybient, Dubstep
Продолжительность: 00:53:06

Кодек: ALAC
Битрейт: Lossless|WEB-DL
Тип раздачи: Tracks
Обложки: Вшиты
Тексты: Нет
Кодирование: foobar2000+ iTunes
Исходник: FLAC (Lossless) Спасибо: vilator

Треклист:
01. Proteus (White Mix) (4:39)
02. Proteus (Roeth & Grey Remix) (4:51)
03. Klutia (7:56)
04. Splice (White Mix) (6:10)
05. Arachne (Fatum Sci-Fi Version) (8:26)
06. Ananch (Roeth Version) (7:58)
07. Eidotheia (Psamatha Mix) (8:35)
08. Eidotheia (Radio Version) (4:28)
Код:

Общее
Полное имя                               : C:\Koan - Proteus\01. Koan - Proteus (White mix).m4a
Формат                                   : MPEG-4
Профиль формата                          : Apple audio with iTunes info
Идентификатор кодека                     : M4A
Размер файла                             : 38,7 Мбайт
Продолжительность                        : 4 м. 39 с.
Режим общего битрейта                    : Переменный
Общий поток                              : 1162 Кбит/сек
Альбом                                   : Proteus
Альбом/Исполнитель                       : Koan
Часть/Положение                          : 1
Часть/Всего                              : 1
Трек                                     : Proteus (White mix)
Трек/Положение                           : 1
Трек/Всего                               : 8
Исполнитель                              : Koan
Жанр                                     : Downtempo, Progressive House, Psybient, Dubstep
Дата записи                              : 2013
Дата кодирования                         : UTC 2014-02-12 05:55:50
Дата пометки                             : UTC 2014-02-12 10:57:45
Программа кодирования                    : refalac 1.27, Apple Lossless Encoder
Обложка                                  : Yes
soal                                     : Proteus
soar                                     : Koan
soaa                                     : Koan

Аудио
Идентификатор                            : 1
Формат                                   : ALAC
Идентификатор кодека                     : alac
Идентификатор кодека/Информация          : Apple Lossless Audio Codec
Продолжительность                        : 4 м. 39 с.
Duration_LastFrame                       : -26 мс.
Вид битрейта                             : Переменный
Битрейт                                  : 1071 Кбит/сек
Каналы                                   : 2 канала
Частота                                  : 44,1 КГц
Битовая глубина                          : 16 бит
Размер потока                            : 35,7 Мбайт (92%)
Дата кодирования                         : UTC 2014-02-12 05:55:50
Дата пометки                             : UTC 2014-02-12 10:57:45

Общее
Полное имя                               : C:\Koan - Proteus\02. Koan - Proteus (Roeth & Grey remix).m4a
Формат                                   : MPEG-4
Профиль формата                          : Apple audio with iTunes info
Идентификатор кодека                     : M4A
Размер файла                             : 40,6 Мбайт
Продолжительность                        : 4 м. 51 с.
Режим общего битрейта                    : Переменный
Общий поток                              : 1168 Кбит/сек
Альбом                                   : Proteus
Альбом/Исполнитель                       : Koan
Часть/Положение                          : 1
Часть/Всего                              : 1
Трек                                     : Proteus (Roeth & Grey remix)
Трек/Положение                           : 2
Трек/Всего                               : 8
Исполнитель                              : Koan
Жанр                                     : Downtempo, Progressive House, Psybient, Dubstep
Дата записи                              : 2013
Дата кодирования                         : UTC 2014-02-12 05:55:50
Дата пометки                             : UTC 2014-02-12 10:57:46
Программа кодирования                    : refalac 1.27, Apple Lossless Encoder
Обложка                                  : Yes
soal                                     : Proteus
soar                                     : Koan
soaa                                     : Koan

Аудио
Идентификатор                            : 1
Формат                                   : ALAC
Идентификатор кодека                     : alac
Идентификатор кодека/Информация          : Apple Lossless Audio Codec
Продолжительность                        : 4 м. 51 с.
Duration_LastFrame                       : -46 мс.
Вид битрейта                             : Переменный
Битрейт                                  : 1081 Кбит/сек
Каналы                                   : 2 канала
Частота                                  : 44,1 КГц
Битовая глубина                          : 16 бит
Размер потока                            : 37,6 Мбайт (93%)
Дата кодирования                         : UTC 2014-02-12 05:55:50
Дата пометки                             : UTC 2014-02-12 10:57:46

Общее
Полное имя                               : C:\Koan - Proteus\03. Koan - Klutia.m4a
Формат                                   : MPEG-4
Профиль формата                          : Apple audio with iTunes info
Идентификатор кодека                     : M4A
Размер файла                             : 61,4 Мбайт
Продолжительность                        : 7 м. 56 с.
Режим общего битрейта                    : Переменный
Общий поток                              : 1081 Кбит/сек
Альбом                                   : Proteus
Альбом/Исполнитель                       : Koan
Часть/Положение                          : 1
Часть/Всего                              : 1
Трек                                     : Klutia
Трек/Положение                           : 3
Трек/Всего                               : 8
Исполнитель                              : Koan
Жанр                                     : Downtempo, Progressive House, Psybient, Dubstep
Дата записи                              : 2013
Дата кодирования                         : UTC 2014-02-12 05:55:50
Дата пометки                             : UTC 2014-02-12 10:57:46
Программа кодирования                    : refalac 1.27, Apple Lossless Encoder
Обложка                                  : Yes
soal                                     : Proteus
soar                                     : Koan
soaa                                     : Koan

Аудио
Идентификатор                            : 1
Формат                                   : ALAC
Идентификатор кодека                     : alac
Идентификатор кодека/Информация          : Apple Lossless Audio Codec
Продолжительность                        : 7 м. 56 с.
Duration_LastFrame                       : -67 мс.
Вид битрейта                             : Переменный
Битрейт                                  : 1027 Кбит/сек
Каналы                                   : 2 канала
Частота                                  : 44,1 КГц
Битовая глубина                          : 16 бит
Размер потока                            : 58,3 Мбайт (95%)
Дата кодирования                         : UTC 2014-02-12 05:55:50
Дата пометки                             : UTC 2014-02-12 10:57:46

Общее
Полное имя                               : C:\Koan - Proteus\04. Koan - Splice (White mix).m4a
Формат                                   : MPEG-4
Профиль формата                          : Apple audio with iTunes info
Идентификатор кодека                     : M4A
Размер файла                             : 45,3 Мбайт
Продолжительность                        : 6 м. 10 с.
Режим общего битрейта                    : Переменный
Общий поток                              : 1025 Кбит/сек
Альбом                                   : Proteus
Альбом/Исполнитель                       : Koan
Часть/Положение                          : 1
Часть/Всего                              : 1
Трек                                     : Splice (White mix)
Трек/Положение                           : 4
Трек/Всего                               : 8
Исполнитель                              : Koan
Жанр                                     : Downtempo, Progressive House, Psybient, Dubstep
Дата записи                              : 2013
Дата кодирования                         : UTC 2014-02-12 05:55:50
Дата пометки                             : UTC 2014-02-12 10:57:46
Программа кодирования                    : refalac 1.27, Apple Lossless Encoder
Обложка                                  : Yes
soal                                     : Proteus
soar                                     : Koan
soaa                                     : Koan

Аудио
Идентификатор                            : 1
Формат                                   : ALAC
Идентификатор кодека                     : alac
Идентификатор кодека/Информация          : Apple Lossless Audio Codec
Продолжительность                        : 6 м. 10 с.
Duration_LastFrame                       : -73 мс.
Вид битрейта                             : Переменный
Битрейт                                  : 957 Кбит/сек
Каналы                                   : 2 канала
Частота                                  : 44,1 КГц
Битовая глубина                          : 16 бит
Размер потока                            : 42,3 Мбайт (93%)
Дата кодирования                         : UTC 2014-02-12 05:55:50
Дата пометки                             : UTC 2014-02-12 10:57:46

Общее
Полное имя                               : C:\Koan - Proteus\05. Koan - Arachne (Fatum Sci-Fi version).m4a
Формат                                   : MPEG-4
Профиль формата                          : Apple audio with iTunes info
Идентификатор кодека                     : M4A
Размер файла                             : 63,5 Мбайт
Продолжительность                        : 8 м. 26 с.
Режим общего битрейта                    : Переменный
Общий поток                              : 1052 Кбит/сек
Альбом                                   : Proteus
Альбом/Исполнитель                       : Koan
Часть/Положение                          : 1
Часть/Всего                              : 1
Трек                                     : Arachne (Fatum Sci-Fi version)
Трек/Положение                           : 5
Трек/Всего                               : 8
Исполнитель                              : Koan
Жанр                                     : Downtempo, Progressive House, Psybient, Dubstep
Дата записи                              : 2013
Дата кодирования                         : UTC 2014-02-12 05:55:56
Дата пометки                             : UTC 2014-02-12 10:57:46
Программа кодирования                    : refalac 1.27, Apple Lossless Encoder
Обложка                                  : Yes
soal                                     : Proteus
soar                                     : Koan
soaa                                     : Koan

Аудио
Идентификатор                            : 1
Формат                                   : ALAC
Идентификатор кодека                     : alac
Идентификатор кодека/Информация          : Apple Lossless Audio Codec
Продолжительность                        : 8 м. 26 с.
Duration_LastFrame                       : -38 мс.
Вид битрейта                             : Переменный
Битрейт                                  : 1002 Кбит/сек
Каналы                                   : 2 канала
Частота                                  : 44,1 КГц
Битовая глубина                          : 16 бит
Размер потока                            : 60,5 Мбайт (95%)
Дата кодирования                         : UTC 2014-02-12 05:55:56
Дата пометки                             : UTC 2014-02-12 10:57:46

Общее
Полное имя                               : C:\Koan - Proteus\06. Koan - Ananch (Roeth version).m4a
Формат                                   : MPEG-4
Профиль формата                          : Apple audio with iTunes info
Идентификатор кодека                     : M4A
Размер файла                             : 60,6 Мбайт
Продолжительность                        : 7 м. 58 с.
Режим общего битрейта                    : Переменный
Общий поток                              : 1063 Кбит/сек
Альбом                                   : Proteus
Альбом/Исполнитель                       : Koan
Часть/Положение                          : 1
Часть/Всего                              : 1
Трек                                     : Ananch (Roeth version)
Трек/Положение                           : 6
Трек/Всего                               : 8
Исполнитель                              : Koan
Жанр                                     : Downtempo, Progressive House, Psybient, Dubstep
Дата записи                              : 2013
Дата кодирования                         : UTC 2014-02-12 05:55:57
Дата пометки                             : UTC 2014-02-12 10:57:46
Программа кодирования                    : refalac 1.27, Apple Lossless Encoder
Обложка                                  : Yes
soal                                     : Proteus
soar                                     : Koan
soaa                                     : Koan

Аудио
Идентификатор                            : 1
Формат                                   : ALAC
Идентификатор кодека                     : alac
Идентификатор кодека/Информация          : Apple Lossless Audio Codec
Продолжительность                        : 7 м. 58 с.
Duration_LastFrame                       : -20 мс.
Вид битрейта                             : Переменный
Битрейт                                  : 1009 Кбит/сек
Каналы                                   : 2 канала
Частота                                  : 44,1 КГц
Битовая глубина                          : 16 бит
Размер потока                            : 57,5 Мбайт (95%)
Дата кодирования                         : UTC 2014-02-12 05:55:57
Дата пометки                             : UTC 2014-02-12 10:57:46

Общее
Полное имя                               : C:\Koan - Proteus\07. Koan - Eidotheia (Psamatha mix).m4a
Формат                                   : MPEG-4
Профиль формата                          : Apple audio with iTunes info
Идентификатор кодека                     : M4A
Размер файла                             : 57,3 Мбайт
Продолжительность                        : 8 м. 35 с.
Режим общего битрейта                    : Переменный
Общий поток                              : 933 Кбит/сек
Альбом                                   : Proteus
Альбом/Исполнитель                       : Koan
Часть/Положение                          : 1
Часть/Всего                              : 1
Трек                                     : Eidotheia (Psamatha mix)
Трек/Положение                           : 7
Трек/Всего                               : 8
Исполнитель                              : Koan
Жанр                                     : Downtempo, Progressive House, Psybient, Dubstep
Дата записи                              : 2013
Дата кодирования                         : UTC 2014-02-12 05:55:58
Дата пометки                             : UTC 2014-02-12 10:57:47
Программа кодирования                    : refalac 1.27, Apple Lossless Encoder
Обложка                                  : Yes
soal                                     : Proteus
soar                                     : Koan
soaa                                     : Koan

Аудио
Идентификатор                            : 1
Формат                                   : ALAC
Идентификатор кодека                     : alac
Идентификатор кодека/Информация          : Apple Lossless Audio Codec
Продолжительность                        : 8 м. 35 с.
Duration_LastFrame                       : -64 мс.
Вид битрейта                             : Переменный
Битрейт                                  : 883 Кбит/сек
Каналы                                   : 2 канала
Частота                                  : 44,1 КГц
Битовая глубина                          : 16 бит
Размер потока                            : 54,2 Мбайт (95%)
Дата кодирования                         : UTC 2014-02-12 05:55:58
Дата пометки                             : UTC 2014-02-12 10:57:47

Общее
Полное имя                               : C:\Koan - Proteus\08. Koan - Eidotheia (Radio version).m4a
Формат                                   : MPEG-4
Профиль формата                          : Apple audio with iTunes info
Идентификатор кодека                     : M4A
Размер файла                             : 30,4 Мбайт
Продолжительность                        : 4 м. 28 с.
Режим общего битрейта                    : Переменный
Общий поток                              : 948 Кбит/сек
Альбом                                   : Proteus
Альбом/Исполнитель                       : Koan
Часть/Положение                          : 1
Часть/Всего                              : 1
Трек                                     : Eidotheia (Radio version)
Трек/Положение                           : 8
Трек/Всего                               : 8
Исполнитель                              : Koan
Жанр                                     : Downtempo, Progressive House, Psybient, Dubstep
Дата записи                              : 2013
Дата кодирования                         : UTC 2014-02-12 05:56:00
Дата пометки                             : UTC 2014-02-12 10:57:47
Программа кодирования                    : refalac 1.27, Apple Lossless Encoder
Обложка                                  : Yes
soal                                     : Proteus
soar                                     : Koan
soaa                                     : Koan

Аудио
Идентификатор                            : 1
Формат                                   : ALAC
Идентификатор кодека                     : alac
Идентификатор кодека/Информация          : Apple Lossless Audio Codec
Продолжительность                        : 4 м. 28 с.
Duration_LastFrame                       : -87 мс.
Вид битрейта                             : Переменный
Битрейт                                  : 854 Кбит/сек
Каналы                                   : 2 канала
Частота                                  : 44,1 КГц
Битовая глубина                          : 16 бит
Размер потока                            : 27,4 Мбайт (90%)
Дата кодирования                         : UTC 2014-02-12 05:56:00
Дата пометки                             : UTC 2014-02-12 10:57:47

Общее
Полное имя                               : C:\Koan - Proteus\cover.jpg
Формат                                   : JPEG
Размер файла                             : 3,01 Мбайт

Изображения
Формат                                   : JPEG
Ширина                                   : 1500 пикселей
Высота                                   : 1500 пикселей
Цветовое пространство                    : YUV
Субдискретизация насыщенности            : 4:4:4
Битовая глубина                          : 8 бит
Метод сжатия                             : С потерями
Размер потока                            : 3,01 Мбайт (100%)
Код:

-----------------------

DON'T MODIFY THIS FILE

-----------------------

PERFORMER: auCDtect Task Manager, ver. 1.6.0 RC1 build 1.6.0.1
Copyright (c) 2008-2010 y-soft. All rights reserved
http://y-soft.org

ANALYZER: auCDtect: CD records authenticity detector, version 0.8.2
Copyright (c) 2004 Oleg Berngardt. All rights reserved.
Copyright (c) 2004 Alexander Djourik. All rights reserved.

FILE: 08. Koan - Eidotheia (Radio version).m4a
  Size: 28700484 Hash: D875E90555640BC87391071F0A4D275C Accuracy: -m0
  Conclusion: CDDA 62%
  Signature: A1979CD0B7DA6424405EF3B75112615702FA2276
FILE: 07. Koan - Eidotheia (Psamatha mix).m4a
  Size: 56886357 Hash: DE86EE2D67C8D8A7ABD588E0AAC2B525 Accuracy: -m0
  Conclusion: CDDA 85%
  Signature: 99489BD235A18A7C7FA436BF672F36EF57EEF6E9
FILE: 06. Koan - Ananch (Roeth version).m4a
  Size: 60344239 Hash: BF901D9795814548DDBE46C35980ED53 Accuracy: -m0
  Conclusion: CDDA 100%
  Signature: F4F1BB06497738DC37BB5D3C09D16A01CAA6A566
FILE: 05. Koan - Arachne (Fatum Sci-Fi version).m4a
  Size: 63431569 Hash: 0C26FF361906EF8A43C7E19F570458F0 Accuracy: -m0
  Conclusion: CDDA 100%
  Signature: 36CC375B7EB8ADCCC2667FA6570995675B5D3FC8
FILE: 04. Koan - Splice (White mix).m4a
  Size: 44346096 Hash: 2141AB982009D50D70BF74DAED413BC2 Accuracy: -m0
  Conclusion: CDDA 100%
  Signature: D8B37F342C89E3FC72CFC28B8C19C542659E033B
FILE: 03. Koan - Klutia.m4a
  Size: 61180778 Hash: 66D70FF2F8650B6957E5760F0EA3882A Accuracy: -m0
  Conclusion: CDDA 100%
  Signature: 5756E24ACBFB0F29554EB7139CFC05A75FAF685C
FILE: 02. Koan - Proteus (Roeth & Grey remix).m4a
  Size: 39420917 Hash: 9A46A17D2EF829E828C9B2A8A4E27EA9 Accuracy: -m0
  Conclusion: CDDA 100%
  Signature: 05DF2336ECD11B73A3DBB266D6590D0EFC1BE86C
FILE: 01. Koan - Proteus (White mix).m4a
  Size: 37420907 Hash: 5D6250FA77C4F79AD6DDF9F7F54123F7 Accuracy: -m0
  Conclusion: CDDA 99%
  Signature: 130A7ECBB30364F04B0DF7E0D5C8E325546D73EE
Время раздачи: ( с 09:00 - 20:00 - до первых десяти сидов )
[NNM-Club.me]_Koan - Proteus (2013).torrent
 Торрент: Платиновая раздача  Зарегистрирован
 
Скачать


Примагнититься
 Зарегистрирован:   12 Фев 2014 16:31:42
 Размер:   401 MB  (
 Рейтинг:   4.9 (Голосов: 17)
 Поблагодарили:   46
 Проверка:   Оформление проверено модератором 12 Фев 2014 16:34:06
Как cкачать  ·  Как раздать  ·  Правильно оформить  ·  Поднять ратио!  
Dimarik73
Стаж: 5 лет 8 мес.
Сообщений: 4
Ratio: 4.43
0%
У такой годноты и нету раздачи?!
Показать сообщения:   
Начать новую тему   Ответить на тему    Торрент-трекер NNM-Club -> Аудио и Видео -> Музыка Lossless (ALAC) Часовой пояс: GMT + 3
Страница 1 из 1