Классический форум-трекер
canvas not supported
Нас вместе: 4 166 375

ЧайФ - Лучшее (2009)2CD, Unofficial [ALAC|Tracks]<Rock>


 
 
RSS
Начать новую тему   Ответить на тему    Торрент-трекер NNM-Club -> Аудио и Видео -> Музыка Lossless (ALAC)
Автор Сообщение
sseless ®
Меломан, Реставратор
Стаж: 9 лет
Сообщений: 3542
Ratio: 1386.827
Раздал: 45.33 TB
Поблагодарили: 160421
100%
north_korea.gif
ЧайФ - Лучшее (2009) Unofficial
Год: 2009
Страна-производитель диска: Russia
Лейбл: Star Mark ‎
Каталожный №: 23222-1/2
Жанр: Rock
Продолжительность: 02:39:32

Кодек: ALAC
Битрейт: Lossless
Тип раздачи: Tracks
Обложки: Вшиты
Тексты: Нет
Кодирование: CUETools + iTunes
Исходник: FLAC (Lossless)

CD1
Продолжитeльность: 01:19:41
Треклист:
01. Рок-н-ролл этой ночи
02. Не дай мне повод
03. 17 лет
04. Не доводи до предела
05. Аргентина-Ямайка 5:0
06. Никто не услышит
07. Не спеши
08. Не со мной
09. Поплачь о нем
10. Я тебя не нашел (Уже)
11. В ее глазах
12. Камнепад
13. Белая ворона
14. Кончается век
15. За полшага
16. Сальто назад
17. Кто-то хитрый
18. Любовь пришла
19. Пиво
20. Rock'n'roll это я
Код:

Exact Audio Copy V1.0 beta 3 from 29. August 2011

Отчёт EAC об извлечении, выполненном 8. сентября 2013, 22:59

Чайф / Лучшее

Дисковод: HL-DT-STCD-ROM GCR-8520B   Adapter: 1  ID: 0

Режим чтения                 : Достоверность
Использование точного потока : Да
Отключение кэша аудио        : Да
Использование указателей C2  : Нет

Коррекция смещения при чтении                     : -491
Способность читать области Lead-in и Lead-out     : Нет
Заполнение пропущенных сэмплов тишиной            : Да
Удаление блоков с тишиной в начале и конце        : Нет
При вычислениях CRC использовались нулевые сэмплы : Да
Интерфейс                                         : Встроенный Win32-интерфейс для Win NT/2000

Выходной формат          : Пользовательский кодировщик
Выбранный битрейт        : 1024 kBit/s
Качество                 : Высокий
Добавление ID3-тега      : Нет
Утилита сжатия           : C:\Program Files (x86)\Exact Audio Copy\Flac\flac.exe
Дополнительные параметры : -8 -V %source%

TOC извлечённого CD

     Трек |   Старт  | Длительность | Начальный сектор | Конечный сектор
    ---------------------------------------------------------------------
       1  |  0:00.00 |    3:45.01   |           0      |      16875
       2  |  3:45.01 |    3:28.63   |       16876      |      32538
       3  |  7:13.64 |    4:30.16   |       32539      |      52804
       4  | 11:44.05 |    3:59.61   |       52805      |      70790
       5  | 15:43.66 |    3:19.08   |       70791      |      85723
       6  | 19:02.74 |    4:25.67   |       85724      |     105665
       7  | 23:28.66 |    3:54.10   |      105666      |     123225
       8  | 27:23.01 |    4:56.47   |      123226      |     145472
       9  | 32:19.48 |    6:18.47   |      145473      |     173869
      10  | 38:38.20 |    3:34.37   |      173870      |     189956
      11  | 42:12.57 |    4:26.14   |      189957      |     209920
      12  | 46:38.71 |    3:54.27   |      209921      |     227497
      13  | 50:33.23 |    3:03.40   |      227498      |     241262
      14  | 53:36.63 |    5:03.20   |      241263      |     264007
      15  | 58:40.08 |    4:09.42   |      264008      |     282724
      16  | 62:49.50 |    4:56.51   |      282725      |     304975
      17  | 67:46.26 |    2:45.25   |      304976      |     317375
      18  | 70:31.51 |    2:46.04   |      317376      |     329829
      19  | 73:17.55 |    2:28.33   |      329830      |     340962
      20  | 75:46.13 |    3:55.34   |      340963      |     358621

Характеристики диапазона извлечения и сообщения об ошибках

Выбранный диапазон

     Имя файла C:\Users\Гордей\Music\Чайф\2009 - Лучшее (2CD Топ Саунд 23222-1-2, Flac)\CD1\Лучшее.wav

     Пиковый уровень 100.0 %
     Скорость извлечения 4.1 X
     Качество диапазона 100.0 %
     CRC теста 6A0680F6
     CRC копии 6A0680F6
     Копирование... OK

Ошибок не произошло

AccurateRip: сводка

Трек  1  отсутствует в базе данных
Трек  2  отсутствует в базе данных
Трек  3  отсутствует в базе данных
Трек  4  отсутствует в базе данных
Трек  5  отсутствует в базе данных
Трек  6  отсутствует в базе данных
Трек  7  отсутствует в базе данных
Трек  8  отсутствует в базе данных
Трек  9  отсутствует в базе данных
Трек 10  отсутствует в базе данных
Трек 11  отсутствует в базе данных
Трек 12  отсутствует в базе данных
Трек 13  отсутствует в базе данных
Трек 14  отсутствует в базе данных
Трек 15  отсутствует в базе данных
Трек 16  отсутствует в базе данных
Трек 17  отсутствует в базе данных
Трек 18  отсутствует в базе данных
Трек 19  отсутствует в базе данных
Трек 20  отсутствует в базе данных

Ни одного трека нет в базе AccurateRip

Конец отчёта

---- CUETools DB Plugin V2.1.3

[CTDB TOCID: BwJauIDag5xypO313FSpF9kAdYg-] found, Submit result: BwJauIDag5xypO313FSpF9kAdYg- has been confirmed
[e3804aae] (1/1) Accurately ripped
Код:

-----------------------

DON'T MODIFY THIS FILE

-----------------------

PERFORMER: auCDtect Task Manager, ver. 1.6.0 RC1 build 1.6.0.1
Copyright (c) 2008-2010 y-soft. All rights reserved
http://y-soft.org

ANALYZER: auCDtect: CD records authenticity detector, version 0.8.2
Copyright (c) 2004 Oleg Berngardt. All rights reserved.
Copyright (c) 2004 Alexander Djourik. All rights reserved.

FILE: 20. Rock'n'roll это я.m4a
  Size: 26477910 Hash: 18119183DEF714833CF68CB3FC770770 Accuracy: -m0
  Conclusion: CDDA 100%
  Signature: F5D1A53AC11FDA246121B1E7767D0D3579234063
FILE: 19. Пиво.m4a
  Size: 15486344 Hash: 572D9B28893AC1610DEA3FB95E330DF8 Accuracy: -m0
  Conclusion: CDDA 100%
  Signature: DB6282630198468AFA29B10F2C0C1F24EB5F974C
FILE: 18. Любовь пришла.m4a
  Size: 18955204 Hash: 32B60401288A15D32CE445112FC8873B Accuracy: -m0
  Conclusion: CDDA 100%
  Signature: 8F602CA51A464FBACFB4537042945336B1CA7EE9
FILE: 17. Кто-то хитрый.m4a
  Size: 16340915 Hash: EC6B737623278765159E1DF083C19543 Accuracy: -m0
  Conclusion: CDDA 100%
  Signature: 665517248B231A8196C80348D8A35BC47B0B72D5
FILE: 16. Сальто назад.m4a
  Size: 32231476 Hash: B4E022290D28E7B7F19A34A6BDF2EF98 Accuracy: -m0
  Conclusion: CDDA 100%
  Signature: 4EB2227232BB7033CDF775C0C4DE3E16490BEA47
FILE: 15. За полшага.m4a
  Size: 28638267 Hash: DEA4B88353F7DCBACE30A5B79733FBDA Accuracy: -m0
  Conclusion: CDDA 100%
  Signature: 1F23A8532BE9D078373D8CFC8CDEAFAEF9CE7915
FILE: 14. Кончается век.m4a
  Size: 37125520 Hash: 1C4B9AA5FCF482CEF6EA24345BC63AFF Accuracy: -m0
  Conclusion: CDDA 100%
  Signature: 92BB2B5A83DC5A28D301CFC16E41EB5B69D8F0BA
FILE: 13. Белая ворона.m4a
  Size: 22318601 Hash: AB0BD578E5DBAC6A79DDE0B46FC60A65 Accuracy: -m0
  Conclusion: CDDA 100%
  Signature: F85776FC34122F9BCC40E9AB56B2C4105EC942EA
FILE: 12. Камнепад.m4a
  Size: 26266014 Hash: B57AC9048F63169103696602188AA006 Accuracy: -m0
  Conclusion: CDDA 100%
  Signature: 09C0CD9ABD34F4801DDCDAFE405DDC6E22E88F30
FILE: 11. В её глазах.m4a
  Size: 32574815 Hash: 063EC088BDBEBEA77DE432E8D5BE3031 Accuracy: -m0
  Conclusion: CDDA 100%
  Signature: 664C19BFEB0035853C758F55F36C82FDBC12E124
FILE: 10. Я тебя не нашёл (Уже).m4a
  Size: 25699032 Hash: C2A7114BDE86474208BA779FE8EA12D0 Accuracy: -m0
  Conclusion: CDDA 100%
  Signature: D49691DDCFF18334B4539A71641E8B556D442B44
FILE: 09. Поплачь о нём.m4a
  Size: 44918572 Hash: 07AB1ABF28C3BCDA707BFD07D0799C23 Accuracy: -m0
  Conclusion: CDDA 100%
  Signature: A4BEA1D2C92EA8C7BE74DAF09E499BE4B4643947
FILE: 08. Не со мной.m4a
  Size: 36018932 Hash: 04AEB73DB72639630E61F5AA1DC3A3B7 Accuracy: -m0
  Conclusion: CDDA 100%
  Signature: A08E025E1A7C153407A717FB59468AA645DAF99A
FILE: 07. Не спеши.m4a
  Size: 29190003 Hash: 748CC1B2B9214C1F4E83166B663DA2FF Accuracy: -m0
  Conclusion: CDDA 100%
  Signature: 7D6F89B4DCDAB8745F74B8512576EB4001AA4207
FILE: 06. Никто не услышит (Ой-йо).m4a
  Size: 29849321 Hash: 696A502E4D2266F2523C61DD75318290 Accuracy: -m0
  Conclusion: CDDA 100%
  Signature: 25F120D2430A37DBC1FECA0E658A1B08CEEC0C79
FILE: 05. Аргентина-Ямайка 5_0.m4a
  Size: 24111220 Hash: CC4486C958C3A546DA3DA8FC811AA55F Accuracy: -m0
  Conclusion: CDDA 100%
  Signature: 599FE270DE69166A88950DB806F65AD3EA520BE0
FILE: 04. Не доводи до предела.m4a
  Size: 29471363 Hash: E7C69E903C62BD9D487D80EECA34F6AD Accuracy: -m0
  Conclusion: CDDA 100%
  Signature: 7E430759E88AAB4C1167267F6ED9043FD6846DC2
FILE: 03. 17 лет.m4a
  Size: 32091377 Hash: 0C9FF8B40222084E62DBAD2685ED65F4 Accuracy: -m0
  Conclusion: CDDA 100%
  Signature: 7332F0EEB8DCC56F04F04BAC36581A150CB4F448
FILE: 02. Не дай мне повод.m4a
  Size: 25870556 Hash: 2285FD89588F0C599087FECBC90C4367 Accuracy: -m0
  Conclusion: CDDA 99%
  Signature: AB2344B7AC82A34B36D241BFF841ACD5003515D5
FILE: 01. Рок-н-ролл этой ночи.m4a
  Size: 28027968 Hash: 8E603BCF82F6463AEC6D6B274DBE813B Accuracy: -m0
  Conclusion: CDDA 100%
  Signature: 810AC71330526260DC77E649C9D8AF9C848DAF8C
Продолжитeльность: 01:19:50
Треклист:
01. Оранжевое настроение
02. Мы делаем шаг
03. Внеплановый концерт
04. Правильный мальчик
05. Давай вернемся
06. Но это так
07. Вчера была любовь
08. Она
09. От себя
10. Родная, не плачь
11. Зажги огонь в моих глазах
12. В ночь по новым адресам
13. Ангел
14. Легенда о былых мужьях
15. Не говори никому
16. Мама, она больше не может...
17. За годом год
18. Прощай, детка (Детка, прощай)
Код:

Exact Audio Copy V1.0 beta 3 from 29. August 2011

Отчёт EAC об извлечении, выполненном 9. сентября 2013, 7:28

Чайф / Лучшее

Дисковод: HL-DT-STCD-ROM GCR-8520B   Adapter: 1  ID: 0

Режим чтения                 : Достоверность
Использование точного потока : Да
Отключение кэша аудио        : Да
Использование указателей C2  : Нет

Коррекция смещения при чтении                     : -491
Способность читать области Lead-in и Lead-out     : Нет
Заполнение пропущенных сэмплов тишиной            : Да
Удаление блоков с тишиной в начале и конце        : Нет
При вычислениях CRC использовались нулевые сэмплы : Да
Интерфейс                                         : Встроенный Win32-интерфейс для Win NT/2000

Выходной формат          : Пользовательский кодировщик
Выбранный битрейт        : 1024 kBit/s
Качество                 : Высокий
Добавление ID3-тега      : Нет
Утилита сжатия           : C:\Program Files (x86)\Exact Audio Copy\Flac\flac.exe
Дополнительные параметры : -8 -V %source%

TOC извлечённого CD

     Трек |   Старт  | Длительность | Начальный сектор | Конечный сектор
    ---------------------------------------------------------------------
       1  |  0:00.00 |    3:53.10   |           0      |      17484
       2  |  3:53.10 |    4:33.45   |       17485      |      38004
       3  |  8:26.55 |    5:20.36   |       38005      |      62040
       4  | 13:47.16 |    4:06.11   |       62041      |      80501
       5  | 17:53.27 |    5:26.42   |       80502      |     104993
       6  | 23:19.69 |    5:45.06   |      104994      |     130874
       7  | 29:05.00 |    4:04.34   |      130875      |     149208
       8  | 33:09.34 |    3:31.42   |      149209      |     165075
       9  | 36:41.01 |    4:58.13   |      165076      |     187438
      10  | 41:39.14 |    4:15.74   |      187439      |     206637
      11  | 45:55.13 |    4:20.37   |      206638      |     226174
      12  | 50:15.50 |    4:26.38   |      226175      |     246162
      13  | 54:42.13 |    3:45.57   |      246163      |     263094
      14  | 58:27.70 |    3:24.61   |      263095      |     278455
      15  | 61:52.56 |    5:08.12   |      278456      |     301567
      16  | 67:00.68 |    5:56.44   |      301568      |     328311
      17  | 72:57.37 |    3:25.27   |      328312      |     343713
      18  | 76:22.64 |    3:27.72   |      343714      |     359310

Характеристики диапазона извлечения и сообщения об ошибках

Выбранный диапазон

     Имя файла C:\Users\Гордей\Music\Чайф\2009 - Лучшее (2CD Топ Саунд 23222-1-2, Flac)\CD2\Лучшее.wav

     Пиковый уровень 98.1 %
     Скорость извлечения 4.1 X
     Качество диапазона 100.0 %
     CRC теста B2B0089B
     CRC копии B2B0089B
     Копирование... OK

Ошибок не произошло

AccurateRip: сводка

Трек  1  отсутствует в базе данных
Трек  2  отсутствует в базе данных
Трек  3  отсутствует в базе данных
Трек  4  отсутствует в базе данных
Трек  5  отсутствует в базе данных
Трек  6  отсутствует в базе данных
Трек  7  отсутствует в базе данных
Трек  8  отсутствует в базе данных
Трек  9  отсутствует в базе данных
Трек 10  отсутствует в базе данных
Трек 11  отсутствует в базе данных
Трек 12  отсутствует в базе данных
Трек 13  отсутствует в базе данных
Трек 14  отсутствует в базе данных
Трек 15  отсутствует в базе данных
Трек 16  отсутствует в базе данных
Трек 17  отсутствует в базе данных
Трек 18  отсутствует в базе данных

Ни одного трека нет в базе AccurateRip

Конец отчёта

---- CUETools DB Plugin V2.1.3

[CTDB TOCID: 7GWu99s9TQjV34gJCiKgW_BevRk-] found, Submit result: 7GWu99s9TQjV34gJCiKgW_BevRk- has been confirmed
[83fd1bf4] (1/1) Accurately ripped

Код:

-----------------------

DON'T MODIFY THIS FILE

-----------------------

PERFORMER: auCDtect Task Manager, ver. 1.6.0 RC1 build 1.6.0.1
Copyright (c) 2008-2010 y-soft. All rights reserved
http://y-soft.org

ANALYZER: auCDtect: CD records authenticity detector, version 0.8.2
Copyright (c) 2004 Oleg Berngardt. All rights reserved.
Copyright (c) 2004 Alexander Djourik. All rights reserved.

FILE: 18. Прощай, детка (Детка, прощай).m4a
  Size: 25274309 Hash: 15BF7B09F953009F907A5092D532ECEB Accuracy: -m0
  Conclusion: CDDA 100%
  Signature: 2E4B858817733E4010FC24E3CB1DA79803CE4639
FILE: 17. За годом год.m4a
  Size: 22979402 Hash: D7FAE1ECD653353A89D92D0E36749671 Accuracy: -m0
  Conclusion: CDDA 100%
  Signature: CC5D7C12798F5216D7DD7AEB672BD2F241535961
FILE: 16. Мама, она больше не может....m4a
  Size: 42145120 Hash: A29E4E78C79E470F4F3412FC6C984CD2 Accuracy: -m0
  Conclusion: CDDA 100%
  Signature: 9AD81B85BB50CF146793FA6AE39F16B3518BF530
FILE: 15. Не говори никому.m4a
  Size: 36472706 Hash: 189DC951A496E54455575135B7BF42F4 Accuracy: -m0
  Conclusion: CDDA 100%
  Signature: D1B2027C4CCF210453F5671B31413D5C3430AF26
FILE: 14. Легенда о былых мужьях.m4a
  Size: 24368536 Hash: FF87A23B8DAD002F6575CD5E11EAAB05 Accuracy: -m0
  Conclusion: CDDA 100%
  Signature: 6F5E1FDB009885BD473CB7634DB9E46042442A80
FILE: 13. Ангел.m4a
  Size: 27930476 Hash: FDC4F32A06D3650E9A194900855E1043 Accuracy: -m0
  Conclusion: CDDA 100%
  Signature: 66BED7554352F0E52E62D8B457B6A284081C5415
FILE: 12. В ночь по новым адресам.m4a
  Size: 27980943 Hash: AA5E4E3597055B990858E29A4C6D1C04 Accuracy: -m0
  Conclusion: CDDA 100%
  Signature: B3DEADE234C29B964ABD7094CE6AEB07486C8C3F
FILE: 11. Зажги огонь в моих глазах.m4a
  Size: 30471493 Hash: F73049BCA611EC542466F7EB20D3A412 Accuracy: -m0
  Conclusion: CDDA 100%
  Signature: 9CEA69239E3BA9C75F7A9DC40645B92E31DAFB44
FILE: 10. Родная, не плачь.m4a
  Size: 30632827 Hash: 38E431DD83288AC9B268ACB460100F9B Accuracy: -m0
  Conclusion: CDDA 100%
  Signature: C4E2DFC7477970CB3CF7E2D9D9FB8D2A8AA77B9D
FILE: 09. От себя.m4a
  Size: 34886336 Hash: 0DADA83C869A8581DB93B8B4C966D3ED Accuracy: -m0
  Conclusion: CDDA 100%
  Signature: 67A8101919FFD02818DFB55EB443C85D91970BED
FILE: 08. Она.m4a
  Size: 26743915 Hash: 4AA295352738B0C46D09A4AAC111AA15 Accuracy: -m0
  Conclusion: CDDA 100%
  Signature: 24772266BA98D68BA25133A2636963C81150007A
FILE: 07. Вчера была любовь.m4a
  Size: 26467149 Hash: 02C489CDBC03769FBDC2EF29D38434C9 Accuracy: -m0
  Conclusion: CDDA 100%
  Signature: 59FFA1A8D8639BB8E07E10C33FB4B51B94FFA9D9
FILE: 06. Но это так.m4a
  Size: 39666429 Hash: 920467F05818D62494D0EDC4A6813520 Accuracy: -m0
  Conclusion: CDDA 100%
  Signature: C13E7B91A260F1D435A3BD1A4D883297F89856D3
FILE: 05. Давай вернёмся.m4a
  Size: 39665345 Hash: DB39598B94121BC18A5AB383BBFC2611 Accuracy: -m0
  Conclusion: CDDA 100%
  Signature: CF5773F1191BD30DAAABC6F011035AF14772DC9D
FILE: 04. Правильный мальчик.m4a
  Size: 29295370 Hash: 70E71E279ED9E0FF3F6825B5BBBF3530 Accuracy: -m0
  Conclusion: CDDA 100%
  Signature: 29498D375E1015734A55B8975D72805308995942
FILE: 03. Внеплановый концерт.m4a
  Size: 37299588 Hash: BB6496F35550BF47727375995F0EDE88 Accuracy: -m0
  Conclusion: CDDA 100%
  Signature: 149C324266742F83C666DA0AD857F240F8C74D9A
FILE: 02. Мы делаем шаг.m4a
  Size: 32004500 Hash: 2B440B19CFE80EBD4CB740D4449D00DC Accuracy: -m0
  Conclusion: CDDA 100%
  Signature: 5B6028F1A3A39416C69D1B4D4A19A8272C6692EB
FILE: 01. Оранжевое настроение.m4a
  Size: 25434524 Hash: F919E5860E3420E28415DA3CD2723D19 Accuracy: -m0
  Conclusion: CDDA 100%
  Signature: 552430527937DDEE1F5E901B9DFEF5A77565A7FE

Код:

Общее
Полное имя                               : C:\2009 - Лучшее (Топ Саунд, 23222-1-2, 2009) 2CD\CD1\01. Рок-н-ролл этой ночи.m4a
Формат                                   : MPEG-4
Профиль формата                          : Apple audio with iTunes info
Идентификатор кодека                     : M4A
Размер файла                             : 26,7 Мбайт
Продолжительность                        : 3 м. 45 с.
Режим общего битрейта                    : Переменный
Общий поток                              : 996 Кбит/сек
Альбом                                   : Лучшее
Альбом/Исполнитель                       : ЧайФ
Часть/Положение                          : 1
Часть/Всего                              : 2
Трек                                     : Рок-н-ролл этой ночи
Трек/Положение                           : 1
Трек/Всего                               : 20
Исполнитель                              : ЧайФ
Жанр                                     : Rock
Дата записи                              : 2009
Дата кодирования                         : UTC 2014-02-18 14:07:03
Дата пометки                             : UTC 2014-02-18 14:07:03
Программа кодирования                    : CUETools 2.1.4
Обложка                                  : Yes

Аудио
Идентификатор                            : 1
Формат                                   : ALAC
Идентификатор кодека                     : alac
Идентификатор кодека/Информация          : Apple Lossless Audio Codec
Продолжительность                        : 3 м. 45 с.
Duration_LastFrame                       : -34 мс.
Вид битрейта                             : Переменный
Битрейт                                  : 993 Кбит/сек
Каналы                                   : 2 канала
Частота                                  : 44,1 КГц
Битовая глубина                          : 16 бит
Размер потока                            : 26,6 Мбайт (100%)
Дата кодирования                         : UTC 2014-02-18 14:07:03
Дата пометки                             : UTC 2014-02-18 14:07:03

Общее
Полное имя                               : C:\2009 - Лучшее (Топ Саунд, 23222-1-2, 2009) 2CD\CD1\02. Не дай мне повод.m4a
Формат                                   : MPEG-4
Профиль формата                          : Apple audio with iTunes info
Идентификатор кодека                     : M4A
Размер файла                             : 24,7 Мбайт
Продолжительность                        : 3 м. 28 с.
Режим общего битрейта                    : Переменный
Общий поток                              : 991 Кбит/сек
Альбом                                   : Лучшее
Альбом/Исполнитель                       : ЧайФ
Часть/Положение                          : 1
Часть/Всего                              : 2
Трек                                     : Не дай мне повод
Трек/Положение                           : 2
Трек/Всего                               : 20
Исполнитель                              : ЧайФ
Жанр                                     : Rock
Дата записи                              : 2009
Дата кодирования                         : UTC 2014-02-18 14:07:07
Дата пометки                             : UTC 2014-02-18 14:07:07
Программа кодирования                    : CUETools 2.1.4
Обложка                                  : Yes

Аудио
Идентификатор                            : 1
Формат                                   : ALAC
Идентификатор кодека                     : alac
Идентификатор кодека/Информация          : Apple Lossless Audio Codec
Продолжительность                        : 3 м. 28 с.
Duration_LastFrame                       : -47 мс.
Вид битрейта                             : Переменный
Битрейт                                  : 988 Кбит/сек
Каналы                                   : 2 канала
Частота                                  : 44,1 КГц
Битовая глубина                          : 16 бит
Размер потока                            : 24,6 Мбайт (100%)
Дата кодирования                         : UTC 2014-02-18 14:07:07
Дата пометки                             : UTC 2014-02-18 14:07:07

Общее
Полное имя                               : C:\2009 - Лучшее (Топ Саунд, 23222-1-2, 2009) 2CD\CD1\03. 17 лет.m4a
Формат                                   : MPEG-4
Профиль формата                          : Apple audio with iTunes info
Идентификатор кодека                     : M4A
Размер файла                             : 30,6 Мбайт
Продолжительность                        : 4 м. 30 с.
Режим общего битрейта                    : Переменный
Общий поток                              : 950 Кбит/сек
Альбом                                   : Лучшее
Альбом/Исполнитель                       : ЧайФ
Часть/Положение                          : 1
Часть/Всего                              : 2
Трек                                     : 17 лет
Трек/Положение                           : 3
Трек/Всего                               : 20
Исполнитель                              : ЧайФ
Жанр                                     : Rock
Дата записи                              : 2009
Дата кодирования                         : UTC 2014-02-18 14:07:13
Дата пометки                             : UTC 2014-02-18 14:07:13
Программа кодирования                    : CUETools 2.1.4
Обложка                                  : Yes

Аудио
Идентификатор                            : 1
Формат                                   : ALAC
Идентификатор кодека                     : alac
Идентификатор кодека/Информация          : Apple Lossless Audio Codec
Продолжительность                        : 4 м. 30 с.
Duration_LastFrame                       : -67 мс.
Вид битрейта                             : Переменный
Битрейт                                  : 947 Кбит/сек
Каналы                                   : 2 канала
Частота                                  : 44,1 КГц
Битовая глубина                          : 16 бит
Размер потока                            : 30,5 Мбайт (100%)
Дата кодирования                         : UTC 2014-02-18 14:07:13
Дата пометки                             : UTC 2014-02-18 14:07:13

Общее
Полное имя                               : C:\2009 - Лучшее (Топ Саунд, 23222-1-2, 2009) 2CD\CD1\04. Не доводи до предела.m4a
Формат                                   : MPEG-4
Профиль формата                          : Apple audio with iTunes info
Идентификатор кодека                     : M4A
Размер файла                             : 28,1 Мбайт
Продолжительность                        : 3 м. 59 с.
Режим общего битрейта                    : Переменный
Общий поток                              : 983 Кбит/сек
Альбом                                   : Лучшее
Альбом/Исполнитель                       : ЧайФ
Часть/Положение                          : 1
Часть/Всего                              : 2
Трек                                     : Не доводи до предела
Трек/Положение                           : 4
Трек/Всего                               : 20
Исполнитель                              : ЧайФ
Жанр                                     : Rock
Дата записи                              : 2009
Дата кодирования                         : UTC 2014-02-18 14:07:17
Дата пометки                             : UTC 2014-02-18 14:07:17
Программа кодирования                    : CUETools 2.1.4
Обложка                                  : Yes

Аудио
Идентификатор                            : 1
Формат                                   : ALAC
Идентификатор кодека                     : alac
Идентификатор кодека/Информация          : Apple Lossless Audio Codec
Продолжительность                        : 3 м. 59 с.
Duration_LastFrame                       : -2 мс.
Вид битрейта                             : Переменный
Битрейт                                  : 980 Кбит/сек
Каналы                                   : 2 канала
Частота                                  : 44,1 КГц
Битовая глубина                          : 16 бит
Размер потока                            : 28,0 Мбайт (100%)
Дата кодирования                         : UTC 2014-02-18 14:07:17
Дата пометки                             : UTC 2014-02-18 14:07:17

Общее
Полное имя                               : C:\2009 - Лучшее (Топ Саунд, 23222-1-2, 2009) 2CD\CD1\05. Аргентина-Ямайка 5_0.m4a
Формат                                   : MPEG-4
Профиль формата                          : Apple audio with iTunes info
Идентификатор кодека                     : M4A
Размер файла                             : 23,0 Мбайт
Продолжительность                        : 3 м. 19 с.
Режим общего битрейта                    : Переменный
Общий поток                              : 969 Кбит/сек
Альбом                                   : Лучшее
Альбом/Исполнитель                       : ЧайФ
Часть/Положение                          : 1
Часть/Всего                              : 2
Трек                                     : Аргентина-Ямайка 5:0
Трек/Положение                           : 5
Трек/Всего                               : 20
Исполнитель                              : ЧайФ
Жанр                                     : Rock
Дата записи                              : 2009
Дата кодирования                         : UTC 2014-02-18 14:07:21
Дата пометки                             : UTC 2014-02-18 14:07:21
Программа кодирования                    : CUETools 2.1.4
Обложка                                  : Yes

Аудио
Идентификатор                            : 1
Формат                                   : ALAC
Идентификатор кодека                     : alac
Идентификатор кодека/Информация          : Apple Lossless Audio Codec
Продолжительность                        : 3 м. 19 с.
Duration_LastFrame                       : -28 мс.
Вид битрейта                             : Переменный
Битрейт                                  : 965 Кбит/сек
Каналы                                   : 2 канала
Частота                                  : 44,1 КГц
Битовая глубина                          : 16 бит
Размер потока                            : 22,9 Мбайт (100%)
Дата кодирования                         : UTC 2014-02-18 14:07:21
Дата пометки                             : UTC 2014-02-18 14:07:21

Общее
Полное имя                               : C:\2009 - Лучшее (Топ Саунд, 23222-1-2, 2009) 2CD\CD1\06. Никто не услышит (Ой-йо).m4a
Формат                                   : MPEG-4
Профиль формата                          : Apple audio with iTunes info
Идентификатор кодека                     : M4A
Размер файла                             : 28,5 Мбайт
Продолжительность                        : 4 м. 25 с.
Режим общего битрейта                    : Переменный
Общий поток                              : 898 Кбит/сек
Альбом                                   : Лучшее
Альбом/Исполнитель                       : ЧайФ
Часть/Положение                          : 1
Часть/Всего                              : 2
Трек                                     : Никто не услышит (Ой-йо)
Трек/Положение                           : 6
Трек/Всего                               : 20
Исполнитель                              : ЧайФ
Жанр                                     : Rock
Дата записи                              : 2009
Дата кодирования                         : UTC 2014-02-18 14:07:27
Дата пометки                             : UTC 2014-02-18 14:07:27
Программа кодирования                    : CUETools 2.1.4
Обложка                                  : Yes

Аудио
Идентификатор                            : 1
Формат                                   : ALAC
Идентификатор кодека                     : alac
Идентификатор кодека/Информация          : Apple Lossless Audio Codec
Продолжительность                        : 4 м. 25 с.
Duration_LastFrame                       : -22 мс.
Вид битрейта                             : Переменный
Битрейт                                  : 895 Кбит/сек
Каналы                                   : 2 канала
Частота                                  : 44,1 КГц
Битовая глубина                          : 16 бит
Размер потока                            : 28,4 Мбайт (100%)
Дата кодирования                         : UTC 2014-02-18 14:07:27
Дата пометки                             : UTC 2014-02-18 14:07:27

Общее
Полное имя                               : C:\2009 - Лучшее (Топ Саунд, 23222-1-2, 2009) 2CD\CD1\07. Не спеши.m4a
Формат                                   : MPEG-4
Профиль формата                          : Apple audio with iTunes info
Идентификатор кодека                     : M4A
Размер файла                             : 27,8 Мбайт
Продолжительность                        : 3 м. 54 с.
Режим общего битрейта                    : Переменный
Общий поток                              : 997 Кбит/сек
Альбом                                   : Лучшее
Альбом/Исполнитель                       : ЧайФ
Часть/Положение                          : 1
Часть/Всего                              : 2
Трек                                     : Не спеши
Трек/Положение                           : 7
Трек/Всего                               : 20
Исполнитель                              : ЧайФ
Жанр                                     : Rock
Дата записи                              : 2009
Дата кодирования                         : UTC 2014-02-18 14:07:33
Дата пометки                             : UTC 2014-02-18 14:07:33
Программа кодирования                    : CUETools 2.1.4
Обложка                                  : Yes

Аудио
Идентификатор                            : 1
Формат                                   : ALAC
Идентификатор кодека                     : alac
Идентификатор кодека/Информация          : Apple Lossless Audio Codec
Продолжительность                        : 3 м. 54 с.
Duration_LastFrame                       : -17 мс.
Вид битрейта                             : Переменный
Битрейт                                  : 994 Кбит/сек
Каналы                                   : 2 канала
Частота                                  : 44,1 КГц
Битовая глубина                          : 16 бит
Размер потока                            : 27,8 Мбайт (100%)
Дата кодирования                         : UTC 2014-02-18 14:07:33
Дата пометки                             : UTC 2014-02-18 14:07:33

Общее
Полное имя                               : C:\2009 - Лучшее (Топ Саунд, 23222-1-2, 2009) 2CD\CD1\08. Не со мной.m4a
Формат                                   : MPEG-4
Профиль формата                          : Apple audio with iTunes info
Идентификатор кодека                     : M4A
Размер файла                             : 34,4 Мбайт
Продолжительность                        : 4 м. 56 с.
Режим общего битрейта                    : Переменный
Общий поток                              : 971 Кбит/сек
Альбом                                   : Лучшее
Альбом/Исполнитель                       : ЧайФ
Часть/Положение                          : 1
Часть/Всего                              : 2
Трек                                     : Не со мной
Трек/Положение                           : 8
Трек/Всего                               : 20
Исполнитель                              : ЧайФ
Жанр                                     : Rock
Дата записи                              : 2009
Дата кодирования                         : UTC 2014-02-18 14:07:41
Дата пометки                             : UTC 2014-02-18 14:07:41
Программа кодирования                    : CUETools 2.1.4
Обложка                                  : Yes

Аудио
Идентификатор                            : 1
Формат                                   : ALAC
Идентификатор кодека                     : alac
Идентификатор кодека/Информация          : Apple Lossless Audio Codec
Продолжительность                        : 4 м. 56 с.
Duration_LastFrame                       : -31 мс.
Вид битрейта                             : Переменный
Битрейт                                  : 969 Кбит/сек
Каналы                                   : 2 канала
Частота                                  : 44,1 КГц
Битовая глубина                          : 16 бит
Размер потока                            : 34,3 Мбайт (100%)
Дата кодирования                         : UTC 2014-02-18 14:07:41
Дата пометки                             : UTC 2014-02-18 14:07:41

Общее
Полное имя                               : C:\2009 - Лучшее (Топ Саунд, 23222-1-2, 2009) 2CD\CD1\09. Поплачь о нём.m4a
Формат                                   : MPEG-4
Профиль формата                          : Apple audio with iTunes info
Идентификатор кодека                     : M4A
Размер файла                             : 42,8 Мбайт
Продолжительность                        : 6 м. 18 с.
Режим общего битрейта                    : Переменный
Общий поток                              : 949 Кбит/сек
Альбом                                   : Лучшее
Альбом/Исполнитель                       : ЧайФ
Часть/Положение                          : 1
Часть/Всего                              : 2
Трек                                     : Поплачь о нём
Трек/Положение                           : 9
Трек/Всего                               : 20
Исполнитель                              : ЧайФ
Жанр                                     : Rock
Дата записи                              : 2009
Дата кодирования                         : UTC 2014-02-18 14:07:48
Дата пометки                             : UTC 2014-02-18 14:07:48
Программа кодирования                    : CUETools 2.1.4
Обложка                                  : Yes

Аудио
Идентификатор                            : 1
Формат                                   : ALAC
Идентификатор кодека                     : alac
Идентификатор кодека/Информация          : Apple Lossless Audio Codec
Продолжительность                        : 6 м. 18 с.
Duration_LastFrame                       : -44 мс.
Вид битрейта                             : Переменный
Битрейт                                  : 947 Кбит/сек
Каналы                                   : 2 канала
Частота                                  : 44,1 КГц
Битовая глубина                          : 16 бит
Размер потока                            : 42,7 Мбайт (100%)
Дата кодирования                         : UTC 2014-02-18 14:07:48
Дата пометки                             : UTC 2014-02-18 14:07:48

Общее
Полное имя                               : C:\2009 - Лучшее (Топ Саунд, 23222-1-2, 2009) 2CD\CD1\10. Я тебя не нашёл (Уже).m4a
Формат                                   : MPEG-4
Профиль формата                          : Apple audio with iTunes info
Идентификатор кодека                     : M4A
Размер файла                             : 24,5 Мбайт
Продолжительность                        : 3 м. 34 с.
Режим общего битрейта                    : Переменный
Общий поток                              : 959 Кбит/сек
Альбом                                   : Лучшее
Альбом/Исполнитель                       : ЧайФ
Часть/Положение                          : 1
Часть/Всего                              : 2
Трек                                     : Я тебя не нашёл (Уже)
Трек/Положение                           : 10
Трек/Всего                               : 20
Исполнитель                              : ЧайФ
Жанр                                     : Rock
Дата записи                              : 2009
Дата кодирования                         : UTC 2014-02-18 14:07:52
Дата пометки                             : UTC 2014-02-18 14:07:52
Программа кодирования                    : CUETools 2.1.4
Обложка                                  : Yes

Аудио
Идентификатор                            : 1
Формат                                   : ALAC
Идентификатор кодека                     : alac
Идентификатор кодека/Информация          : Apple Lossless Audio Codec
Продолжительность                        : 3 м. 34 с.
Duration_LastFrame                       : -59 мс.
Вид битрейта                             : Переменный
Битрейт                                  : 955 Кбит/сек
Каналы                                   : 2 канала
Частота                                  : 44,1 КГц
Битовая глубина                          : 16 бит
Размер потока                            : 24,4 Мбайт (100%)
Дата кодирования                         : UTC 2014-02-18 14:07:52
Дата пометки                             : UTC 2014-02-18 14:07:52

Общее
Полное имя                               : C:\2009 - Лучшее (Топ Саунд, 23222-1-2, 2009) 2CD\CD1\11. В её глазах.m4a
Формат                                   : MPEG-4
Профиль формата                          : Apple audio with iTunes info
Идентификатор кодека                     : M4A
Размер файла                             : 31,1 Мбайт
Продолжительность                        : 4 м. 26 с.
Режим общего битрейта                    : Переменный
Общий поток                              : 979 Кбит/сек
Альбом                                   : Лучшее
Альбом/Исполнитель                       : ЧайФ
Часть/Положение                          : 1
Часть/Всего                              : 2
Трек                                     : В её глазах
Трек/Положение                           : 11
Трек/Всего                               : 20
Исполнитель                              : ЧайФ
Жанр                                     : Rock
Дата записи                              : 2009
Дата кодирования                         : UTC 2014-02-18 14:07:58
Дата пометки                             : UTC 2014-02-18 14:07:58
Программа кодирования                    : CUETools 2.1.4
Обложка                                  : Yes

Аудио
Идентификатор                            : 1
Формат                                   : ALAC
Идентификатор кодека                     : alac
Идентификатор кодека/Информация          : Apple Lossless Audio Codec
Продолжительность                        : 4 м. 26 с.
Duration_LastFrame                       : -7 мс.
Вид битрейта                             : Переменный
Битрейт                                  : 976 Кбит/сек
Каналы                                   : 2 канала
Частота                                  : 44,1 КГц
Битовая глубина                          : 16 бит
Размер потока                            : 31,0 Мбайт (100%)
Дата кодирования                         : UTC 2014-02-18 14:07:58
Дата пометки                             : UTC 2014-02-18 14:07:58

Общее
Полное имя                               : C:\2009 - Лучшее (Топ Саунд, 23222-1-2, 2009) 2CD\CD1\12. Камнепад.m4a
Формат                                   : MPEG-4
Профиль формата                          : Apple audio with iTunes info
Идентификатор кодека                     : M4A
Размер файла                             : 25,0 Мбайт
Продолжительность                        : 3 м. 54 с.
Режим общего битрейта                    : Переменный
Общий поток                              : 897 Кбит/сек
Альбом                                   : Лучшее
Альбом/Исполнитель                       : ЧайФ
Часть/Положение                          : 1
Часть/Всего                              : 2
Трек                                     : Камнепад
Трек/Положение                           : 12
Трек/Всего                               : 20
Исполнитель                              : ЧайФ
Жанр                                     : Rock
Дата записи                              : 2009
Дата кодирования                         : UTC 2014-02-18 14:08:02
Дата пометки                             : UTC 2014-02-18 14:08:02
Программа кодирования                    : CUETools 2.1.4
Обложка                                  : Yes

Аудио
Идентификатор                            : 1
Формат                                   : ALAC
Идентификатор кодека                     : alac
Идентификатор кодека/Информация          : Apple Lossless Audio Codec
Продолжительность                        : 3 м. 54 с.
Duration_LastFrame                       : -69 мс.
Вид битрейта                             : Переменный
Битрейт                                  : 894 Кбит/сек
Каналы                                   : 2 канала
Частота                                  : 44,1 КГц
Битовая глубина                          : 16 бит
Размер потока                            : 25,0 Мбайт (100%)
Дата кодирования                         : UTC 2014-02-18 14:08:02
Дата пометки                             : UTC 2014-02-18 14:08:02

Общее
Полное имя                               : C:\2009 - Лучшее (Топ Саунд, 23222-1-2, 2009) 2CD\CD1\13. Белая ворона.m4a
Формат                                   : MPEG-4
Профиль формата                          : Apple audio with iTunes info
Идентификатор кодека                     : M4A
Размер файла                             : 21,3 Мбайт
Продолжительность                        : 3 м. 3 с.
Режим общего битрейта                    : Переменный
Общий поток                              : 973 Кбит/сек
Альбом                                   : Лучшее
Альбом/Исполнитель                       : ЧайФ
Часть/Положение                          : 1
Часть/Всего                              : 2
Трек                                     : Белая ворона
Трек/Положение                           : 13
Трек/Всего                               : 20
Исполнитель                              : ЧайФ
Жанр                                     : Rock
Дата записи                              : 2009
Дата кодирования                         : UTC 2014-02-18 14:08:06
Дата пометки                             : UTC 2014-02-18 14:08:06
Программа кодирования                    : CUETools 2.1.4
Обложка                                  : Yes

Аудио
Идентификатор                            : 1
Формат                                   : ALAC
Идентификатор кодека                     : alac
Идентификатор кодека/Информация          : Apple Lossless Audio Codec
Продолжительность                        : 3 м. 3 с.
Duration_LastFrame                       : -90 мс.
Вид битрейта                             : Переменный
Битрейт                                  : 969 Кбит/сек
Каналы                                   : 2 канала
Частота                                  : 44,1 КГц
Битовая глубина                          : 16 бит
Размер потока                            : 21,2 Мбайт (100%)
Дата кодирования                         : UTC 2014-02-18 14:08:06
Дата пометки                             : UTC 2014-02-18 14:08:06

Общее
Полное имя                               : C:\2009 - Лучшее (Топ Саунд, 23222-1-2, 2009) 2CD\CD1\14. Кончается век.m4a
Формат                                   : MPEG-4
Профиль формата                          : Apple audio with iTunes info
Идентификатор кодека                     : M4A
Размер файла                             : 35,4 Мбайт
Продолжительность                        : 5 м. 3 с.
Режим общего битрейта                    : Переменный
Общий поток                              : 979 Кбит/сек
Альбом                                   : Лучшее
Альбом/Исполнитель                       : ЧайФ
Часть/Положение                          : 1
Часть/Всего                              : 2
Трек                                     : Кончается век
Трек/Положение                           : 14
Трек/Всего                               : 20
Исполнитель                              : ЧайФ
Жанр                                     : Rock
Дата записи                              : 2009
Дата кодирования                         : UTC 2014-02-18 14:08:11
Дата пометки                             : UTC 2014-02-18 14:08:11
Программа кодирования                    : CUETools 2.1.4
Обложка                                  : Yes

Аудио
Идентификатор                            : 1
Формат                                   : ALAC
Идентификатор кодека                     : alac
Идентификатор кодека/Информация          : Apple Lossless Audio Codec
Продолжительность                        : 5 м. 3 с.
Duration_LastFrame                       : -79 мс.
Вид битрейта                             : Переменный
Битрейт                                  : 977 Кбит/сек
Каналы                                   : 2 канала
Частота                                  : 44,1 КГц
Битовая глубина                          : 16 бит
Размер потока                            : 35,3 Мбайт (100%)
Дата кодирования                         : UTC 2014-02-18 14:08:11
Дата пометки                             : UTC 2014-02-18 14:08:11

Общее
Полное имя                               : C:\2009 - Лучшее (Топ Саунд, 23222-1-2, 2009) 2CD\CD1\15. За полшага.m4a
Формат                                   : MPEG-4
Профиль формата                          : Apple audio with iTunes info
Идентификатор кодека                     : M4A
Размер файла                             : 27,3 Мбайт
Продолжительность                        : 4 м. 9 с.
Режим общего битрейта                    : Переменный
Общий поток                              : 918 Кбит/сек
Альбом                                   : Лучшее
Альбом/Исполнитель                       : ЧайФ
Часть/Положение                          : 1
Часть/Всего                              : 2
Трек                                     : За полшага
Трек/Положение                           : 15
Трек/Всего                               : 20
Исполнитель                              : ЧайФ
Жанр                                     : Rock
Дата записи                              : 2009
Дата кодирования                         : UTC 2014-02-18 14:08:16
Дата пометки                             : UTC 2014-02-18 14:08:16
Программа кодирования                    : CUETools 2.1.4
Обложка                                  : Yes

Аудио
Идентификатор                            : 1
Формат                                   : ALAC
Идентификатор кодека                     : alac
Идентификатор кодека/Информация          : Apple Lossless Audio Codec
Продолжительность                        : 4 м. 9 с.
Duration_LastFrame                       : -8 мс.
Вид битрейта                             : Переменный
Битрейт                                  : 915 Кбит/сек
Каналы                                   : 2 канала
Частота                                  : 44,1 КГц
Битовая глубина                          : 16 бит
Размер потока                            : 27,2 Мбайт (100%)
Дата кодирования                         : UTC 2014-02-18 14:08:16
Дата пометки                             : UTC 2014-02-18 14:08:16

Общее
Полное имя                               : C:\2009 - Лучшее (Топ Саунд, 23222-1-2, 2009) 2CD\CD1\16. Сальто назад.m4a
Формат                                   : MPEG-4
Профиль формата                          : Apple audio with iTunes info
Идентификатор кодека                     : M4A
Размер файла                             : 30,7 Мбайт
Продолжительность                        : 4 м. 56 с.
Режим общего битрейта                    : Переменный
Общий поток                              : 869 Кбит/сек
Альбом                                   : Лучшее
Альбом/Исполнитель                       : ЧайФ
Часть/Положение                          : 1
Часть/Всего                              : 2
Трек                                     : Сальто назад
Трек/Положение                           : 16
Трек/Всего                               : 20
Исполнитель                              : ЧайФ
Жанр                                     : Rock
Дата записи                              : 2009
Дата кодирования                         : UTC 2014-02-18 14:08:21
Дата пометки                             : UTC 2014-02-18 14:08:21
Программа кодирования                    : CUETools 2.1.4
Обложка                                  : Yes

Аудио
Идентификатор                            : 1
Формат                                   : ALAC
Идентификатор кодека                     : alac
Идентификатор кодека/Информация          : Apple Lossless Audio Codec
Продолжительность                        : 4 м. 56 с.
Duration_LastFrame                       : -71 мс.
Вид битрейта                             : Переменный
Битрейт                                  : 867 Кбит/сек
Каналы                                   : 2 канала
Частота                                  : 44,1 КГц
Битовая глубина                          : 16 бит
Размер потока                            : 30,7 Мбайт (100%)
Дата кодирования                         : UTC 2014-02-18 14:08:21
Дата пометки                             : UTC 2014-02-18 14:08:21

Общее
Полное имя                               : C:\2009 - Лучшее (Топ Саунд, 23222-1-2, 2009) 2CD\CD1\17. Кто-то хитрый.m4a
Формат                                   : MPEG-4
Профиль формата                          : Apple audio with iTunes info
Идентификатор кодека                     : M4A
Размер файла                             : 15,6 Мбайт
Продолжительность                        : 2 м. 45 с.
Режим общего битрейта                    : Переменный
Общий поток                              : 791 Кбит/сек
Альбом                                   : Лучшее
Альбом/Исполнитель                       : ЧайФ
Часть/Положение                          : 1
Часть/Всего                              : 2
Трек                                     : Кто-то хитрый
Трек/Положение                           : 17
Трек/Всего                               : 20
Исполнитель                              : ЧайФ
Жанр                                     : Rock
Дата записи                              : 2009
Дата кодирования                         : UTC 2014-02-18 14:08:25
Дата пометки                             : UTC 2014-02-18 14:08:25
Программа кодирования                    : CUETools 2.1.4
Обложка                                  : Yes

Аудио
Идентификатор                            : 1
Формат                                   : ALAC
Идентификатор кодека                     : alac
Идентификатор кодека/Информация          : Apple Lossless Audio Codec
Продолжительность                        : 2 м. 45 с.
Duration_LastFrame                       : -86 мс.
Вид битрейта                             : Переменный
Битрейт                                  : 787 Кбит/сек
Каналы                                   : 2 канала
Частота                                  : 44,1 КГц
Битовая глубина                          : 16 бит
Размер потока                            : 15,5 Мбайт (99%)
Дата кодирования                         : UTC 2014-02-18 14:08:25
Дата пометки                             : UTC 2014-02-18 14:08:25

Общее
Полное имя                               : C:\2009 - Лучшее (Топ Саунд, 23222-1-2, 2009) 2CD\CD1\18. Любовь пришла.m4a
Формат                                   : MPEG-4
Профиль формата                          : Apple audio with iTunes info
Идентификатор кодека                     : M4A
Размер файла                             : 18,1 Мбайт
Продолжительность                        : 2 м. 46 с.
Режим общего битрейта                    : Переменный
Общий поток                              : 913 Кбит/сек
Альбом                                   : Лучшее
Альбом/Исполнитель                       : ЧайФ
Часть/Положение                          : 1
Часть/Всего                              : 2
Трек                                     : Любовь пришла
Трек/Положение                           : 18
Трек/Всего                               : 20
Исполнитель                              : ЧайФ
Жанр                                     : Rock
Дата записи                              : 2009
Дата кодирования                         : UTC 2014-02-18 14:08:28
Дата пометки                             : UTC 2014-02-18 14:08:28
Программа кодирования                    : CUETools 2.1.4
Обложка                                  : Yes

Аудио
Идентификатор                            : 1
Формат                                   : ALAC
Идентификатор кодека                     : alac
Идентификатор кодека/Информация          : Apple Lossless Audio Codec
Продолжительность                        : 2 м. 46 с.
Duration_LastFrame                       : -16 мс.
Вид битрейта                             : Переменный
Битрейт                                  : 909 Кбит/сек
Каналы                                   : 2 канала
Частота                                  : 44,1 КГц
Битовая глубина                          : 16 бит
Размер потока                            : 18,0 Мбайт (100%)
Дата кодирования                         : UTC 2014-02-18 14:08:28
Дата пометки                             : UTC 2014-02-18 14:08:28

Общее
Полное имя                               : C:\2009 - Лучшее (Топ Саунд, 23222-1-2, 2009) 2CD\CD1\19. Пиво.m4a
Формат                                   : MPEG-4
Профиль формата                          : Apple audio with iTunes info
Идентификатор кодека                     : M4A
Размер файла                             : 14,8 Мбайт
Продолжительность                        : 2 м. 28 с.
Режим общего битрейта                    : Переменный
Общий поток                              : 835 Кбит/сек
Альбом                                   : Лучшее
Альбом/Исполнитель                       : ЧайФ
Часть/Положение                          : 1
Часть/Всего                              : 2
Трек                                     : Пиво
Трек/Положение                           : 19
Трек/Всего                               : 20
Исполнитель                              : ЧайФ
Жанр                                     : Rock
Дата записи                              : 2009
Дата кодирования                         : UTC 2014-02-18 14:08:30
Дата пометки                             : UTC 2014-02-18 14:08:30
Программа кодирования                    : CUETools 2.1.4
Обложка                                  : Yes

Аудио
Идентификатор                            : 1
Формат                                   : ALAC
Идентификатор кодека                     : alac
Идентификатор кодека/Информация          : Apple Lossless Audio Codec
Продолжительность                        : 2 м. 28 с.
Duration_LastFrame                       : -75 мс.
Вид битрейта                             : Переменный
Битрейт                                  : 830 Кбит/сек
Каналы                                   : 2 канала
Частота                                  : 44,1 КГц
Битовая глубина                          : 16 бит
Размер потока                            : 14,7 Мбайт (99%)
Дата кодирования                         : UTC 2014-02-18 14:08:30
Дата пометки                             : UTC 2014-02-18 14:08:30

Общее
Полное имя                               : C:\2009 - Лучшее (Топ Саунд, 23222-1-2, 2009) 2CD\CD1\20. Rock'n'roll это я.m4a
Формат                                   : MPEG-4
Профиль формата                          : Apple audio with iTunes info
Идентификатор кодека                     : M4A
Размер файла                             : 25,3 Мбайт
Продолжительность                        : 3 м. 55 с.
Режим общего битрейта                    : Переменный
Общий поток                              : 900 Кбит/сек
Альбом                                   : Лучшее
Альбом/Исполнитель                       : ЧайФ
Часть/Положение                          : 1
Часть/Всего                              : 2
Трек                                     : Rock'n'roll это я
Трек/Положение                           : 20
Трек/Всего                               : 20
Исполнитель                              : ЧайФ
Жанр                                     : Rock
Дата записи                              : 2009
Дата кодирования                         : UTC 2014-02-18 14:08:35
Дата пометки                             : UTC 2014-02-18 14:08:35
Программа кодирования                    : CUETools 2.1.4
Обложка                                  : Yes

Аудио
Идентификатор                            : 1
Формат                                   : ALAC
Идентификатор кодека                     : alac
Идентификатор кодека/Информация          : Apple Lossless Audio Codec
Продолжительность                        : 3 м. 55 с.
Duration_LastFrame                       : -90 мс.
Вид битрейта                             : Переменный
Битрейт                                  : 897 Кбит/сек
Каналы                                   : 2 канала
Частота                                  : 44,1 КГц
Битовая глубина                          : 16 бит
Размер потока                            : 25,2 Мбайт (100%)
Дата кодирования                         : UTC 2014-02-18 14:08:35
Дата пометки                             : UTC 2014-02-18 14:08:35

Общее
Полное имя                               : C:\2009 - Лучшее (Топ Саунд, 23222-1-2, 2009) 2CD\CD1\Folder.auCDtect.txt
Размер файла                             : 7,85 Кбайт

Общее
Полное имя                               : C:\2009 - Лучшее (Топ Саунд, 23222-1-2, 2009) 2CD\CD1\folder.jpg
Формат                                   : JPEG
Размер файла                             : 60,5 Кбайт

Изображения
Формат                                   : JPEG
Ширина                                   : 500 пикселей
Высота                                   : 500 пикселей
Цветовое пространство                    : YUV
Субдискретизация насыщенности            : 4:2:0
Битовая глубина                          : 8 бит
Метод сжатия                             : С потерями
Размер потока                            : 60,5 Кбайт (100%)

Общее
Полное имя                               : C:\2009 - Лучшее (Топ Саунд, 23222-1-2, 2009) 2CD\CD1\Thumbs.db
Размер файла                             : 17,5 Кбайт

Общее
Полное имя                               : C:\2009 - Лучшее (Топ Саунд, 23222-1-2, 2009) 2CD\CD1\ЧайФ - Лучшее CD1.log
Размер файла                             : 7,96 Кбайт

Общее
Полное имя                               : C:\2009 - Лучшее (Топ Саунд, 23222-1-2, 2009) 2CD\CD2\01. Оранжевое настроение.m4a
Формат                                   : MPEG-4
Профиль формата                          : Apple audio with iTunes info
Идентификатор кодека                     : M4A
Размер файла                             : 24,3 Мбайт
Продолжительность                        : 3 м. 53 с.
Режим общего битрейта                    : Переменный
Общий поток                              : 873 Кбит/сек
Альбом                                   : Лучшее
Альбом/Исполнитель                       : ЧайФ
Часть/Положение                          : 2
Часть/Всего                              : 2
Трек                                     : Оранжевое настроение
Трек/Положение                           : 1
Трек/Всего                               : 18
Исполнитель                              : ЧайФ
Жанр                                     : Rock
Дата записи                              : 2009
Дата кодирования                         : UTC 2014-02-18 14:09:52
Дата пометки                             : UTC 2014-02-18 14:09:52
Программа кодирования                    : CUETools 2.1.4
Обложка                                  : Yes

Аудио
Идентификатор                            : 1
Формат                                   : ALAC
Идентификатор кодека                     : alac
Идентификатор кодека/Информация          : Apple Lossless Audio Codec
Продолжительность                        : 3 м. 53 с.
Duration_LastFrame                       : -88 мс.
Вид битрейта                             : Переменный
Битрейт                                  : 870 Кбит/сек
Каналы                                   : 2 канала
Частота                                  : 44,1 КГц
Битовая глубина                          : 16 бит
Размер потока                            : 24,2 Мбайт (100%)
Дата кодирования                         : UTC 2014-02-18 14:09:52
Дата пометки                             : UTC 2014-02-18 14:09:52

Общее
Полное имя                               : C:\2009 - Лучшее (Топ Саунд, 23222-1-2, 2009) 2CD\CD2\02. Мы делаем шаг.m4a
Формат                                   : MPEG-4
Профиль формата                          : Apple audio with iTunes info
Идентификатор кодека                     : M4A
Размер файла                             : 30,5 Мбайт
Продолжительность                        : 4 м. 33 с.
Режим общего битрейта                    : Переменный
Общий поток                              : 936 Кбит/сек
Альбом                                   : Лучшее
Альбом/Исполнитель                       : ЧайФ
Часть/Положение                          : 2
Часть/Всего                              : 2
Трек                                     : Мы делаем шаг
Трек/Положение                           : 2
Трек/Всего                               : 18
Исполнитель                              : ЧайФ
Жанр                                     : Rock
Дата записи                              : 2009
Дата кодирования                         : UTC 2014-02-18 14:09:57
Дата пометки                             : UTC 2014-02-18 14:09:57
Программа кодирования                    : CUETools 2.1.4
Обложка                                  : Yes

Аудио
Идентификатор                            : 1
Формат                                   : ALAC
Идентификатор кодека                     : alac
Идентификатор кодека/Информация          : Apple Lossless Audio Codec
Продолжительность                        : 4 м. 33 с.
Duration_LastFrame                       : -24 мс.
Вид битрейта                             : Переменный
Битрейт                                  : 933 Кбит/сек
Каналы                                   : 2 канала
Частота                                  : 44,1 КГц
Битовая глубина                          : 16 бит
Размер потока                            : 30,4 Мбайт (100%)
Дата кодирования                         : UTC 2014-02-18 14:09:57
Дата пометки                             : UTC 2014-02-18 14:09:57

Общее
Полное имя                               : C:\2009 - Лучшее (Топ Саунд, 23222-1-2, 2009) 2CD\CD2\03. Внеплановый концерт.m4a
Формат                                   : MPEG-4
Профиль формата                          : Apple audio with iTunes info
Идентификатор кодека                     : M4A
Размер файла                             : 35,6 Мбайт
Продолжительность                        : 5 м. 20 с.
Режим общего битрейта                    : Переменный
Общий поток                              : 931 Кбит/сек
Альбом                                   : Лучшее
Альбом/Исполнитель                       : ЧайФ
Часть/Положение                          : 2
Часть/Всего                              : 2
Трек                                     : Внеплановый концерт
Трек/Положение                           : 3
Трек/Всего                               : 18
Исполнитель                              : ЧайФ
Жанр                                     : Rock
Дата записи                              : 2009
Дата кодирования                         : UTC 2014-02-18 14:10:04
Дата пометки                             : UTC 2014-02-18 14:10:04
Программа кодирования                    : CUETools 2.1.4
Обложка                                  : Yes

Аудио
Идентификатор                            : 1
Формат                                   : ALAC
Идентификатор кодека                     : alac
Идентификатор кодека/Информация          : Apple Lossless Audio Codec
Продолжительность                        : 5 м. 20 с.
Duration_LastFrame                       : -48 мс.
Вид битрейта                             : Переменный
Битрейт                                  : 929 Кбит/сек
Каналы                                   : 2 канала
Частота                                  : 44,1 КГц
Битовая глубина                          : 16 бит
Размер потока                            : 35,5 Мбайт (100%)
Дата кодирования                         : UTC 2014-02-18 14:10:04
Дата пометки                             : UTC 2014-02-18 14:10:04

Общее
Полное имя                               : C:\2009 - Лучшее (Топ Саунд, 23222-1-2, 2009) 2CD\CD2\04. Правильный мальчик.m4a
Формат                                   : MPEG-4
Профиль формата                          : Apple audio with iTunes info
Идентификатор кодека                     : M4A
Размер файла                             : 27,9 Мбайт
Продолжительность                        : 4 м. 6 с.
Режим общего битрейта                    : Переменный
Общий поток                              : 952 Кбит/сек
Альбом                                   : Лучшее
Альбом/Исполнитель                       : ЧайФ
Часть/Положение                          : 2
Часть/Всего                              : 2
Трек                                     : Правильный мальчик
Трек/Положение                           : 4
Трек/Всего                               : 18
Исполнитель                              : ЧайФ
Жанр                                     : Rock
Дата записи                              : 2009
Дата кодирования                         : UTC 2014-02-18 14:10:08
Дата пометки                             : UTC 2014-02-18 14:10:08
Программа кодирования                    : CUETools 2.1.4
Обложка                                  : Yes

Аудио
Идентификатор                            : 1
Формат                                   : ALAC
Идентификатор кодека                     : alac
Идентификатор кодека/Информация          : Apple Lossless Audio Codec
Продолжительность                        : 4 м. 6 с.
Duration_LastFrame                       : -78 мс.
Вид битрейта                             : Переменный
Битрейт                                  : 949 Кбит/сек
Каналы                                   : 2 канала
Частота                                  : 44,1 КГц
Битовая глубина                          : 16 бит
Размер потока                            : 27,9 Мбайт (100%)
Дата кодирования                         : UTC 2014-02-18 14:10:08
Дата пометки                             : UTC 2014-02-18 14:10:08

Общее
Полное имя                               : C:\2009 - Лучшее (Топ Саунд, 23222-1-2, 2009) 2CD\CD2\05. Давай вернёмся.m4a
Формат                                   : MPEG-4
Профиль формата                          : Apple audio with iTunes info
Идентификатор кодека                     : M4A
Размер файла                             : 37,8 Мбайт
Продолжительность                        : 5 м. 26 с.
Режим общего битрейта                    : Переменный
Общий поток                              : 972 Кбит/сек
Альбом                                   : Лучшее
Альбом/Исполнитель                       : ЧайФ
Часть/Положение                          : 2
Часть/Всего                              : 2
Трек                                     : Давай вернёмся
Трек/Положение                           : 5
Трек/Всего                               : 18
Исполнитель                              : ЧайФ
Жанр                                     : Rock
Дата записи                              : 2009
Дата кодирования                         : UTC 2014-02-18 14:10:15
Дата пометки                             : UTC 2014-02-18 14:10:15
Программа кодирования                    : CUETools 2.1.4
Обложка                                  : Yes

Аудио
Идентификатор                            : 1
Формат                                   : ALAC
Идентификатор кодека                     : alac
Идентификатор кодека/Информация          : Apple Lossless Audio Codec
Продолжительность                        : 5 м. 26 с.
Duration_LastFrame                       : -5 мс.
Вид битрейта                             : Переменный
Битрейт                                  : 969 Кбит/сек
Каналы                                   : 2 канала
Частота                                  : 44,1 КГц
Битовая глубина                          : 16 бит
Размер потока                            : 37,7 Мбайт (100%)
Дата кодирования                         : UTC 2014-02-18 14:10:15
Дата пометки                             : UTC 2014-02-18 14:10:15

Общее
Полное имя                               : C:\2009 - Лучшее (Топ Саунд, 23222-1-2, 2009) 2CD\CD2\06. Но это так.m4a
Формат                                   : MPEG-4
Профиль формата                          : Apple audio with iTunes info
Идентификатор кодека                     : M4A
Размер файла                             : 37,8 Мбайт
Продолжительность                        : 5 м. 45 с.
Режим общего битрейта                    : Переменный
Общий поток                              : 920 Кбит/сек
Альбом                                   : Лучшее
Альбом/Исполнитель                       : ЧайФ
Часть/Положение                          : 2
Часть/Всего                              : 2
Трек                                     : Но это так
Трек/Положение                           : 6
Трек/Всего                               : 18
Исполнитель                              : ЧайФ
Жанр                                     : Rock
Дата записи                              : 2009
Дата кодирования                         : UTC 2014-02-18 14:10:21
Дата пометки                             : UTC 2014-02-18 14:10:21
Программа кодирования                    : CUETools 2.1.4
Обложка                                  : Yes

Аудио
Идентификатор                            : 1
Формат                                   : ALAC
Идентификатор кодека                     : alac
Идентификатор кодека/Информация          : Apple Lossless Audio Codec
Продолжительность                        : 5 м. 45 с.
Duration_LastFrame                       : -61 мс.
Вид битрейта                             : Переменный
Битрейт                                  : 917 Кбит/сек
Каналы                                   : 2 канала
Частота                                  : 44,1 КГц
Битовая глубина                          : 16 бит
Размер потока                            : 37,7 Мбайт (100%)
Дата кодирования                         : UTC 2014-02-18 14:10:21
Дата пометки                             : UTC 2014-02-18 14:10:21

Общее
Полное имя                               : C:\2009 - Лучшее (Топ Саунд, 23222-1-2, 2009) 2CD\CD2\07. Вчера была любовь.m4a
Формат                                   : MPEG-4
Профиль формата                          : Apple audio with iTunes info
Идентификатор кодека                     : M4A
Размер файла                             : 25,2 Мбайт
Продолжительность                        : 4 м. 4 с.
Режим общего битрейта                    : Переменный
Общий поток                              : 866 Кбит/сек
Альбом                                   : Лучшее
Альбом/Исполнитель                       : ЧайФ
Часть/Положение                          : 2
Часть/Всего                              : 2
Трек                                     : Вчера была любовь
Трек/Положение                           : 7
Трек/Всего                               : 18
Исполнитель                              : ЧайФ
Жанр                                     : Rock
Дата записи                              : 2009
Дата кодирования                         : UTC 2014-02-18 14:10:26
Дата пометки                             : UTC 2014-02-18 14:10:26
Программа кодирования                    : CUETools 2.1.4
Обложка                                  : Yes

Аудио
Идентификатор                            : 1
Формат                                   : ALAC
Идентификатор кодека                     : alac
Идентификатор кодека/Информация          : Apple Lossless Audio Codec
Продолжительность                        : 4 м. 4 с.
Duration_LastFrame                       : -6 мс.
Вид битрейта                             : Переменный
Битрейт                                  : 863 Кбит/сек
Каналы                                   : 2 канала
Частота                                  : 44,1 КГц
Битовая глубина                          : 16 бит
Размер потока                            : 25,2 Мбайт (100%)
Дата кодирования                         : UTC 2014-02-18 14:10:26
Дата пометки                             : UTC 2014-02-18 14:10:26

Общее
Полное имя                               : C:\2009 - Лучшее (Топ Саунд, 23222-1-2, 2009) 2CD\CD2\08. Она.m4a
Формат                                   : MPEG-4
Профиль формата                          : Apple audio with iTunes info
Идентификатор кодека                     : M4A
Размер файла                             : 25,5 Мбайт
Продолжительность                        : 3 м. 31 с.
Режим общего битрейта                    : Переменный
Общий поток                              : 1011 Кбит/сек
Альбом                                   : Лучшее
Альбом/Исполнитель                       : ЧайФ
Часть/Положение                          : 2
Часть/Всего                              : 2
Трек                                     : Она
Трек/Положение                           : 8
Трек/Всего                               : 18
Исполнитель                              : ЧайФ
Жанр                                     : Rock
Дата записи                              : 2009
Дата кодирования                         : UTC 2014-02-18 14:10:30
Дата пометки                             : UTC 2014-02-18 14:10:30
Программа кодирования                    : CUETools 2.1.4
Обложка                                  : Yes

Аудио
Идентификатор                            : 1
Формат                                   : ALAC
Идентификатор кодека                     : alac
Идентификатор кодека/Информация          : Apple Lossless Audio Codec
Продолжительность                        : 3 м. 31 с.
Duration_LastFrame                       : -20 мс.
Вид битрейта                             : Переменный
Битрейт                                  : 1008 Кбит/сек
Каналы                                   : 2 канала
Частота                                  : 44,1 КГц
Битовая глубина                          : 16 бит
Размер потока                            : 25,4 Мбайт (100%)
Дата кодирования                         : UTC 2014-02-18 14:10:30
Дата пометки                             : UTC 2014-02-18 14:10:30

Общее
Полное имя                               : C:\2009 - Лучшее (Топ Саунд, 23222-1-2, 2009) 2CD\CD2\09. От себя.m4a
Формат                                   : MPEG-4
Профиль формата                          : Apple audio with iTunes info
Идентификатор кодека                     : M4A
Размер файла                             : 33,3 Мбайт
Продолжительность                        : 4 м. 58 с.
Режим общего битрейта                    : Переменный
Общий поток                              : 936 Кбит/сек
Альбом                                   : Лучшее
Альбом/Исполнитель                       : ЧайФ
Часть/Положение                          : 2
Часть/Всего                              : 2
Трек                                     : От себя
Трек/Положение                           : 9
Трек/Всего                               : 18
Исполнитель                              : ЧайФ
Жанр                                     : Rock
Дата записи                              : 2009
Дата кодирования                         : UTC 2014-02-18 14:10:36
Дата пометки                             : UTC 2014-02-18 14:10:36
Программа кодирования                    : CUETools 2.1.4
Обложка                                  : Yes

Аудио
Идентификатор                            : 1
Формат                                   : ALAC
Идентификатор кодека                     : alac
Идентификатор кодека/Информация          : Apple Lossless Audio Codec
Продолжительность                        : 4 м. 58 с.
Duration_LastFrame                       : -64 мс.
Вид битрейта                             : Переменный
Битрейт                                  : 934 Кбит/сек
Каналы                                   : 2 канала
Частота                                  : 44,1 КГц
Битовая глубина                          : 16 бит
Размер потока                            : 33,2 Мбайт (100%)
Дата кодирования                         : UTC 2014-02-18 14:10:36
Дата пометки                             : UTC 2014-02-18 14:10:36

Общее
Полное имя                               : C:\2009 - Лучшее (Топ Саунд, 23222-1-2, 2009) 2CD\CD2\10. Родная, не плачь.m4a
Формат                                   : MPEG-4
Профиль формата                          : Apple audio with iTunes info
Идентификатор кодека                     : M4A
Размер файла                             : 29,2 Мбайт
Продолжительность                        : 4 м. 15 с.
Режим общего битрейта                    : Переменный
Общий поток                              : 957 Кбит/сек
Альбом                                   : Лучшее
Альбом/Исполнитель                       : ЧайФ
Часть/Положение                          : 2
Часть/Всего                              : 2
Трек                                     : Родная, не плачь
Трек/Положение                           : 10
Трек/Всего                               : 18
Исполнитель                              : ЧайФ
Жанр                                     : Rock
Дата записи                              : 2009
Дата кодирования                         : UTC 2014-02-18 14:10:41
Дата пометки                             : UTC 2014-02-18 14:10:41
Программа кодирования                    : CUETools 2.1.4
Обложка                                  : Yes

Аудио
Идентификатор                            : 1
Формат                                   : ALAC
Идентификатор кодека                     : alac
Идентификатор кодека/Информация          : Apple Lossless Audio Codec
Продолжительность                        : 4 м. 15 с.
Duration_LastFrame                       : -83 мс.
Вид битрейта                             : Переменный
Битрейт                                  : 955 Кбит/сек
Каналы                                   : 2 канала
Частота                                  : 44,1 КГц
Битовая глубина                          : 16 бит
Размер потока                            : 29,1 Мбайт (100%)
Дата кодирования                         : UTC 2014-02-18 14:10:41
Дата пометки                             : UTC 2014-02-18 14:10:41

Общее
Полное имя                               : C:\2009 - Лучшее (Топ Саунд, 23222-1-2, 2009) 2CD\CD2\11. Зажги огонь в моих глазах.m4a
Формат                                   : MPEG-4
Профиль формата                          : Apple audio with iTunes info
Идентификатор кодека                     : M4A
Размер файла                             : 29,1 Мбайт
Продолжительность                        : 4 м. 20 с.
Режим общего битрейта                    : Переменный
Общий поток                              : 936 Кбит/сек
Альбом                                   : Лучшее
Альбом/Исполнитель                       : ЧайФ
Часть/Положение                          : 2
Часть/Всего                              : 2
Трек                                     : Зажги огонь в моих глазах
Трек/Положение                           : 11
Трек/Всего                               : 18
Исполнитель                              : ЧайФ
Жанр                                     : Rock
Дата записи                              : 2009
Дата кодирования                         : UTC 2014-02-18 14:10:46
Дата пометки                             : UTC 2014-02-18 14:10:46
Программа кодирования                    : CUETools 2.1.4
Обложка                                  : Yes

Аудио
Идентификатор                            : 1
Формат                                   : ALAC
Идентификатор кодека                     : alac
Идентификатор кодека/Информация          : Apple Lossless Audio Codec
Продолжительность                        : 4 м. 20 с.
Duration_LastFrame                       : -35 мс.
Вид битрейта                             : Переменный
Битрейт                                  : 933 Кбит/сек
Каналы                                   : 2 канала
Частота                                  : 44,1 КГц
Битовая глубина                          : 16 бит
Размер потока                            : 29,0 Мбайт (100%)
Дата кодирования                         : UTC 2014-02-18 14:10:46
Дата пометки                             : UTC 2014-02-18 14:10:46

Общее
Полное имя                               : C:\2009 - Лучшее (Топ Саунд, 23222-1-2, 2009) 2CD\CD2\12. В ночь по новым адресам.m4a
Формат                                   : MPEG-4
Профиль формата                          : Apple audio with iTunes info
Идентификатор кодека                     : M4A
Размер файла                             : 26,7 Мбайт
Продолжительность                        : 4 м. 26 с.
Режим общего битрейта                    : Переменный
Общий поток                              : 840 Кбит/сек
Альбом                                   : Лучшее
Альбом/Исполнитель                       : ЧайФ
Часть/Положение                          : 2
Часть/Всего                              : 2
Трек                                     : В ночь по новым адресам
Трек/Положение                           : 12
Трек/Всего                               : 18
Исполнитель                              : ЧайФ
Жанр                                     : Rock
Дата записи                              : 2009
Дата кодирования                         : UTC 2014-02-18 14:10:51
Дата пометки                             : UTC 2014-02-18 14:10:51
Программа кодирования                    : CUETools 2.1.4
Обложка                                  : Yes

Аудио
Идентификатор                            : 1
Формат                                   : ALAC
Идентификатор кодека                     : alac
Идентификатор кодека/Информация          : Apple Lossless Audio Codec
Продолжительность                        : 4 м. 26 с.
Duration_LastFrame                       : -58 мс.
Вид битрейта                             : Переменный
Битрейт                                  : 837 Кбит/сек
Каналы                                   : 2 канала
Частота                                  : 44,1 КГц
Битовая глубина                          : 16 бит
Размер потока                            : 26,6 Мбайт (100%)
Дата кодирования                         : UTC 2014-02-18 14:10:51
Дата пометки                             : UTC 2014-02-18 14:10:51

Общее
Полное имя                               : C:\2009 - Лучшее (Топ Саунд, 23222-1-2, 2009) 2CD\CD2\13. Ангел.m4a
Формат                                   : MPEG-4
Профиль формата                          : Apple audio with iTunes info
Идентификатор кодека                     : M4A
Размер файла                             : 26,6 Мбайт
Продолжительность                        : 3 м. 45 с.
Режим общего битрейта                    : Переменный
Общий поток                              : 990 Кбит/сек
Альбом                                   : Лучшее
Альбом/Исполнитель                       : ЧайФ
Часть/Положение                          : 2
Часть/Всего                              : 2
Трек                                     : Ангел
Трек/Положение                           : 13
Трек/Всего                               : 18
Исполнитель                              : ЧайФ
Жанр                                     : Rock
Дата записи                              : 2009
Дата кодирования                         : UTC 2014-02-18 14:10:56
Дата пометки                             : UTC 2014-02-18 14:10:56
Программа кодирования                    : CUETools 2.1.4
Обложка                                  : Yes

Аудио
Идентификатор                            : 1
Формат                                   : ALAC
Идентификатор кодека                     : alac
Идентификатор кодека/Информация          : Apple Lossless Audio Codec
Продолжительность                        : 3 м. 45 с.
Duration_LastFrame                       : -31 мс.
Вид битрейта                             : Переменный
Битрейт                                  : 987 Кбит/сек
Каналы                                   : 2 канала
Частота                                  : 44,1 КГц
Битовая глубина                          : 16 бит
Размер потока                            : 26,6 Мбайт (100%)
Дата кодирования                         : UTC 2014-02-18 14:10:56
Дата пометки                             : UTC 2014-02-18 14:10:56

Общее
Полное имя                               : C:\2009 - Лучшее (Топ Саунд, 23222-1-2, 2009) 2CD\CD2\14. Легенда о былых мужьях.m4a
Формат                                   : MPEG-4
Профиль формата                          : Apple audio with iTunes info
Идентификатор кодека                     : M4A
Размер файла                             : 23,2 Мбайт
Продолжительность                        : 3 м. 24 с.
Режим общего битрейта                    : Переменный
Общий поток                              : 952 Кбит/сек
Альбом                                   : Лучшее
Альбом/Исполнитель                       : ЧайФ
Часть/Положение                          : 2
Часть/Всего                              : 2
Трек                                     : Легенда о былых мужьях
Трек/Положение                           : 14
Трек/Всего                               : 18
Исполнитель                              : ЧайФ
Жанр                                     : Rock
Дата записи                              : 2009
Дата кодирования                         : UTC 2014-02-18 14:10:59
Дата пометки                             : UTC 2014-02-18 14:10:59
Программа кодирования                    : CUETools 2.1.4
Обложка                                  : Yes

Аудио
Идентификатор                            : 1
Формат                                   : ALAC
Идентификатор кодека                     : alac
Идентификатор кодека/Информация          : Apple Lossless Audio Codec
Продолжительность                        : 3 м. 24 с.
Duration_LastFrame                       : -80 мс.
Вид битрейта                             : Переменный
Битрейт                                  : 949 Кбит/сек
Каналы                                   : 2 канала
Частота                                  : 44,1 КГц
Битовая глубина                          : 16 бит
Размер потока                            : 23,2 Мбайт (100%)
Дата кодирования                         : UTC 2014-02-18 14:10:59
Дата пометки                             : UTC 2014-02-18 14:10:59

Общее
Полное имя                               : C:\2009 - Лучшее (Топ Саунд, 23222-1-2, 2009) 2CD\CD2\15. Не говори никому.m4a
Формат                                   : MPEG-4
Профиль формата                          : Apple audio with iTunes info
Идентификатор кодека                     : M4A
Размер файла                             : 34,8 Мбайт
Продолжительность                        : 5 м. 8 с.
Режим общего битрейта                    : Переменный
Общий поток                              : 947 Кбит/сек
Альбом                                   : Лучшее
Альбом/Исполнитель                       : ЧайФ
Часть/Положение                          : 2
Часть/Всего                              : 2
Трек                                     : Не говори никому
Трек/Положение                           : 15
Трек/Всего                               : 18
Исполнитель                              : ЧайФ
Жанр                                     : Rock
Дата записи                              : 2009
Дата кодирования                         : UTC 2014-02-18 14:11:05
Дата пометки                             : UTC 2014-02-18 14:11:05
Программа кодирования                    : CUETools 2.1.4
Обложка                                  : Yes

Аудио
Идентификатор                            : 1
Формат                                   : ALAC
Идентификатор кодека                     : alac
Идентификатор кодека/Информация          : Apple Lossless Audio Codec
Продолжительность                        : 5 м. 8 с.
Duration_LastFrame                       : -15 мс.
Вид битрейта                             : Переменный
Битрейт                                  : 944 Кбит/сек
Каналы                                   : 2 канала
Частота                                  : 44,1 КГц
Битовая глубина                          : 16 бит
Размер потока                            : 34,7 Мбайт (100%)
Дата кодирования                         : UTC 2014-02-18 14:11:05
Дата пометки                             : UTC 2014-02-18 14:11:05

Общее
Полное имя                               : C:\2009 - Лучшее (Топ Саунд, 23222-1-2, 2009) 2CD\CD2\16. Мама, она больше не может....m4a
Формат                                   : MPEG-4
Профиль формата                          : Apple audio with iTunes info
Идентификатор кодека                     : M4A
Размер файла                             : 40,2 Мбайт
Продолжительность                        : 5 м. 56 с.
Режим общего битрейта                    : Переменный
Общий поток                              : 946 Кбит/сек
Альбом                                   : Лучшее
Альбом/Исполнитель                       : ЧайФ
Часть/Положение                          : 2
Часть/Всего                              : 2
Трек                                     : Мама, она больше не может...
Трек/Положение                           : 16
Трек/Всего                               : 18
Исполнитель                              : ЧайФ
Жанр                                     : Rock
Дата записи                              : 2009
Дата кодирования                         : UTC 2014-02-18 14:11:12
Дата пометки                             : UTC 2014-02-18 14:11:12
Программа кодирования                    : CUETools 2.1.4
Обложка                                  : Yes

Аудио
Идентификатор                            : 1
Формат                                   : ALAC
Идентификатор кодека                     : alac
Идентификатор кодека/Информация          : Apple Lossless Audio Codec
Продолжительность                        : 5 м. 56 с.
Duration_LastFrame                       : -72 мс.
Вид битрейта                             : Переменный
Битрейт                                  : 943 Кбит/сек
Каналы                                   : 2 канала
Частота                                  : 44,1 КГц
Битовая глубина                          : 16 бит
Размер потока                            : 40,1 Мбайт (100%)
Дата кодирования                         : UTC 2014-02-18 14:11:12
Дата пометки                             : UTC 2014-02-18 14:11:12

Общее
Полное имя                               : C:\2009 - Лучшее (Топ Саунд, 23222-1-2, 2009) 2CD\CD2\17. За годом год.m4a
Формат                                   : MPEG-4
Профиль формата                          : Apple audio with iTunes info
Идентификатор кодека                     : M4A
Размер файла                             : 21,9 Мбайт
Продолжительность                        : 3 м. 25 с.
Режим общего битрейта                    : Переменный
Общий поток                              : 895 Кбит/сек
Альбом                                   : Лучшее
Альбом/Исполнитель                       : ЧайФ
Часть/Положение                          : 2
Часть/Всего                              : 2
Трек                                     : За годом год
Трек/Положение                           : 17
Трек/Всего                               : 18
Исполнитель                              : ЧайФ
Жанр                                     : Rock
Дата записи                              : 2009
Дата кодирования                         : UTC 2014-02-18 14:11:16
Дата пометки                             : UTC 2014-02-18 14:11:16
Программа кодирования                    : CUETools 2.1.4
Обложка                                  : Yes

Аудио
Идентификатор                            : 1
Формат                                   : ALAC
Идентификатор кодека                     : alac
Идентификатор кодека/Информация          : Apple Lossless Audio Codec
Продолжительность                        : 3 м. 25 с.
Duration_LastFrame                       : -90 мс.
Вид битрейта                             : Переменный
Битрейт                                  : 892 Кбит/сек
Каналы                                   : 2 канала
Частота                                  : 44,1 КГц
Битовая глубина                          : 16 бит
Размер потока                            : 21,8 Мбайт (100%)
Дата кодирования                         : UTC 2014-02-18 14:11:16
Дата пометки                             : UTC 2014-02-18 14:11:16

Общее
Полное имя                               : C:\2009 - Лучшее (Топ Саунд, 23222-1-2, 2009) 2CD\CD2\18. Прощай, детка (Детка, прощай).m4a
Формат                                   : MPEG-4
Профиль формата                          : Apple audio with iTunes info
Идентификатор кодека                     : M4A
Размер файла                             : 24,1 Мбайт
Продолжительность                        : 3 м. 27 с.
Режим общего битрейта                    : Переменный
Общий поток                              : 972 Кбит/сек
Альбом                                   : Лучшее
Альбом/Исполнитель                       : ЧайФ
Часть/Положение                          : 2
Часть/Всего                              : 2
Трек                                     : Прощай, детка (Детка, прощай)
Трек/Положение                           : 18
Трек/Всего                               : 18
Исполнитель                              : ЧайФ
Жанр                                     : Rock
Дата записи                              : 2009
Дата кодирования                         : UTC 2014-02-18 14:11:20
Дата пометки                             : UTC 2014-02-18 14:11:20
Программа кодирования                    : CUETools 2.1.4
Обложка                                  : Yes

Аудио
Идентификатор                            : 1
Формат                                   : ALAC
Идентификатор кодека                     : alac
Идентификатор кодека/Информация          : Apple Lossless Audio Codec
Продолжительность                        : 3 м. 27 с.
Duration_LastFrame                       : -91 мс.
Вид битрейта                             : Переменный
Битрейт                                  : 969 Кбит/сек
Каналы                                   : 2 канала
Частота                                  : 44,1 КГц
Битовая глубина                          : 16 бит
Размер потока                            : 24,0 Мбайт (100%)
Дата кодирования                         : UTC 2014-02-18 14:11:20
Дата пометки                             : UTC 2014-02-18 14:11:20
Время раздачи: ( с 09:00 - 20:00 - до первых десяти сидов )
[NNM-Club.me]_CHayF - Luchshee (2009).torrent
 Торрент: Платиновая раздача  Зарегистрирован
 
Скачать


Примагнититься
 Зарегистрирован:   18 Фев 2014 18:38:44
 Размер:   1.07 GB  (
 Рейтинг:   4.5 (Голосов: 26)
 Поблагодарили:   99
 Проверка:   Оформление проверено модератором 18 Фев 2014 18:53:36
Как cкачать  ·  Как раздать  ·  Правильно оформить  ·  Поднять ратио!  
ILL_BE_BACK
Стаж: 7 лет
Сообщений: 544
Ratio: 10.889
100%
Откуда: Челябинск
russia.gif
Раздайте пожалуйста кто скачал, скорость 0.
Показать сообщения:   
Начать новую тему   Ответить на тему    Торрент-трекер NNM-Club -> Аудио и Видео -> Музыка Lossless (ALAC) Часовой пояс: GMT + 3
Страница 1 из 1