Классический форум-трекер
canvas not supported
Нас вместе: 4 082 277

Леди и бродяга 2: Приключения Шалуна / Lady and the Tramp II: Scamp's Adventure (2001) BDRip [UKR, EN]


 
 
RSS
Начать новую тему   Ответить на тему    Торрент-трекер NNM-Club -> Мультфильмы -> Зарубежные Мультфильмы (HD*Rip/LQ, DVDRip, SATRip, VHSRip)
Автор Сообщение
punyo ®
Стаж: 9 лет 6 мес.
Сообщений: 302
Ratio: 68,354
Раздал: 1,618 TB
Поблагодарили: 29210
100%
Откуда: Рава
ukraine.gif
Леди и бродяга 2: Приключения Шалуна / Lady and the Tramp II: Scamp's Adventure (2001) BDRip
Русское название: Леди и бродяга 2: Приключения Шалуна
Оригинальное название: Lady and the Tramp II: Scamp's Adventure
Жанр: мультфильм, мелодрама, комедия, приключения
Производство: США / Walt Disney Pictures
Год выпуска:2001

Язык: украинский
Перевод: многоголосый закадровый
Субтитры: Отсутствуют

Описание:
Продолжение классического диснеевского мультфильма о трогательных отношениях породистой Лесси и бездомного пса. Они уже родители целой своры щенков — трёх работящих девочек и одного буйного щенка-мальчика по прозвищу Бездельник.

В поисках риска и «реальной» собачьей жизни Бездельник уходит из дома и встречает Ангела, Бастера и его шайку. Вместе с верными друзьями он переживёт множество комичных ситуаций а также столкнётся с опасностями, которые вполне могут ожидать маленького щенка на улицах большого города. Хотя Бездельник и нашёл риск, но мысли его возвращаются к дому и родным…

Режиссер: Даррел Руни, Джаннин Пассел
Продюсер: Джаннин Пассел, Дэвид В. Кинг
Персонажи: Скотт Вулф, Алисса Милано, Чазз Пальминтери, Джефф Беннетт, Джоди Бенсон, Билл Фагербакки, Микки Руни, Бронсон Пинчот, Кэти Мориарти, Мэри Кэй Бергман

Дата мировой премьеры: 18 февраля 2001
Дата выхода DVD релиза: 21 февраля 2012, «Уолт Дисней Компани СНГ»
Дата выхода Blu-Ray релиза: 21 февраля 2012, «Уолт Дисней Компани СНГ»



Продолжительность: 01:09:023
Качество видео: BDRip

Видеокодек: MPEG4, XviD
Битрейт видео: 2 188 Kbps (0.317 bit/pixel)
Размер кадра: 720x400 (16:9), 23.976 fps
Аудио #1: AC-3, 48.0 KHz, 2 ch, 192 Kbps, CBR (украинский |MVO|)
Аудио #2: AC-3, 48.0 KHz, 6 ch, 448 Kbps, CBR (английский |Original|)
E:\Фільми\Lady and the Tramp 2 __ Ukr. BDRip AC3 2.0.avi
General
Complete name : E:\Фільми\Lady and the Tramp 2 __ Ukr. BDRip AC3 2.0.avi
Format : AVI
Format/Info : Audio Video Interleave
File size : 1.37 GiB
Duration : 1h 9mn
Overall bit rate : 2 842 Kbps
Writing application : VirtualDubMod 1.5.10.2 (build 2540/release)
Writing library : VirtualDubMod build 2540/release
Video #0
ID : 0
Format : MPEG-4 Visual
Format profile : Advanced Simple@L5
Format settings, BVOP : 1
Format settings, QPel : No
Format settings, GMC : No warppoints
Format settings, Matrix : Custom
Codec ID : XVID
Codec ID/Hint : XviD
Duration : 1h 9mn
Bit rate : 2 188 Kbps
Width : 720 pixels
Height : 400 pixels
Display aspect ratio : 16:9
Frame rate : 23.976 fps
Color space : YUV
Chroma subsampling : 4:2:0
Bit depth : 8 bits
Scan type : Progressive
Compression mode : Lossy
Bits/(Pixel*Frame) : 0.317
Stream size : 1.05 GiB (77%)
Writing library : XviD 65
Audio #1
ID : 1
Format : AC-3
Format/Info : Audio Coding 3
Mode extension : CM (complete main)
Format settings, Endianness : Big
Codec ID : 2000
Duration : 1h 9mn
Bit rate mode : Constant
Bit rate : 192 Kbps
Channel count : 2 channels
Channel positions : Front: L R
Sampling rate : 48.0 KHz
Bit depth : 16 bits
Compression mode : Lossy
Stream size : 94.8 MiB (7%)
Alignment : Split accross interleaves
Interleave, duration : 42 ms (1.00 video frame)
Interleave, preload duration : 500 ms
Audio #2
ID : 2
Format : AC-3
Format/Info : Audio Coding 3
Mode extension : CM (complete main)
Format settings, Endianness : Big
Codec ID : 2000
Duration : 1h 9mn
Bit rate mode : Constant
Bit rate : 448 Kbps
Channel count : 6 channels
Channel positions : Front: L C R, Side: L R, LFE
Sampling rate : 48.0 KHz
Bit depth : 16 bits
Compression mode : Lossy
Stream size : 221 MiB (16%)
Alignment : Split accross interleaves
Interleave, duration : 42 ms (1.00 video frame)
Interleave, preload duration : 500 ms
Единое целое! - Как говорил мой дедушка — старый надёжный сторожевой пёс… Я что сказал сторожевой?

-Да ты это сказал, и говоришь частенько!

Дааа, Потрясающе! Когда я посмотрел «Леди и Бродяга», мне сразу захотелось посмотреть вторую часть — узнать что же дальше. И НИСКОЛЬКО не разочаровался! Конечно, многие могут сказать, что вторая часть отличается от первой и вообще хуже. Да отличается, но она является именно Продолжением первой!

Музыка ничуть не хуже, прорисовка — великолепная! Я всегда удивляюсь, как можно нарисовать фильм, тем более ТАКОЙ!!! Просто и мысли нет, что кто-то это всё рисовал от руки. ТАК точно сделаны главные герои, их повадки, окружающая природа, что невольно начинаешь думать, что они и вправду живые! Когда Трасти повторяет свою фразу (про его дедушку — сторожевого пса), я просто «падаю» со смеху; или когда, во второй части, этот громила Реджоу начал, ломая всё на своём пути, носиться по улице!

«Леди и Бродяга 2» поучителен и для детей (в смысле про семью). Ну чего не хватало Шалуну: свободы? Мы всегда будем зависеть от кого-то. Чего он добился? Ест, когда хочет; спит, сколько хочет; встает, когда хочет; гуляет, где вздумается… нуууу в принципе и всё! И что, он счастлив? — нет…

Главное, когда тебя любят и заботятся, но для того чтобы это понять, нужно сначала уйти из дома — потеряться. Что впрочем Шалун и сделал, но при этом нашёл подружку — Ангел, которую, в конце концов, приводит в свою семью!

В общем, эти два фильма полностью дополняют друг друга и навсегда остаются в памяти. Это одно из наилучших творений Walt Disney, которое хочется смотреть и смотреть!

Кстати, можно начать сравнивать «Леди и Бродяга» с другими фильмами типа «Дорога домой», но всё моё существо просто противится этому, поэтому не будем этого делать. «Леди и Бродяга» и «Леди и Бродяга 2» — это один фильм, единое целое!

Впрочем, можно вечно говорить о таких фильмах. Но ведь чувств и переживаний НАМНОГО больше, чем слов, которыми можно было бы всё это выразить!

10 из 10
Скриншоты:





Все релизы мультфильма на NNM-club

Время раздачи: по возможности ежедневно (до 10 сидов)
[NNM-Club.me]_Lady and the Tramp 2 __ Ukr. BDRip AC3 2.0.avi.torrent
 Торрент: Платиновая раздача  Зарегистрирован
 
Скачать


Примагнититься
 Зарегистрирован:   23 Фев 2014 13:00:08
 Размер:   1,37 GB  (
 Рейтинг:   4,6 (Голосов: 22)
 Поблагодарили:   78
 Проверка:   Оформление проверено модератором 23 Фев 2014 19:48:06
Как cкачать  ·  Как раздать  ·  Правильно оформить  ·  Поднять ратио!  
Показать сообщения:   
Начать новую тему   Ответить на тему    Торрент-трекер NNM-Club -> Мультфильмы -> Зарубежные Мультфильмы (HD*Rip/LQ, DVDRip, SATRip, VHSRip) Часовой пояс: GMT + 3
Страница 1 из 1