Классический форум-трекер
canvas not supported
Нас вместе: 4 205 953

Балто: Дилогия / Balto: Dilogy (1995, 2002) DVDRip [UKR, EN]


 
 
RSS
Начать новую тему   Ответить на тему    Торрент-трекер NNM-Club -> Мультфильмы -> Зарубежные Мультфильмы (коллекции, сборники / *логии)
Автор Сообщение
punyo ®
Стаж: 12 лет 4 мес.
Сообщений: 302
Ratio: 68.354
Раздал: 1.618 TB
Поблагодарили: 29792
100%
Откуда: Рава
ukraine.gif
Балто / Balto (1995) DVDRip «Part Dog. Part Wolf. All Hero»
Русское название: Балто
Оригинальное название: Balto
Жанр: мультфильм, фантастика, фэнтези, комедия, семейный
Производство: США / Amblin Entertainment, Universal Pictures, Amblimation
Год выпуска:1995

Язык: Украинский
Перевод: многоголосый закадровый

Описание:
Наполовину лайка, наполовину волк, Балто и сам не знает кто он такой на самом деле. Всеми гонимый бродяга в ледяной пустыне Аляски. Только его друзья русский полярный гусь Борис, медвежата Мак и Лак и красавица-лайка Дженна уверены, что хотя он и не такой как все, но в его груди бьется благородное сердце.
Однажды случается несчастье. Эпидемия дифтерии охватила детей небольшого поселка, а свирепая вьюга сделала непроходимыми все дороги. Лишь собачья упряжка может преодолеть шестьсот миль через ослепляющий арктический шторм и привезти спасительное лекарство.
Но собаки сбились с дороги где-то на замерзших просторах. Теперь только Балто может найти упряжку и спасти детей, а заодно стать героем и настоящей легендой!

Режиссер: Саймон Уэллс
Продюсер: Стив Хикнер, Рич Эронс, Кэтлин Кеннеди
Персонажи: Кевин Бэйкон, Боб Хоскинс, Бриджет Фонда, Джим Каммингс, Фил Коллинз, Джек Энджел, Дэнни Манн, Robbie Rist, Джульетт Брюэр, Сандра Дикинсон

Дата мировой премьеры: 22 декабря 1995


Продолжительность: 01:14:26
Качество видео: DVDRip

Видеокодек: MPEG4, XviD
Битрейт видео: 2 007 Kbps (0.279 bit/pixel)
Размер кадра: 720x400 (16:9), 25.000 fps
Аудио #1: AC-3, 48.0 KHz, 6 ch, 384 Kbps, CBR (украинский)
Аудио #2: AC-3, 48.0 KHz, 6 ch, 384 Kbps, CBR (английский)
E:\Фільми\Balto. Dilogy\Balto (1995) [Ukr.AC3_5.1, Eng] DVDRip.avi
General
Complete name : E:\Фільми\Balto. Dilogy\Balto (1995) [Ukr.AC3_5.1, Eng] DVDRip.avi
Format : AVI
Format/Info : Audio Video Interleave
File size : 1.45 GiB
Duration : 1h 14mn
Overall bit rate : 2 789 Kbps
Writing application : VirtualDubMod 1.5.10.2 (build 2540/release)
Writing library : VirtualDubMod build 2540/release
Video #0
ID : 0
Format : MPEG-4 Visual
Format profile : Advanced Simple@L5
Format settings, BVOP : 2
Format settings, QPel : Yes
Format settings, GMC : No warppoints
Format settings, Matrix : Default (H.263)
Codec ID : XVID
Codec ID/Hint : XviD
Duration : 1h 14mn
Bit rate : 2 007 Kbps
Width : 720 pixels
Height : 400 pixels
Display aspect ratio : 16:9
Frame rate : 25.000 fps
Color space : YUV
Chroma subsampling : 4:2:0
Bit depth : 8 bits
Scan type : Progressive
Compression mode : Lossy
Bits/(Pixel*Frame) : 0.279
Stream size : 1.04 GiB (72%)
Writing library : XviD 1.2.1 (UTC 2008-12-04)
Audio #1
ID : 1
Format : AC-3
Format/Info : Audio Coding 3
Mode extension : CM (complete main)
Format settings, Endianness : Big
Codec ID : 2000
Duration : 1h 14mn
Bit rate mode : Constant
Bit rate : 384 Kbps
Channel count : 6 channels
Channel positions : Front: L C R, Side: L R, LFE
Sampling rate : 48.0 KHz
Bit depth : 16 bits
Compression mode : Lossy
Stream size : 204 MiB (14%)
Alignment : Split accross interleaves
Interleave, duration : 40 ms (1.00 video frame)
Interleave, preload duration : 500 ms
Audio #2
ID : 2
Format : AC-3
Format/Info : Audio Coding 3
Mode extension : CM (complete main)
Format settings, Endianness : Big
Codec ID : 2000
Duration : 1h 14mn
Bit rate mode : Constant
Bit rate : 384 Kbps
Channel count : 6 channels
Channel positions : Front: L C R, Side: L R, LFE
Sampling rate : 48.0 KHz
Bit depth : 16 bits
Compression mode : Lossy
Stream size : 204 MiB (14%)
Alignment : Split accross interleaves
Interleave, duration : 40 ms (1.00 video frame)
Interleave, preload duration : 500 ms
• Студия Amblimation была расформирована в 1997 году, спустя некоторое время после выпуска «Балто». Позже студия была вновь объединена под руководством бывшего директора компании Дисней — Джеффри Катценберга для создания анимационного фильма «Принц Египта» (1998), став анимационным подразделением DreamWorks SKG.
• Сцены с живыми актёрами (бабушка Рози и её внучка) были сняты в Центральном парке Манхэттена, город Нью-Йорк, США.
Мультфильм, который заставляет поверить в себя…. Один из наиболее любимых мною мультфильмов. В нём в отличие от многих других есть душа, есть то, что заставляет переживать за главного героя и девочку в течение всего просмотра. Уже в течение первых минут 20-ти мы успеваем полюбить Болто и возненавидеть Стила так, как в других мультах не смогли бы и за 2 часа.

Отличный момент с большим белым волком: очень вдохновляет, и музыкальное сопровождение просто суперски подобрано. Думаю этот мультфильм стоило бы показать всем детям, чтоб они знали как нужно и как не нужно поступать в жизни, а также помог каждому поверить в свои силы не смотря ни на что.

В общем рекомендую всем — от мала до велика!
Скриншоты:




Балто 2: В поисках волка / Balto: Wolf Quest (2002) DVDRip «The adventures of a true American hero continue»
Русское название: Балто 2: В поисках волка
Оригинальное название: Balto: Wolf Quest
Жанр: мультфильм, фантастика, фэнтези, комедия, семейный
Производство: США / Amblin Entertainment, Universal Pictures, Amblimation
Год выпуска: 2002

Язык: Украинский
Перевод: многоголосый закадровый

Описание:
Продолжение приключений легендарного пса Балто. Случилось так, что Балто стал отцом. Он сделал все возможное, чтобы пристроить всех своих отпрысков в хорошие семьи. Но одна девочка, по имени Алу, вдруг почувствовала, что никогда не сможет быть похожей на своих братьев и сестер. После того, как она встретила в лесу охотника, Алу ощутила пробуждение загадочной природы волка внутри себя. Кто же она — волк или собака? Чтобы найти ответ на этот вопрос, Алу отправляется в путешествие по бескрайним просторам Аляски, в котором ее будет сопровождать любящий отец Балто.

Режиссер: Фил Вайнштейн
Продюсер: Фил Вайнштейн, Дэвид В. Кинг
Персонажи: Морис ЛаМарш, Джоди Бенсон, Лэйси Чэберт, Дэвид Кэрредин, Марк Хэмилл, Чарльз Флайшер, Питер МакНикол, Роб Полсен, Николетт Литтл и др.

Дата мировой премьеры: 19 февраля 2002


Продолжительность: 01:15:26
Качество видео: DVDRip

Видеокодек: MPEG4, XviD
Битрейт видео: 1 928 Kbps (0.262 bit/pixel)
Размер кадра: 640x480 (4:3), 23.976 fps
Аудио #1: AC-3, 48.0 KHz, 2 ch, 224 Kbps, CBR (украинский)
Аудио #2: AC-3, 48.0 KHz, 6 ch, 448 Kbps, CBR (английский)
E:\Фільми\Balto. Dilogy\Balto Wolf Quest (2002) [Ukr, Eng] DVDRip.avi
General
Complete name : E:\Фільми\Balto. Dilogy\Balto Wolf Quest (2002) [Ukr, Eng] DVDRip.avi
Format : AVI
Format/Info : Audio Video Interleave
File size : 1.38 GiB
Duration : 1h 15mn
Overall bit rate : 2 614 Kbps
Writing application : VirtualDubMod 1.5.10.2 (build 2540/release)
Writing library : VirtualDubMod build 2540/release
Video #0
ID : 0
Format : MPEG-4 Visual
Format profile : Advanced Simple@L5
Format settings, BVOP : 3
Format settings, QPel : No
Format settings, GMC : No warppoints
Format settings, Matrix : Default (H.263)
Codec ID : XVID
Codec ID/Hint : XviD
Duration : 1h 15mn
Bit rate : 1 928 Kbps
Width : 640 pixels
Height : 480 pixels
Display aspect ratio : 4:3
Frame rate : 23.976 fps
Color space : YUV
Chroma subsampling : 4:2:0
Bit depth : 8 bits
Scan type : Progressive
Compression mode : Lossy
Bits/(Pixel*Frame) : 0.262
Stream size : 1.02 GiB (74%)
Writing library : XviD 1.2.1 (UTC 2008-12-04)
Audio #1
ID : 1
Format : AC-3
Format/Info : Audio Coding 3
Mode extension : CM (complete main)
Format settings, Endianness : Big
Codec ID : 2000
Duration : 1h 15mn
Bit rate mode : Constant
Bit rate : 224 Kbps
Channel count : 2 channels
Channel positions : Front: L R
Sampling rate : 48.0 KHz
Bit depth : 16 bits
Compression mode : Lossy
Stream size : 121 MiB (9%)
Alignment : Split accross interleaves
Interleave, duration : 42 ms (1.00 video frame)
Interleave, preload duration : 500 ms
Audio #2
ID : 2
Format : AC-3
Format/Info : Audio Coding 3
Mode extension : CM (complete main)
Format settings, Endianness : Big
Codec ID : 2000
Duration : 1h 15mn
Bit rate mode : Constant
Bit rate : 448 Kbps
Channel count : 6 channels
Channel positions : Front: L C R, Side: L R, LFE
Sampling rate : 48.0 KHz
Bit depth : 16 bits
Compression mode : Lossy
Stream size : 242 MiB (17%)
Alignment : Split accross interleaves
Interleave, duration : 42 ms (1.00 video frame)
Interleave, preload duration : 500 ms
Как часто бывает, после первой, успешной, и вполне законченной части, продолжение которой врядли планировалось, выпускают вторую.

Это уже давно ставшая обыденной практика, как правило, приучила ожидать от такого продолжения уровень, заметно ниже первой части. Стоит признать, что история знает и примеры успешного результата, вот только «Балто 2» к таким отнести нельзя…

Если проводить сравнение с 1-й частью, то тут сюжет решили запутать, вероятно в надежде зрителя заинтриговать. Нельзя сказать, что это у них вышло, по большему счету, сюжет больше путает, и вводит в смятенье, все несколько затянуто, нет интриги и действия, как было в первой части. Вдобавок, сценарист решил сделать упор на мистику…

Ощущается так-же и другой подход к показу сцен, больше сцен с «поворотами» камер, невольно чувствуется различие в анимации, и мимике героев, стало и меньше смешных моментов. Отличилась эта часть и классической чертой большинства мультфильмов — музыкальными композициями, исполняемыми персонажами.

Многое можно списать на совершенно другую команду, делавших мультфильм. Новый режиссер, продюссеры. Сценарист. Что тоже очень немаловажно — композитор.

И хоть им не удалось сделать достойное продолжение, которое можно было-бы поставить в ряд с первым фильмом, все-же, их работа вправе заслужить внимание, поскольку возвращает нас в мир Балто, к знакомым героям, и продолжению истории.
Скриншоты:




Все релизы мультфильма на NNM-club

Время раздачи: по возможности ежедневно (до 10 сидов)
[NNM-Club.me]_Balto. Dilogy.torrent
 Торрент: Платиновая раздача  Зарегистрирован
 
Скачать


Примагнититься
 Зарегистрирован:   24 Фев 2014 16:13:23
 Размер:   2.83 GB  (
 Рейтинг:   4.7 (Голосов: 21)
 Поблагодарили:   101
 Проверка:   Оформление проверено модератором 26 Фев 2014 09:14:47
Как cкачать  ·  Как раздать  ·  Правильно оформить  ·  Поднять ратио!  
Показать сообщения:   
Начать новую тему   Ответить на тему    Торрент-трекер NNM-Club -> Мультфильмы -> Зарубежные Мультфильмы (коллекции, сборники / *логии) Часовой пояс: GMT + 3
Страница 1 из 1