Классический форум-трекер
canvas not supported
Нас вместе: 4 235 085

Сахара / Sahara (2005) BDRip [H.264/720p-LQ] [Hi10P]


 
 
RSS
Начать новую тему   Ответить на тему    Торрент-трекер NNM-Club -> Зарубежное кино -> Зарубежные Фильмы (HD, FHD)
Автор Сообщение
sinteros ®
Стаж: 15 лет 5 мес.
Сообщений: 562
Ratio: 65.353
Поблагодарили: 62358
100%
Сахара / Sahara (2005) BDRip [H.264/720p-LQ] [Hi10P]
Год выпуска: 2005
Жанр: Боевик, Приключения, Комедия
Перевод: Профессиональный (дублированный), Авторский (одноголосый закадровый)x2, Украинский (многоголосый), Украинский (двухголосый)
Оригинальная аудио дорожка: Английская
Язык субтитров: Русский (R5, Tamerlan), Английский
Вид субтитров: Вшитые

Описание фильма:
Неистребимая жажда приключений толкает Дирка Пита в одну из самых опасных областей Западной Африки. Поиск несметных сокровищ Нила сопровождается страшной тайной — засекреченный «корабль смерти» повинен в гибели людей.
Питу, вместе с другом, необходимо держать ухо востро, собрав воедино смекалку, мужество и героизм, чтобы помочь доктору Еве Рохас победить таинственную болезнь, уносящую человеческие жизни в результате действия и желания себе же подобных.

Режиссер: Брек Эйснер

Актеры: Мэттью МакКонахи, Пенелопа Крус, Стив Зан, Уильям Х. Мэйси, Делрой Линдо, Ленни Джеймс, Патрик Мэлахайд, Рэйн Уилсон, Ламбер Вильсон, Роберт Кавана

Качество видео: BDRip
Продолжительность: 02:04:24



Основной файл весит 2,93гб с одной звуковой дорожкой!

Формат: MKV
Видео: MPEG-4 AVC/H.264, 1280x536(2,40:1), 23,976fps, 2868 Кbps, 0.174bit/pixel
Аудио 1: DUB Russian, AC3, 6ch, 48 kHz, 448 kbps, (Дубляж - R5, Супербит)
Аудио 2: AVO Russian, AC3, 6ch, 48 kHz, 448 kbps, (Одноголосый - Королев) - Отдельным файлом
Аудио 3: AVO Russian, AC3, 2ch, 48 kHz, 192 kbps, (Одноголосый - Гаврилов) - Отдельным файлом
Аудио 4: MVO Ukrainian, AC3, 2ch, 48 kHz, 192 kbps, (Многоголосый - ICTV) - Отдельным файлом
Аудио 5: DVO Ukrainian, AC3, 2ch, 48 kHz, 192 kbps, (Двухголосый - 1+1) - Отдельным файлом
Аудио 6: English, AC3, 6ch, 48 kHz, 448 kbps, (Оригинал) - Отдельным файлом
Общее
Полное имя : Сахара (2005) BDRip-AVC.mkv
Формат : Matroska
Версия формата : Version 4 / Version 2
Размер файла : 4,22 Гбайт
Продолжительность : 2 ч. 4 м.
Общий поток : 4853 Кбит/сек
Название фильма : Сахара / Sahara (2005) BDRip-AVC (Sinteros)
Программа кодирования : mkvmerge v6.8.0 ('Theme for Great Cities') 64bit built on Mar 2 2014 21:34:26
Библиотека кодирования : libebml v1.3.0 + libmatroska v1.4.1
Attachment : Yes

Видео
Идентификатор : 1
Формат : AVC
Формат/Информация : Advanced Video Codec
Профиль формата : High 10@L4.1
Параметр CABAC формата : Да
Параметр ReFrames формата : 11 кадров
Идентификатор кодека : V_MPEG4/ISO/AVC
Продолжительность : 2 ч. 4 м.
Битрейт : 2868 Кбит/сек
Ширина : 1280 пикселей
Высота : 536 пикселей
Соотношение сторон : 2,40:1
Режим частоты кадров : Постоянный
Частота кадров : 23,976 кадра/сек
Цветовое пространство : YUV
Субдискретизация насыщенности : 4:2:0
Битовая глубина : 10 бит
Тип развёртки : Прогрессивная
Бит/(Пиксели*Кадры) : 0.174
Размер потока : 2,47 Гбайт (58%)
Заголовок : MPEG-4 AVC/H.264, 1280x536(2,40:1), 23,976fps, 2868 Кbps, 0.174bit/pixel
Библиотека кодирования : x264 core 133 r2334 a3ac64b
Настройки программы : cabac=1 / ref=11 / deblock=1:-1:-1 / analyse=0x3:0x133 / me=tesa / subme=10 / psy=1 / psy_rd=1.00:0.15 / mixed_ref=1 / me_range=24 / chroma_me=1 / trellis=2 / 8x8dct=1 / cqm=0 / deadzone=21,11 / fast_pskip=1 / chroma_qp_offset=-3 / threads=12 / lookahead_threads=1 / sliced_threads=0 / nr=0 / decimate=1 / interlaced=0 / bluray_compat=0 / constrained_intra=0 / bframes=6 / b_pyramid=2 / b_adapt=2 / b_bias=0 / direct=1 / weightb=1 / open_gop=0 / weightp=2 / keyint=250 / keyint_min=23 / scenecut=40 / intra_refresh=0 / rc_lookahead=60 / rc=crf / mbtree=1 / crf=18.0 / qcomp=0.60 / qpmin=0 / qpmax=81 / qpstep=4 / ip_ratio=1.40 / aq=1:1.00
Язык : English
Default : Да
Forced : Нет

Аудио #1
Идентификатор : 2
Формат : AC-3
Формат/Информация : Audio Coding 3
Расширение режима : CM (complete main)
Параметр Endianness формата : Big
Идентификатор кодека : A_AC3
Продолжительность : 2 ч. 4 м.
Вид битрейта : Постоянный
Битрейт : 448 Кбит/сек
Каналы : 6 каналов
Расположение каналов : Front: L C R, Side: L R, LFE
Частота : 48,0 КГц
Битовая глубина : 16 бит
Метод сжатия : С потерями
Размер потока : 399 Мбайт (9%)
Заголовок : DUB Russian, AC3, 6ch, 48 kHz, 448 kbps, (Дубляж - R5, Супербит)
Язык : Russian
Default : Да
Forced : Нет

Аудио #2 - Отдельным файлом
Идентификатор : 3
Формат : AC-3
Формат/Информация : Audio Coding 3
Расширение режима : CM (complete main)
Параметр Endianness формата : Big
Идентификатор кодека : A_AC3
Продолжительность : 2 ч. 4 м.
Вид битрейта : Постоянный
Битрейт : 448 Кбит/сек
Каналы : 6 каналов
Расположение каналов : Front: L C R, Side: L R, LFE
Частота : 48,0 КГц
Битовая глубина : 16 бит
Метод сжатия : С потерями
Размер потока : 399 Мбайт (9%)
Заголовок : AVO Russian, AC3, 6ch, 48 kHz, 448 kbps, (Одноголосый - Королев) - Отдельным файлом
Язык : Russian
Default : Нет
Forced : Нет

Аудио #3 - Отдельным файлом
Идентификатор : 4
Формат : AC-3
Формат/Информация : Audio Coding 3
Расширение режима : CM (complete main)
Параметр Endianness формата : Big
Идентификатор кодека : A_AC3
Продолжительность : 2 ч. 4 м.
Вид битрейта : Постоянный
Битрейт : 192 Кбит/сек
Каналы : 2 канала
Расположение каналов : Front: L R
Частота : 48,0 КГц
Битовая глубина : 16 бит
Метод сжатия : С потерями
Размер потока : 171 Мбайт (4%)
Заголовок : AVO Russian, AC3, 2ch, 48 kHz, 192 kbps, (Одноголосый - Гаврилов) - Отдельным файлом
Язык : Russian
Default : Нет
Forced : Нет

Аудио #4 - Отдельным файлом
Идентификатор : 5
Формат : AC-3
Формат/Информация : Audio Coding 3
Расширение режима : CM (complete main)
Параметр Endianness формата : Big
Идентификатор кодека : A_AC3
Продолжительность : 2 ч. 4 м.
Вид битрейта : Постоянный
Битрейт : 192 Кбит/сек
Каналы : 2 канала
Расположение каналов : Front: L R
Частота : 48,0 КГц
Битовая глубина : 16 бит
Метод сжатия : С потерями
Размер потока : 171 Мбайт (4%)
Заголовок : MVO Ukrainian, AC3, 2ch, 48 kHz, 192 kbps, (Многоголосый - ICTV) - Отдельным файлом
Язык : Ukrainian
Default : Нет
Forced : Нет

Аудио #5 - Отдельным файлом
Идентификатор : 6
Формат : AC-3
Формат/Информация : Audio Coding 3
Расширение режима : CM (complete main)
Параметр Endianness формата : Big
Идентификатор кодека : A_AC3
Продолжительность : 2 ч. 4 м.
Вид битрейта : Постоянный
Битрейт : 192 Кбит/сек
Каналы : 2 канала
Расположение каналов : Front: L R
Частота : 48,0 КГц
Битовая глубина : 16 бит
Метод сжатия : С потерями
Размер потока : 171 Мбайт (4%)
Заголовок : DVO Ukrainian, AC3, 2ch, 48 kHz, 192 kbps, (Двухголосый - 1+1) - Отдельным файлом
Язык : Ukrainian
Default : Нет
Forced : Нет

Аудио #6 - Отдельным файлом
Идентификатор : 7
Формат : AC-3
Формат/Информация : Audio Coding 3
Расширение режима : CM (complete main)
Параметр Endianness формата : Big
Идентификатор кодека : A_AC3
Продолжительность : 2 ч. 4 м.
Вид битрейта : Постоянный
Битрейт : 448 Кбит/сек
Каналы : 6 каналов
Расположение каналов : Front: L C R, Side: L R, LFE
Частота : 48,0 КГц
Битовая глубина : 16 бит
Метод сжатия : С потерями
Размер потока : 399 Мбайт (9%)
Заголовок : English, AC3, 6ch, 48 kHz, 448 kbps, (Оригинал) - Отдельным файлом
Язык : English
Default : Нет
Forced : Нет

Текст #1
Идентификатор : 8
Формат : UTF-8
Идентификатор кодека : S_TEXT/UTF8
Идентификатор кодека/Информация : UTF-8 Plain Text
Заголовок : R5
Язык : Russian
Default : Нет
Forced : Нет

Текст #2
Идентификатор : 9
Формат : UTF-8
Идентификатор кодека : S_TEXT/UTF8
Идентификатор кодека/Информация : UTF-8 Plain Text
Заголовок : Tamerlan
Язык : Russian
Default : Нет
Forced : Нет

Текст #3
Идентификатор : 10
Формат : UTF-8
Идентификатор кодека : S_TEXT/UTF8
Идентификатор кодека/Информация : UTF-8 Plain Text
Язык : English
Default : Нет
Forced : Нет
Примечание: Рип в High 10 Profile, в настоящее время не поддерживается большинством аппаратных проигрывателей, поэтому предназначен исключительно для воспроизведения на ПК.
Для корректного воспроизведения может потребоваться обновление ПО.

Скриншоты:



Сахара на NNM-club

Время раздачи: 24/7 (жду до 10-15 скачавших, а дальше могу уйти с радачи)
[NNM-Club.me]_Sahara (2005) BDRip-AVC.torrent
 Торрент: Платиновая раздача  Зарегистрирован
 
Скачать


Примагнититься
 Зарегистрирован:   16 Мар 2014 18:05:10
 Размер:   4.22 GB  (
 Рейтинг:   4.7 (Голосов: 56)
 Поблагодарили:   192
 Проверка:   Оформление проверено модератором 18 Мар 2014 10:48:31
Как cкачать  ·  Как раздать  ·  Правильно оформить  ·  Поднять ратио!  
Lugatto
Стаж: 11 лет 6 мес.
Сообщений: 49
Ratio: 170.602
100%
Подскажите, пожалуйста, как сделать, чтобы появилось изображение
через медиа проигрыватель - сейчас только звук
sinteros ®
Стаж: 15 лет 5 мес.
Сообщений: 562
Ratio: 65.353
Поблагодарили: 62358
100%
Lugatto писал(а): Перейти к сообщению
Подскажите, пожалуйста, как сделать, чтобы появилось изображение
через медиа проигрыватель - сейчас только звук


Если ваш медиа проигрыватель не поддерживает данного формата то к сожалению не как.
[Hi10P] практически не поддерживается железными плеерами.
Lugatto
Стаж: 11 лет 6 мес.
Сообщений: 49
Ratio: 170.602
100%
sinteros
Спасибо!
Показать сообщения:   
Начать новую тему   Ответить на тему    Торрент-трекер NNM-Club -> Зарубежное кино -> Зарубежные Фильмы (HD, FHD) Часовой пояс: GMT + 3
Страница 1 из 1