Классический форум-трекер
canvas not supported
Нас вместе: 4 210 943

Физрук (2014) WEBRip [сезон 01, серия 01]


Страницы:  1, 2, 3, 4  След. 
 
RSS
Начать новую тему   Ответить на тему    Торрент-трекер NNM-Club -> Отечественные сериалы
Автор Сообщение
kondor112 ®
Стаж: 9 лет 2 мес.
Сообщений: 84
Ratio: 12.55
Поблагодарили: 5458
100%
Физрук (2014) WEBRip [сезон 01 серия 01]
Год выпуска: 2014
Жанр: Комедия

Релиз группа: Оригинал (русский)

Дата российской премьеры: 7 апреля 2014

Режиссер: Фёдор Стуков, Сергей Сенцов
Актеры: Дмитрий Нагиев, Евгений Кулаков, Юрий Устюгов, Егор Пежемский, Валентин Юнин

Описание фильма:
Сериал расскажет о начальнике охраны крупного бизнесмена, которого хозяин увольняет за устаревшие методы работы, приобретенные главным героем во время бурного бандитского прошлого. Новоиспеченный безработный и бывший начальник охраны устраивается физруком в школу, где учится сын его бывшего босса, в надежде наладить с ним отношения и вернуться на прежнюю работу.
General
Format : AVI
Format/Info : Audio Video Interleave
File size : 7.96 MiB
Duration : 39s 680ms
Overall bit rate : 1 683 Kbps

Video
ID : 0
Format : MPEG-4 Visual
Format profile : Advanced Simple@L5
Format settings, BVOP : 2
Format settings, QPel : No
Format settings, GMC : No warppoints
Format settings, Matrix : Default (H.263)
Muxing mode : Packed bitstream
Codec ID : XVID
Codec ID/Hint : XviD
Duration : 39s 320ms
Bit rate : 1 559 Kbps
Width : 720 pixels
Height : 352 pixels
Display aspect ratio : 2.045
Frame rate : 25.000 fps
Color space : YUV
Chroma subsampling : 4:2:0
Bit depth : 8 bits
Scan type : Progressive
Compression mode : Lossy
Bits/(Pixel*Frame) : 0.246
Stream size : 7.31 MiB (92%)
Writing library : XviD 64

Audio
ID : 1
Format : MPEG Audio
Format version : Version 1
Format profile : Layer 3
Mode : Joint stereo
Mode extension : MS Stereo
Codec ID : 55
Codec ID/Hint : MP3
Duration : 39s 680ms
Bit rate mode : Constant
Bit rate : 128 Kbps
Channel(s) : 2 channels
Sampling rate : 48.0 KHz
Compression mode : Lossy
Delay relative to video : 12ms
Stream size : 620 KiB (8%)
Alignment : Split accross interleaves
Interleave, duration : 40 ms (0.99 video frame)
Продолжительность: ~00:25:00
Качество видео: WEBRip
Сэмпл: Скачать сэмпл

Видеокодек: Xvid
Битрейт видео: ~1 559 Kbps
Размер кадра: 720x352
Аудиокодек: MP3
Битрейт аудио: 128 Kbps

Скриншоты:


Все релизы «Физрук» на трекере NNM-Club
Время раздачи: По возможности 24/7 (круглосуточно)
 Торрент: Платиновая раздача  Зарегистрирован
 
Скачать


Примагнититься
 Зарегистрирован:   22 Мар 2014 21:23:26
 Размер:   315 MB  (
 Рейтинг:   4.1 (Голосов: 478)
 Поблагодарили:   1061
 Проверка:   Оформление проверено модератором 22 Мар 2014 21:51:20
Как cкачать  ·  Как раздать  ·  Правильно оформить  ·  Поднять ратио!  
Teboyev
Стаж: 12 лет 5 мес.
Сообщений: 14
Ratio: 2.516
Поблагодарили: 69
100%
Откуда: Wien
austria.gif
Прикольный сериал. Спасибо.

_________________
Когда ты жил, ты не успеть боялся. И что теперь, с чем остался? В метаньях жизнь на самотек. За все потери твой урок.
Nokarykyta
Стаж: 9 лет
Сообщений: 1
Ratio: 4.919
0%
Когда 2 серия ориентировочно?
kondor112 ®
Стаж: 9 лет 2 мес.
Сообщений: 84
Ratio: 12.55
Поблагодарили: 5458
100%
Торрент обновлён перекачайте пожалуйста

Добавлено спустя 16 минут 36 секунд:

Nokarykyta писал(а): Перейти к сообщению
Когда 2 серия ориентировочно?

Точно ничего сказать не могу. Где-то должна появиться в Апреле.
Skv_63
Стаж: 10 лет
Сообщений: 51
Ratio: 188.111
Поблагодарили: 372
100%
Откуда: Самара
ussr.gif
Огонь! Спасибо!
Kleiner
Стаж: 12 лет 9 мес.
Сообщений: 71
Ratio: 1.324
19.68%
germany.gif
Сарделькой ее назвал, сарделиной))) Спасибо!
kians
Стаж: 11 лет 2 мес.
Сообщений: 205
Ratio: 6.116
100%
Откуда: Оренбург
ussr.gif
Nokarykyta писал(а): Перейти к сообщению
Когда 2 серия ориентировочно?

с 7 апреля с понедельника по четверг
DNX
Стаж: 13 лет 7 мес.
Сообщений: 22
Ratio: 14.882
11.38%
russia.gif
как раз кухня закончится и начнется этот сериал.
agentholder
Стаж: 10 лет
Сообщений: 2
Ratio: 18.384
100%
Ждем продолжения.
saranindm
Стаж: 12 лет 6 мес.
Сообщений: 41
Ratio: 11.529
Раздал: 20.04 TB
3.93%
Годится
Imvegas
Стаж: 9 лет 11 мес.
Сообщений: 79
Ratio: 3.989
Поблагодарили: 450
100%
Откуда: UA
ussr.gif
Про воздух шутка путевая! :D

_________________
Shut up and drive!
romanuse71
Стаж: 12 лет 4 мес.
Сообщений: 9
Ratio: 1.896
Раздал: 3.078 TB
35.36%
через чур быдло физрук. я сам люблю посмотреть в таком стиле про гопоту и нагиева можно сказать обожаю но после этой серии смотреть уже неинтересно.все в таком духе будет. тупо. имхо)
valya2013
Стаж: 10 лет 5 мес.
Сообщений: 128
Ratio: 1.479
100%
russia.gif
Супер, классно посмеялся!!! :клево:

_________________

Мне чужого не надо, но своё я возьму, чьё бы оно ни было!
Eagle10
Стаж: 13 лет
Сообщений: 192
Ratio: 2.232
100%
Откуда: Россия
russia.gif
Надо, чтобы физрук как можно меньше походил на персонажа Задова - то есть , как можно меньше "фанеры", вызывающей не смех, а рвотные позывы.
Начало , вроде , неплохое; блин, кто же сможет раскрыть потенциал Нагиева ?
По - моему, одна роль была, где он сыграл действительно на высоте: "Чистилище...".То есть там , где он перевоплотился в отморозка полностью, не смешивая игру с шутовством.
А дальше - ни то, ни сё...
sined1
Стаж: 13 лет 1 мес.
Сообщений: 92
Ratio: 4.852
100%
Ребята! А это пилотная серия была? Как так - что первая серия вышла - а весь фильм только в Апреле?
Показать сообщения:   
Начать новую тему   Ответить на тему    Торрент-трекер NNM-Club -> Отечественные сериалы Часовой пояс: GMT + 3
Страницы:  1, 2, 3, 4  След.
Страница 1 из 4