Классический форум-трекер
canvas not supported
Нас вместе: 4 231 772

Побег из Шоушенка / The Shawshank Redemption (1994) BDRip [H.264/720p-LQ]


 
 
RSS
Начать новую тему   Ответить на тему    Торрент-трекер NNM-Club -> Классика кино и Старые фильмы до 90-х -> Зарубежная Классика (HD, FHD, UHD, 3D)
Автор Сообщение
avdeev_vse ®
Стаж: 12 лет 3 мес.
Сообщений: 922
Ratio: 286.449
Поблагодарили: 147997
100%
Откуда: Северная столица России
nnm-club.gif
Побег из Шоушенка / The Shawshank Redemption (1994) BDRip«Страх - это кандалы. Надежда - это свобода»
Год выпуска: 1994
Производство: США
Жанр: драма, криминал

Дата мировой премьеры: 10 сентября 1994
Дата выхода DVD: 1 сентября 1999, «Videogram»
Дата выхода Blu Ray: 27 августа 2009, «Союз-Видео»

Режиссер: Фрэнк Дарабонт
Актеры: Тим Роббинс, Морган Фриман, Боб Гантон, Уильям Сэдлер, Клэнси Браун, Джил Беллоуз, Марк Ролстон, Джеймс Уайтмор, Джеффри ДеМун, Ларри Бранденбург, Нил Гвинтоли, Брайан Либби, Дэвид Прувал, Джозеф Раньо, Джуд Чикколелла, Пол МакКрейн, Рени Блейн, Скотт Манн, Джон Хортон, Гордон Грин, Альфонсо Фриман

Описание фильма:
Шоушенк название тюрьмы. И если тебе нет еще 30-ти, а ты получаешь пожизненное, то приготовься к худшему: для тебя выхода из Шоушенка не будет! Актриса Рита Хэйворт любимица всей Америки. Энди Дюфрейну она тоже очень нравилась. Рита никогда не слышала о существовании Энди, однако жизнь Дюфрейну, бывшему вице-президенту крупного банка, осужденному за убийство жены и ее любовника, Рита Хэйворт все-таки спасла.

Перевод: Профессиональный (многоголосый, закадровый) x6, Профессиональный (двуголосый, закадровый) х3, Профессиональный (одноголосый, закадровый) х7
Субтитры: Вшитые отключаемые
Язык субтитров: Русский, Английский

Рейтинг MPAA: R (лицам до 17 лет обязательно присутствие взрослого)
Возраст: 16+



Продолжительность: 02:22:33
Качество видео: [H.264/720p-LQ]

Видеокодек: MPEG-4 AVC/H.264
Битрейт видео: ~3351 kbps
Размер кадра: 1280x720, 23,976 fps
Аудио #1: AC3, 48.0 KHz, 6 ch, 384 Кбит/с) (Русский, Профессиональный многоголосый / LDV)
Аудио #2: AC3, 48.0 KHz, 6 ch, 384 Кбит/с) (Русский, Профессиональный двухголосый / Videogram)
Аудио #3: AC3, 48.0 KHz, 6 ch, 384 Кбит/с) (Русский, Профессиональный двухголосый / Видеофильм)
Аудио #4: AC3, 48.0 KHz, 6 ch, 384 Кбит/с) (Русский, Профессиональный многоголосый / Киномания)
Аудио #5: AC3, 48.0 KHz, 6 ch, 384 Кбит/с) (Русский, Профессиональный многоголосый / Союз-Видео)
Аудио #6: AC3, 48.0 KHz, 2 ch, 192 Кбит/с) (Русский, Профессиональный многоголосый / ОРТ)
Аудио #7: AC3, 48.0 KHz, 2 ch, 192 Кбит/с) (Русский, Профессиональный многоголосый / РТР / ТВЦ)
Аудио #8: AC3, 48.0 KHz, 2 ch, 192 Кбит/с) (Русский, Профессиональный многоголосый / СТС)
Аудио #9: AC3, 48.0 KHz, 2 ch, 192 Кбит/с) (Русский, Профессиональный двухголосый / НТВ)
Аудио #10: AC3, 48.0 KHz, 6 ch, 384 Кбит/с) (Русский, Авторский одноголосый / Ю. Сербин (поздний перевод)
Аудио #11: AC3, 48.0 KHz, 6 ch, 384 Кбит/с) (Русский, Авторский одноголосый / Ю. Сербин (ранний перевод)
Аудио #12: AC3, 48.0 KHz, 6 ch, 384 Кбит/с) (Русский, Авторский одноголосый / Ю. Живов)
Аудио #13: AC3, 48.0 KHz, 6 ch, 384 Кбит/с) (Русский, Авторский одноголосый / А. Гаврилов)
Аудио #14: AC3, 48.0 KHz, 6 ch, 384 Кбит/с) (Русский, Авторский одноголосый / В. Горчаков)
Аудио #15: AC3, 48.0 KHz, 2 ch, 192 Кбит/с) (Русский, Авторский одноголосый / С. Визгунов)
Аудио #16: AC3, 48.0 KHz, 2 ch, 192 Кбит/с) (Русский, Авторский одноголосый / А. Алексеев)
Аудио #17: AC3, 48.0 KHz, 2 ch, 192 Кбит/с) (Украинский, Профессиональный многоголосый)
Аудио #18: AC3, 48.0 KHz, 6 ch, 384 Кбит/с) (Английский)
Оскар, 1995 год
Номинации (7):
• Лучший фильм
• Лучшая мужская роль (Морган Фриман)
• Лучший адаптированный сценарий
• Лучшая работа оператора
• Лучший звук
• Лучший монтаж
• Лучший оригинальный саундтрек
Золотой глобус, 1995 год
Номинации (2):
• Лучшая мужская роль (драма) (Морган Фриман)
• Лучший сценарий
Сатурн, 1995 год
Номинации (2):
• Лучший сценарий
• Лучший приключенческий фильм, боевик или триллер
Премия Гильдии актеров, 1995 год
Номинации (2):
• Лучшая мужская роль (Тим Роббинс)
• Лучшая мужская роль (Морган Фриман)
• Фильм снят по мотивам повести Стивена Кинга «Рита Хейуорт и спасение из Шоушенка» (Rita Hayworth and Shawshank Redemption), опубликованной в составе сборника «Четыре сезона» (Different Seasons, 1982).
• Мексиканское райское местечко Зихуатанехо действительно существует. Это туристский курортный город на тихоокеанском побережье мексиканского штата Герреро.
• Номер камеры Реда — 237. Эти же цифры фигурируют в обеих экранизациях романа Стивена Кинга «Сияние» (кинофильм 1980 года и мини-сериал 1997 года) — там это номер комнаты отеля, в которой обитает призрак женщины. Также эти цифры появляются в фильме «Останься со мной» (1986), снятом по рассказу Стивена Кинга «Тело», — там это сумма мелочи, собранной четырьмя юными героями ($2,37).
• Съемки проходили в Мэнсфилдской исправительной колонии, что в штате Огайо. Тюрьма находилась в таком плачевном состоянии, что пришлось потратить немало бюджетных средств на приведение её в должный вид.
• Стивен Кинг согласился продать права на свое произведение практически даром, т. к. с Фрэнком их связывает давняя крепкая дружба. Произошло это после того, как Фрэнк довольно успешно экранизировал рассказ Кинга «Женщина в палате». С тех пор они практически не виделись, но, тем не менее, вели активную переписку. Встреча произошла лишь после того, как Фрэнк проявил недюжий интерес к «Шоушенку».
• Остальные факты на kinopoisk.ru
За видеоряд, спасибо Xenosag.
За набор дорог, спасибо Аль-Муалим.
За аудиодороги Ю. Сербина, спасибо Джосс.
Скриншоты:
Код: выделить все
Формат                                   : Matroska
Версия формата                           : Version 2
Размер файла                             : 9,06 Гбайт
Продолжительность                        : 2 ч. 22 м.
Общий поток                              : 9100 Кбит/сек
Название фильма                          : The Shawshank Redemption (1994)
Дата кодирования                         : UTC 2014-05-03 16:22:54
Программа кодирования                    : mkvmerge v6.9.1 ('Blue Panther') 64bit built on Apr 18 2014 18:23:38
Библиотека кодирования                   : libebml v1.3.0 + libmatroska v1.4.1

Видео
Идентификатор                            : 1
Формат                                   : AVC
Формат/Информация                        : Advanced Video Codec
Профиль формата                          : High@L4.1
Параметр CABAC формата                   : Да
Параметр ReFrames формата                : 9 кадров
Идентификатор кодека                     : V_MPEG4/ISO/AVC
Продолжительность                        : 2 ч. 22 м.
Битрейт                                  : 3351 Кбит/сек
Ширина                                   : 1280 пикселей
Высота                                   : 720 пикселей
Соотношение сторон                       : 16:9
Режим частоты кадров                     : Постоянный
Частота кадров                           : 23,976 кадра/сек
Цветовое пространство                    : YUV
Субдискретизация насыщенности            : 4:2:0
Битовая глубина                          : 8 бит
Тип развёртки                            : Прогрессивная
Бит/(Пиксели*Кадры)                      : 0.152
Размер потока                            : 3,34 Гбайт (37%)
Библиотека кодирования                   : x264 core 94 r1583 7608d73
Настройки программы                      : cabac=1 / ref=9 / deblock=1:-2:-2 / analyse=0x3:0x133 / me=umh / subme=9 / psy=1 / psy_rd=1.15:0.00 / mixed_ref=1 / me_range=64 / chroma_me=1 / trellis=2 / 8x8dct=1 / cqm=0 / deadzone=21,11 / fast_pskip=0 / chroma_qp_offset=-2 / threads=9 / sliced_threads=0 / nr=0 / decimate=1 / interlaced=0 / constrained_intra=0 / bframes=16 / b_pyramid=2 / b_adapt=2 / b_bias=0 / direct=3 / weightb=1 / weightp=2 / keyint=250 / keyint_min=25 / scenecut=40 / intra_refresh=0 / rc_lookahead=60 / rc=crf / mbtree=0 / crf=19.0 / qcomp=0.60 / qpmin=10 / qpmax=51 / qpstep=4 / vbv_maxrate=50000 / vbv_bufsize=50000 / crf-max=0.0 / ip_ratio=1.40 / pb_ratio=1.30 / aq=1:1.10 / nal_hrd=none
Язык                                     : English
Default                                  : Да
Forced                                   : Нет

Аудио #1
Идентификатор                            : 2
Формат                                   : AC-3
Формат/Информация                        : Audio Coding 3
Расширение режима                        : CM (complete main)
Параметр Endianness формата              : Big
Идентификатор кодека                     : A_AC3
Продолжительность                        : 2 ч. 22 м.
Вид битрейта                             : Постоянный
Битрейт                                  : 384 Кбит/сек
Каналы                                   : 6 каналов
Расположение каналов                     : Front: L C R, Side: L R, LFE
Частота                                  : 48,0 КГц
Битовая глубина                          : 16 бит
Метод сжатия                             : С потерями
Размер потока                            : 392 Мбайт (4%)
Заголовок                                : LDV
Язык                                     : Russian
Default                                  : Да
Forced                                   : Нет

Аудио #2
Идентификатор                            : 3
Формат                                   : AC-3
Формат/Информация                        : Audio Coding 3
Расширение режима                        : CM (complete main)
Параметр Endianness формата              : Big
Идентификатор кодека                     : A_AC3
Продолжительность                        : 2 ч. 22 м.
Вид битрейта                             : Постоянный
Битрейт                                  : 384 Кбит/сек
Каналы                                   : 6 каналов
Расположение каналов                     : Front: L C R, Side: L R, LFE
Частота                                  : 48,0 КГц
Битовая глубина                          : 16 бит
Метод сжатия                             : С потерями
Размер потока                            : 392 Мбайт (4%)
Заголовок                                : Videogram
Язык                                     : Russian
Default                                  : Нет
Forced                                   : Нет

Аудио #3
Идентификатор                            : 4
Формат                                   : AC-3
Формат/Информация                        : Audio Coding 3
Расширение режима                        : CM (complete main)
Параметр Endianness формата              : Big
Идентификатор кодека                     : A_AC3
Продолжительность                        : 2 ч. 22 м.
Вид битрейта                             : Постоянный
Битрейт                                  : 384 Кбит/сек
Каналы                                   : 6 каналов
Расположение каналов                     : Front: L C R, Side: L R, LFE
Частота                                  : 48,0 КГц
Битовая глубина                          : 16 бит
Метод сжатия                             : С потерями
Размер потока                            : 392 Мбайт (4%)
Заголовок                                : Видеофильм
Язык                                     : Russian
Default                                  : Нет
Forced                                   : Нет

Аудио #4
Идентификатор                            : 5
Формат                                   : AC-3
Формат/Информация                        : Audio Coding 3
Расширение режима                        : CM (complete main)
Параметр Endianness формата              : Big
Идентификатор кодека                     : A_AC3
Продолжительность                        : 2 ч. 22 м.
Вид битрейта                             : Постоянный
Битрейт                                  : 384 Кбит/сек
Каналы                                   : 6 каналов
Расположение каналов                     : Front: L C R, Side: L R, LFE
Частота                                  : 48,0 КГц
Битовая глубина                          : 16 бит
Метод сжатия                             : С потерями
Размер потока                            : 392 Мбайт (4%)
Заголовок                                : Киномания
Язык                                     : Russian
Default                                  : Нет
Forced                                   : Нет

Аудио #5
Идентификатор                            : 6
Формат                                   : AC-3
Формат/Информация                        : Audio Coding 3
Расширение режима                        : CM (complete main)
Параметр Endianness формата              : Big
Идентификатор кодека                     : A_AC3
Продолжительность                        : 2 ч. 22 м.
Вид битрейта                             : Постоянный
Битрейт                                  : 384 Кбит/сек
Каналы                                   : 6 каналов
Расположение каналов                     : Front: L C R, Side: L R, LFE
Частота                                  : 48,0 КГц
Битовая глубина                          : 16 бит
Метод сжатия                             : С потерями
Размер потока                            : 392 Мбайт (4%)
Заголовок                                : Союз-Видео
Язык                                     : Russian
Default                                  : Нет
Forced                                   : Нет

Аудио #6
Идентификатор                            : 7
Формат                                   : AC-3
Формат/Информация                        : Audio Coding 3
Расширение режима                        : CM (complete main)
Параметр Endianness формата              : Big
Идентификатор кодека                     : A_AC3
Продолжительность                        : 2 ч. 22 м.
Вид битрейта                             : Постоянный
Битрейт                                  : 192 Кбит/сек
Каналы                                   : 2 канала
Расположение каналов                     : Front: L R
Частота                                  : 48,0 КГц
Битовая глубина                          : 16 бит
Метод сжатия                             : С потерями
Размер потока                            : 196 Мбайт (2%)
Заголовок                                : ОРТ
Язык                                     : Russian
Default                                  : Нет
Forced                                   : Нет

Аудио #7
Идентификатор                            : 8
Формат                                   : AC-3
Формат/Информация                        : Audio Coding 3
Расширение режима                        : CM (complete main)
Параметр Endianness формата              : Big
Идентификатор кодека                     : A_AC3
Продолжительность                        : 2 ч. 22 м.
Вид битрейта                             : Постоянный
Битрейт                                  : 192 Кбит/сек
Каналы                                   : 2 канала
Расположение каналов                     : Front: L R
Частота                                  : 48,0 КГц
Битовая глубина                          : 16 бит
Метод сжатия                             : С потерями
Размер потока                            : 196 Мбайт (2%)
Заголовок                                : РТР / ТВЦ
Язык                                     : Russian
Default                                  : Нет
Forced                                   : Нет

Аудио #8
Идентификатор                            : 9
Формат                                   : AC-3
Формат/Информация                        : Audio Coding 3
Расширение режима                        : CM (complete main)
Параметр Endianness формата              : Big
Идентификатор кодека                     : A_AC3
Продолжительность                        : 2 ч. 22 м.
Вид битрейта                             : Постоянный
Битрейт                                  : 192 Кбит/сек
Каналы                                   : 2 канала
Расположение каналов                     : Front: L R
Частота                                  : 48,0 КГц
Битовая глубина                          : 16 бит
Метод сжатия                             : С потерями
Размер потока                            : 196 Мбайт (2%)
Заголовок                                : СТС
Язык                                     : Russian
Default                                  : Нет
Forced                                   : Нет

Аудио #9
Идентификатор                            : 10
Формат                                   : AC-3
Формат/Информация                        : Audio Coding 3
Расширение режима                        : CM (complete main)
Параметр Endianness формата              : Big
Идентификатор кодека                     : A_AC3
Продолжительность                        : 2 ч. 22 м.
Вид битрейта                             : Постоянный
Битрейт                                  : 192 Кбит/сек
Каналы                                   : 2 канала
Расположение каналов                     : Front: L R
Частота                                  : 48,0 КГц
Битовая глубина                          : 16 бит
Метод сжатия                             : С потерями
Размер потока                            : 196 Мбайт (2%)
Заголовок                                : НТВ
Язык                                     : Russian
Default                                  : Нет
Forced                                   : Нет

Аудио #10
Идентификатор                            : 11
Формат                                   : AC-3
Формат/Информация                        : Audio Coding 3
Расширение режима                        : CM (complete main)
Параметр Endianness формата              : Big
Идентификатор кодека                     : A_AC3
Продолжительность                        : 2 ч. 22 м.
Вид битрейта                             : Постоянный
Битрейт                                  : 384 Кбит/сек
Каналы                                   : 6 каналов
Расположение каналов                     : Front: L C R, Side: L R, LFE
Частота                                  : 48,0 КГц
Битовая глубина                          : 16 бит
Метод сжатия                             : С потерями
Размер потока                            : 392 Мбайт (4%)
Заголовок                                : Ю. Сербин (поздний перевод)
Язык                                     : Russian
Default                                  : Нет
Forced                                   : Нет

Аудио #11
Идентификатор                            : 12
Формат                                   : AC-3
Формат/Информация                        : Audio Coding 3
Расширение режима                        : CM (complete main)
Параметр Endianness формата              : Big
Идентификатор кодека                     : A_AC3
Продолжительность                        : 2 ч. 22 м.
Вид битрейта                             : Постоянный
Битрейт                                  : 384 Кбит/сек
Каналы                                   : 6 каналов
Расположение каналов                     : Front: L C R, Side: L R, LFE
Частота                                  : 48,0 КГц
Битовая глубина                          : 16 бит
Метод сжатия                             : С потерями
Размер потока                            : 392 Мбайт (4%)
Заголовок                                : Ю. Сербин (ранний перевод)
Язык                                     : Russian
Default                                  : Нет
Forced                                   : Нет

Аудио #12
Идентификатор                            : 13
Формат                                   : AC-3
Формат/Информация                        : Audio Coding 3
Расширение режима                        : CM (complete main)
Параметр Endianness формата              : Big
Идентификатор кодека                     : A_AC3
Продолжительность                        : 2 ч. 22 м.
Вид битрейта                             : Постоянный
Битрейт                                  : 384 Кбит/сек
Каналы                                   : 6 каналов
Расположение каналов                     : Front: L C R, Side: L R, LFE
Частота                                  : 48,0 КГц
Битовая глубина                          : 16 бит
Метод сжатия                             : С потерями
Размер потока                            : 392 Мбайт (4%)
Заголовок                                : Ю. Живов
Язык                                     : Russian
Default                                  : Нет
Forced                                   : Нет

Аудио #13
Идентификатор                            : 14
Формат                                   : AC-3
Формат/Информация                        : Audio Coding 3
Расширение режима                        : CM (complete main)
Параметр Endianness формата              : Big
Идентификатор кодека                     : A_AC3
Продолжительность                        : 2 ч. 22 м.
Вид битрейта                             : Постоянный
Битрейт                                  : 384 Кбит/сек
Каналы                                   : 6 каналов
Расположение каналов                     : Front: L C R, Side: L R, LFE
Частота                                  : 48,0 КГц
Битовая глубина                          : 16 бит
Метод сжатия                             : С потерями
Размер потока                            : 392 Мбайт (4%)
Заголовок                                : А. Гаврилов
Язык                                     : Russian
Default                                  : Нет
Forced                                   : Нет

Аудио #14
Идентификатор                            : 15
Формат                                   : AC-3
Формат/Информация                        : Audio Coding 3
Расширение режима                        : CM (complete main)
Параметр Endianness формата              : Big
Идентификатор кодека                     : A_AC3
Продолжительность                        : 2 ч. 22 м.
Вид битрейта                             : Постоянный
Битрейт                                  : 384 Кбит/сек
Каналы                                   : 6 каналов
Расположение каналов                     : Front: L C R, Side: L R, LFE
Частота                                  : 48,0 КГц
Битовая глубина                          : 16 бит
Метод сжатия                             : С потерями
Размер потока                            : 392 Мбайт (4%)
Заголовок                                : В. Горчаков
Язык                                     : Russian
Default                                  : Нет
Forced                                   : Нет

Аудио #15
Идентификатор                            : 16
Формат                                   : AC-3
Формат/Информация                        : Audio Coding 3
Расширение режима                        : CM (complete main)
Параметр Endianness формата              : Big
Идентификатор кодека                     : A_AC3
Продолжительность                        : 2 ч. 22 м.
Вид битрейта                             : Постоянный
Битрейт                                  : 192 Кбит/сек
Каналы                                   : 2 канала
Расположение каналов                     : Front: L R
Частота                                  : 48,0 КГц
Битовая глубина                          : 16 бит
Метод сжатия                             : С потерями
Размер потока                            : 196 Мбайт (2%)
Заголовок                                : С. Визгунов
Язык                                     : Russian
Default                                  : Нет
Forced                                   : Нет

Аудио #16
Идентификатор                            : 17
Формат                                   : AC-3
Формат/Информация                        : Audio Coding 3
Расширение режима                        : CM (complete main)
Параметр Endianness формата              : Big
Идентификатор кодека                     : A_AC3
Продолжительность                        : 2 ч. 22 м.
Вид битрейта                             : Постоянный
Битрейт                                  : 192 Кбит/сек
Каналы                                   : 2 канала
Расположение каналов                     : Front: L R
Частота                                  : 48,0 КГц
Битовая глубина                          : 16 бит
Метод сжатия                             : С потерями
Размер потока                            : 196 Мбайт (2%)
Заголовок                                : А. Алексеев
Язык                                     : Russian
Default                                  : Нет
Forced                                   : Нет

Аудио #17
Идентификатор                            : 18
Формат                                   : AC-3
Формат/Информация                        : Audio Coding 3
Расширение режима                        : CM (complete main)
Параметр Endianness формата              : Big
Идентификатор кодека                     : A_AC3
Продолжительность                        : 2 ч. 22 м.
Вид битрейта                             : Постоянный
Битрейт                                  : 192 Кбит/сек
Каналы                                   : 2 канала
Расположение каналов                     : Front: L R
Частота                                  : 48,0 КГц
Битовая глубина                          : 16 бит
Метод сжатия                             : С потерями
Размер потока                            : 196 Мбайт (2%)
Язык                                     : Ukrainian
Default                                  : Нет
Forced                                   : Нет

Аудио #18
Идентификатор                            : 19
Формат                                   : AC-3
Формат/Информация                        : Audio Coding 3
Расширение режима                        : CM (complete main)
Параметр Endianness формата              : Big
Идентификатор кодека                     : A_AC3
Продолжительность                        : 2 ч. 22 м.
Вид битрейта                             : Постоянный
Битрейт                                  : 384 Кбит/сек
Каналы                                   : 6 каналов
Расположение каналов                     : Front: L C R, Side: L R, LFE
Частота                                  : 48,0 КГц
Битовая глубина                          : 16 бит
Метод сжатия                             : С потерями
Размер потока                            : 392 Мбайт (4%)
Язык                                     : English
Default                                  : Нет
Forced                                   : Нет

Текст #1
Идентификатор                            : 20
Формат                                   : UTF-8
Идентификатор кодека                     : S_TEXT/UTF8
Идентификатор кодека/Информация          : UTF-8 Plain Text
Язык                                     : Russian
Default                                  : Нет
Forced                                   : Нет

Текст #2
Идентификатор                            : 21
Формат                                   : UTF-8
Идентификатор кодека                     : S_TEXT/UTF8
Идентификатор кодека/Информация          : UTF-8 Plain Text
Язык                                     : English
Default                                  : Нет
Forced                                   : Нет

Меню
00:00:00.000                             : en:1. On Trial
00:04:41.114                             : en:2. Icy/Remorseless
00:06:40.817                             : en:3. Guy Can Get It
00:10:08.316                             : en:4. Stiff Breeze
00:13:47.076                             : en:5. Fresh Fish
00:18:00.913                             : en:6. Nameless
00:23:44.256                             : en:7. First Request
00:29:02.073                             : en:8. Andy's Routine
00:33:33.845                             : en:9. Beer on the Roof
00:38:51.912                             : en:10. Like Everyone Else
00:41:07.256                             : en:11. Second Request
00:42:41.642                             : en:12. A Pair of Beatings
00:46:15.397                             : en:13. Welcome Back
00:48:15.434                             : en:14. Cell Toss
00:51:22.537                             : en:15. A Cottage Industry
00:57:20.103                             : en:16. What They Take
01:00:28.458                             : en:17. Brooks Was Here
01:05:46.817                             : en:18. Shipment for Andy
01:07:17.658                             : en:19. Time for Mozart
01:11:04.677                             : en:20. The Danger of Hope
01:13:54.221                             : en:21. Rejection Present
01:15:56.552                             : en:22. Keeping the Books
01:21:09.239                             : en:23. A Crook in Prison
01:23:59.951                             : en:24. Tommy Williams
01:29:27.278                             : en:25. Elmo Blatch
01:32:11.484                             : en:26. Solitary
01:35:38.149                             : en:27. Sniper's Target
01:38:29.862                             : en:28. Norton's Drift
01:40:39.366                             : en:29. Certain Hay Field
01:47:24.146                             : en:30. The Longest Night
01:50:46.640                             : en:31. Vanished
01:54:32.115                             : en:32. Andy's Way Out
02:00:36.520                             : en:33. Judgment Cometh
02:04:10.317                             : en:34. Not Meant/Caged
02:05:51.377                             : en:35. Rehabilitated?
02:08:26.824                             : en:36. On the Outside
02:10:14.515                             : en:37. Honoring a Promise
02:12:57.135                             : en:38. "No Good Thing..."
02:16:28.722                             : en:39. Free Man's Dreams
02:18:08.571                             : en:40. Dedication/Credits
Скриншоты:


Время раздачи: 24/7 (до 10 скачавших)
»»Все релизы этого фильма на NNM-Club
Pobeg.iz.Shoushenka.1994.BDRip.720p.NNM-CLUB.mkv.torrent
 Торрент: Платиновая раздача  Зарегистрирован
 
Скачать


Примагнититься
 Зарегистрирован:   03 Май 2014 19:51:21
 Размер:   9.06 GB  (
 Рейтинг:   4.9 (Голосов: 103)
 Поблагодарили:   212
 Проверка:   Оформление проверено модератором 05 Май 2014 07:37:56
Как cкачать  ·  Как раздать  ·  Правильно оформить  ·  Поднять ратио!  

_________________
Не всегда говори, что знаешь, но всегда знай что говоришь. Клавдий Клавдиан
K.E.N
Стаж: 10 лет 10 мес.
Сообщений: 4417
Ratio: 138.04
Поблагодарили: 450513
100%
Откуда: Mordor
pirates.png
Хороший фильм.Смотрел еще в 95 году,пора пересмотреть.
BBS12345
Стаж: 12 лет
Сообщений: 3517
Ratio: 385.516
Поблагодарили: 103350
100%
Отличный фильм! Надо пересмотреть.
Roman-997
Стаж: 13 лет 4 мес.
Сообщений: 291
Ratio: 12.672
Раздал: 28.92 TB
100%
russia.gif
Классика ! Один из любимых...думаю что не только мой...Спасибо.
Gataka
Стаж: 14 лет 10 мес.
Сообщений: 188
Ratio: 11.145
Раздал: 17.02 TB
Поблагодарили: 137
100%
russia.gif
Лучший фильм планеты, по версии кинопоиска... зашел поклониться за труды!
Miktlan
Стаж: 13 лет 4 мес.
Сообщений: 53
Ratio: 35.13
100%
отличный фильм!
darth_san
Стаж: 13 лет 7 мес.
Сообщений: 523
Ratio: 11.073
Поблагодарили: 3269
100%
ukraine.gif
Суперский фильм! В очередной раз посмотрел его с удовольствием.
Показать сообщения:   
Начать новую тему   Ответить на тему    Торрент-трекер NNM-Club -> Классика кино и Старые фильмы до 90-х -> Зарубежная Классика (HD, FHD, UHD, 3D) Часовой пояс: GMT + 3
Страница 1 из 1