Классический форум-трекер
canvas not supported
Нас вместе: 4 232 312

Вице / Veep (2014) HDTVRip [Сезон 3 / Серии 1-6 (10)] Amedia (обновляемая)


 
 
RSS
Начать новую тему   Ответить на тему    Торрент-трекер NNM-Club -> Зарубежные сериалы
Автор Сообщение
Игорь_Вла​димирович​ ®
Стаж: 12 лет 2 мес.
Сообщений: 2511
Ratio: 1103.085
Раздал: 32.13 TB
Поблагодарили: 143075
100%
Вице / Veep (2014) HDTVRip [Сезон 3 / Серии 1-6 (10)] Amedia (обновляемая)

Название:
Вице
Оригинальное название: Veep
Год выпуска: 2014
Жанр: Комедия
Выпущено: США, Home Box Office (HBO)
Продолжительность: ~ 00:28:00 серия
Перевод: Профессиональный многоголосый - Novamedia по заказу Amedia
Режиссёры: Армандо Ианнуччи, Бекки Мартин, Кристофер Моррис
В ролях: Джулия Луис-Дрейфус, Анна Кламски, Тони Хейл, Рейд Скотт, Тимоти С. Саймонс, Мэтт Уолш, Суфе Брэдшоу, Гэри Коул, Кевин Данн, Рэндолл Парк и др.

Описание: Главная героиня сериала – бывший сенатор Селина Майер (Джулия Луис-Дрейфус), которая стала вице-президентом. Как оказалось, новая должность – совсем не такая, какой ее представляла Майер, хотя многие ее предупреждали об этом.
Релиз:
Роли озвучивали: Рамиля Искандер, Марина Бакина, Наталья Терешкова, Андрей Бархударов, Никита Прозоровский, Александр Дасевич
Работа со звуком: BS666
Рип: xironfs


Сэмпл:
Качество: HDTVRip
Видео: AVI, 720x400 (1.80:1), 25.000 fps, XviD build 73 ~2000 kbps avg, 0.275 bit/pixel
Аудио Rus: 48 kHz, AC3 Dolby Digital, 3/2 (L,C,R,l,r) + LFE ch, ~384.00 kbps avg
Аудио Eng: 48 kHz, AC3 Dolby Digital, 3/2 (L,C,R,l,r) + LFE ch, ~384.00 kbps avg
General
Complete name : F:\Сериал\раздача\Veep.s03\Veep.s03e01.rus.eng.CasStudio.avi
Format : AVI
Format/Info : Audio Video Interleave
File size : 531 MiB
Duration : 26mn 39s
Overall bit rate : 2 783 Kbps
Writing application : VirtualDubModRus 1.5.10.2 (build 2542/release)
Writing library : VirtualDubMod build 2542/release

Video
ID : 0
Format : MPEG-4 Visual
Format profile : Advanced Simple@L5
Format settings, BVOP : 1
Format settings, QPel : No
Format settings, GMC : No warppoints
Format settings, Matrix : Default (MPEG)
Codec ID : XVID
Codec ID/Hint : XviD
Duration : 26mn 39s
Bit rate : 2 001 Kbps
Width : 720 pixels
Height : 400 pixels
Display aspect ratio : 16:9
Frame rate : 25.000 fps
Color space : YUV
Chroma subsampling : 4:2:0
Bit depth : 8 bits
Scan type : Progressive
Compression mode : Lossy
Bits/(Pixel*Frame) : 0.278
Stream size : 382 MiB (72%)
Writing library : XviD 73

Audio #1
ID : 1
Format : AC-3
Format/Info : Audio Coding 3
Mode extension : CM (complete main)
Format settings, Endianness : Big
Codec ID : 2000
Duration : 26mn 37s
Bit rate mode : Constant
Bit rate : 384 Kbps
Channel(s) : 6 channels
Channel positions : Front: L C R, Side: L R, LFE
Sampling rate : 48.0 KHz
Bit depth : 16 bits
Compression mode : Lossy
Stream size : 73.1 MiB (14%)
Alignment : Split accross interleaves
Interleave, duration : 40 ms (1.00 video frame)
Interleave, preload duration : 500 ms

Audio #2
ID : 2
Format : AC-3
Format/Info : Audio Coding 3
Mode extension : CM (complete main)
Format settings, Endianness : Big
Codec ID : 2000
Duration : 26mn 37s
Bit rate mode : Constant
Bit rate : 384 Kbps
Channel(s) : 6 channels
Channel positions : Front: L C R, Side: L R, LFE
Sampling rate : 48.0 KHz
Bit depth : 16 bits
Compression mode : Lossy
Stream size : 73.1 MiB (14%)
Alignment : Split accross interleaves
Interleave, duration : 40 ms (1.00 video frame)
Interleave, preload duration : 500 ms
Раздача ведётся путём добавления новых серий; при каждом добавлении создаётся новый торрент. Чтобы начать докачку новой серии, пользователям необходимо сделать следующее:
(1) остановить скачивание,
(2) удалить старый торрент у себя из клиента (старые серии удалять не надо),
(3) скачать новый торрент и запустить его у себя в клиенте вместо старого, при этом указать клиенту путь в старую папку куда и должно происходить скачивание новых серий.

Ваш клиент при этом должен произвести хеширование (проверку) старой папки (если не производит сам - помогите ему сделать это), и будет докачивать только те серии которых у вас ещё нет. Старые серии при этом не удаляются, а продолжают раздаваться!

Eсли вы уже удалили старые серии, то предотвратить повторную закачку старых серий можно, отжав галочку в соответствующих местах при запуске нового торрента. По возможности, желательно не удалять старые серии как можно дольше чтобы релизёр не столько продолжал раздавать старые серии, а смог сконцентрироваться на новых.




Сериал "Вице / Veep" на NoNaMe Club

Время раздачи: с 9.00 до 23.00, до первых пяти скачавших
[NNM-Club.me]_Veep.s03.torrent
 Торрент: Платиновая раздача  Зарегистрирован
 
Скачать


Примагнититься
 Зарегистрирован:   17 Май 2014 18:21:06
 Размер:   3.13 GB  (
 Рейтинг:   4.8 (Голосов: 27)
 Поблагодарили:   82
 Проверка:   Оформление проверено модератором 17 Май 2014 22:12:02
Как cкачать  ·  Как раздать  ·  Правильно оформить  ·  Поднять ратио!  

_________________

Мои релизы
Dimon_I
Стаж: 13 лет 2 мес.
Сообщений: 2
Ratio: 1.905
0%
Вот спасибо. Обожаю этот сериал.
tab2009gfc
Стаж: 15 лет 1 мес.
Сообщений: 95
Ratio: 10.371
100%
russia.gif
А с матюками где ? ))
 !  "матюки" вы сами себе допридумывайте, а здесь интеллигентный форум-трекер.
Игорь_Вла​димирович​ ®
Стаж: 12 лет 2 мес.
Сообщений: 2511
Ratio: 1103.085
Раздал: 32.13 TB
Поблагодарили: 143075
100%
Добавлены 5-6 серии.
Обновите торрент.

_________________

Мои релизы
mike2003
Стаж: 13 лет 5 мес.
Сообщений: 137
Ratio: 7.348
0%
haiti.gif
а где же полный?
eucharis28
Стаж: 11 лет
Сообщений: 4
Ratio: 13.604
100%
Оставшиеся серии будут добавлены?
vp1973
Стаж: 14 лет
Сообщений: 6
Ratio: 10.807
0%
the_Marshall_Islands.gif
Доброго времени суток. А не подскажете где можно 3 сезон полностью скачать ?
Показать сообщения:   
Начать новую тему   Ответить на тему    Торрент-трекер NNM-Club -> Зарубежные сериалы Часовой пояс: GMT + 3
Страница 1 из 1