Классический форум-трекер
canvas not supported
Нас вместе: 4 234 084

Киево Печерская Лавра (2013) DVD5


 
 
RSS
Начать новую тему   Ответить на тему    Торрент-трекер NNM-Club -> Документалистика и Телепередачи -> Религии и культы (Док/TV)
Автор Сообщение
МиSHа ®
Стаж: 13 лет 4 мес.
Сообщений: 1291
Ratio: 71.336
Поблагодарили: 44118
100%
russia.gif
Киево Печерская Лавра
Режиссер: С. Андрюшкин
Год выпуска: 2013
Жанр: Документальный

Описание:
Киево-Печерская Лавра является символом крепости православной веры. Во все времена эта обитель противостояла иноземным захватчикам, насаждению западной культуры и религии; была неоднократно разрушена почти до основания, но возрождалась вновь. В пещерах Киево-Печерской Лавры покоятся мощи сотен святых, таких как Антоний и Феодосий Киево-Печерские, Нестор Летописец, Илья Муромец и т.д.

Продолжительность: 00:52:48
Качество видео: DVD5

Видеокодек: MPEG 2, PAL
Битрейт видео: ~5349 Кбит/сек
Размер кадра: 720/576
Аудиокодек: PCM, 2ch
Битрейт аудио: 1536 Кбит/сек, 48,0 КГц
Общее
Полное имя : H:\КИЕВО_ПЕЧЕРСКАЯ_ЛАВРА\видео\VTS_01_1.VOB
Формат : MPEG-PS
Размер файла : 977 Мбайт
Продолжительность : 19 м.
Общий поток : 7025 Кбит/сек

Видео
Идентификатор : 224 (0xE0)
Формат : MPEG Video
Версия формата : Version 2
Профиль формата : Main@Main
Параметр BVOP формата : Да
Параметр матрицы формата : По умолчанию
Параметры GOP формата : M=3, N=12
Продолжительность : 19 м.
Вид битрейта : Переменный
Битрейт : 5349 Кбит/сек
Номинальный битрейт : 6000 Кбит/сек
Ширина : 720 пикс.
Высота : 576 пикс.
Соотношение сторон : 4:3
Частота кадров : 25,000 кадр/сек
Стандарт вещания : PAL
Цветовое пространство : YUV
Подвыборка цветности : 4:2:0
Битовая глубина : 8 бит
Тип развёртки : Прогрессивная
Метод сжатия : С потерями
Бит/(Пиксели*Кадры) : 0.516
Размер потока : 744 Мбайт (76%)

Аудио
Идентификатор : 189 (0xBD)-160 (0xA0)
Формат : PCM
Параметр Endianness формата : Big
Параметр Sign формата : Signed
Режим смешивания : DVD-Video
Продолжительность : 19 м.
Вид битрейта : Постоянный
Битрейт : 1536 Кбит/сек
Каналы : 2 канала
Расположение каналов : Front: L R
Частота : 48,0 КГц
Битовая глубина : 16 бит
Размер потока : 214 Мбайт (22%)
Скриншоты:


Время раздачи: с 10:00 до 20:00
KIEVO_PECHERSKAYA_LAVRA_[nnm-club]_DVD_.torrent
 Торрент: Платиновая раздача  Зарегистрирован
 
Скачать


Примагнититься
 Зарегистрирован:   09 Май 2014 09:50:10
 Размер:   2.72 GB  (
 Рейтинг:   4.5 (Голосов: 43)
 Поблагодарили:   92
 Проверка:   Оформление проверено модератором 09 Май 2014 09:50:26
Как cкачать  ·  Как раздать  ·  Правильно оформить  ·  Поднять ратио!  
bw81
Стаж: 12 лет 10 мес.
Сообщений: 701
Ratio: 2.132
100%
belarus.gif
Спасибо вам за ваши православные раздачи, но очень прошу, если можно, выложите рип данной раздачи, как и других. Низкая скорости не позволяет мне (думаю и не только мне) качать в таком размере.
С Праздником Победы!
sprinter2012
Стаж: 11 лет 7 мес.
Сообщений: 114
Ratio: 68.958
Поблагодарили: 210
100%
спасибо! За раздачу
МиSHа ®
Стаж: 13 лет 4 мес.
Сообщений: 1291
Ratio: 71.336
Поблагодарили: 44118
100%
russia.gif
:приветствую:
Показать сообщения:   
Начать новую тему   Ответить на тему    Торрент-трекер NNM-Club -> Документалистика и Телепередачи -> Религии и культы (Док/TV) Часовой пояс: GMT + 3
Страница 1 из 1