Классический форум-трекер
canvas not supported
Нас вместе: 4 134 210

3 дня на убийство / 3 Days to Kill (2014) HDRip [Extended Cut] [Line]


 
 
RSS
Начать новую тему   Ответить на тему    Торрент-трекер NNM-Club -> Архив торрентов -> Архив Видео
Автор Сообщение
MR Sergei ®
Uploaders 100+
 
Стаж: 8 лет 2 мес.
Сообщений: 3058
Ratio: 33K
Раздал: 302,4 TB
Поблагодарили: 552738
100%
Откуда: ЛНР, Краснодон
russia.gif
3 дня на убийство / 3 Days to Kill (2014) HDRip [Extended Cut] [Line]
Год выпуска: 2014
Производство: США, Франция, Греция, Россия / Relativity Media, EuropaCorp
Жанр: Боевик, Триллер, Драма
Перевод: Дублированный [Чистый звук]
Субтитры: Русские (Вшиты на расширенные сцены)

Режиссер: МакДжи
Продюсер: Люк Бессон, Ади Хасак, Райан Кэвэна
Актеры: Кевин Костнер, Эмбер Хёрд, Хейли Стайнфелд, Конни Нильсен, Томас Лемаркус, Рихард Заммель, Марк Андреони, Бруно Риччи, Йонас Блоке, Эрик Эбони

Описание фильма:
В секретной лаборатории ученые разработали препарат, который позволяет человеку справиться с любой неизлечимой болезнью. Руководство спецслужб предлагает принять это лекарство экс-агенту спецслужб Итану Раннеру, которому врачи объявили смертельный диагноз. Но он должен выполнить еще одно задание, которое, впрочем, может стоить ему жизни. Теперь вокруг Раннера начинают происходить странные вещи. Что это — галлюцинации, побочный эффект от таблеток или мир действительно полон ужаса и кошмара?



Дата мировой премьеры: 12 февраля 2014
Дата российской премьеры: 10 апреля 2014, «Парадиз»
Дата выхода DVD релиза: 10 июня 2014, «Парадиз / Активижен»

Продолжительность: 02:02:18
Качество видео: HDRip

Видеокодек: XviD
Битрейт видео: 1807 kb/s
Размер кадра: 720x304
Аудио #1: Русский: AC-3, 48.0 KHz, 2 ch, 192 Kbps, CBR
Аудио #2: Английский: AC-3, 48.0 KHz, 6 ch, 384 Kbps, CBR
Сэмпл: Скачать
Общее
Полное имя : D:\Фильмы\3.dnja.na.ubijstvo.2014.EXTENDED.D.HDRip.2100Mb.avi
Формат : AVI
Формат/Информация : Audio Video Interleave
Профиль формата : OpenDML
Размер файла : 2,05 Гбайт
Продолжительность : 2 ч. 2 м.
Общий поток : 2401 Кбит/сек
Программа кодирования : VirtualDubMod 1.5.10.2 (build 2540/release)
Библиотека кодирования : VirtualDubMod build 2540/release

Видео
Идентификатор : 0
Формат : MPEG-4 Visual
Профиль формата : Advanced Simple@L5
Параметр BVOP формата : 2
Параметр QPel формата : Нет
Параметр GMC формата : Без точки перехода
Параметр матрицы формата : Выборочная
Идентификатор кодека : XVID
Идентификатор кодека/Подсказка : XviD
Продолжительность : 2 ч. 2 м.
Битрейт : 1807 Кбит/сек
Ширина : 720 пикселей
Высота : 304 пикселя
Соотношение сторон : 2,35:1
Частота кадров : 23,976 кадра/сек
Цветовое пространство : YUV
Субдискретизация насыщенности : 4:2:0
Битовая глубина : 8 бит
Тип развёртки : Прогрессивная
Метод сжатия : С потерями
Бит/(Пиксели*Кадры) : 0.344
Размер потока : 1,54 Гбайт (75%)
Библиотека кодирования : XviD 1.2.1 (UTC 2008-12-04)

Аудио #1
Идентификатор : 1
Формат : AC-3
Формат/Информация : Audio Coding 3
Расширение режима : CM (complete main)
Параметр Endianness формата : Big
Идентификатор кодека : 2000
Продолжительность : 2 ч. 2 м.
Вид битрейта : Постоянный
Битрейт : 192 Кбит/сек
Каналы : 2 канала
Расположение каналов : Front: L R
Частота : 48,0 КГц
Битовая глубина : 16 бит
Метод сжатия : С потерями
Размер потока : 168 Мбайт (8%)
Выравнивание : Разделение по промежуткам
Продолжительность промежутка : 42 мс. (1,00 видеокадр)
Время предзагрузки промежутка : 500 мс.

Аудио #2
Идентификатор : 2
Формат : AC-3
Формат/Информация : Audio Coding 3
Расширение режима : CM (complete main)
Параметр Endianness формата : Big
Идентификатор кодека : 2000
Продолжительность : 2 ч. 2 м.
Вид битрейта : Постоянный
Битрейт : 384 Кбит/сек
Каналы : 6 каналов
Расположение каналов : Front: L C R, Side: L R, LFE
Частота : 48,0 КГц
Битовая глубина : 16 бит
Метод сжатия : С потерями
Размер потока : 336 Мбайт (16%)
Выравнивание : Разделение по промежуткам
Продолжительность промежутка : 42 мс. (1,00 видеокадр)
Время предзагрузки промежутка : 500 мс.
Скриншоты:



Время раздачи: 24/7
(до 5 скачавших)

3 дня на убийство на NoNaMe Club
[NNM-Club.me]_3.dnja.na.ubijstvo.2014.EXTENDED.D.HDRip.2100Mb.torrent
 Торрент:   Зарегистрирован
 
Зарегистрируйтесь и скачайте торрент!
10,6 KB

Примагнититься
 Зарегистрирован:   12 Май 2014 07:30:43
 Размер:   2,05 GB  (
 Рейтинг:   4,5 (Голосов: 70)
 Поблагодарили:   344
 Проверка:   Оформление проверено модератором 12 Май 2014 11:03:25
Как cкачать  ·  Как раздать  ·  Правильно оформить  ·  Поднять ратио!  
xswzaq1
Стаж: 8 лет 5 мес.
Сообщений: 8
Ratio: 5,239
2.49%
на обложке Агутин =)
hppl
Стаж: 7 лет
Сообщений: 534
Ratio: 2,787
Раздал: 1,102 TB
100%
north_korea.gif
:лол: точняк

_________________
house people
6 сентября 2к17 года бросил курить
Zloy_Lexx
Стаж: 9 лет 7 мес.
Сообщений: 12
Ratio: 43,961
100%
А здесь тоже рассинхрон со звуком?
razboinik63
Стаж: 8 лет 10 мес.
Сообщений: 155
Ratio: 20,954
100%
pirates.png
Zloy_Lexx писал(а): Перейти к сообщению
А здесь тоже рассинхрон со звуком?

нет, все попадает 1 в 1.
Топик был перенесен из форума Зарубежные Новинки (HD*Rip/LQ, DVDRip) в форум Архив Видео

Причина переноса: На трекере доступен звук с iTunes
Lelya_K
Показать сообщения:   
Начать новую тему   Ответить на тему    Торрент-трекер NNM-Club -> Архив торрентов -> Архив Видео Часовой пояс: GMT + 3
Страница 1 из 1