Классический форум-трекер
canvas not supported
Нас вместе: 4 215 990

Ко мне, Мухтар! (1964) DVDRip [H.264]


 
 
RSS
Начать новую тему   Ответить на тему    Торрент-трекер NNM-Club -> Классика кино и Старые фильмы до 90-х -> Отечественная Классика (HD*Rip/LQ, DVDRip, SATRip, VHSRip)
Автор Сообщение
polycom ®
Стаж: 10 лет 10 мес.
Сообщений: 849
Ratio: 179.913
Поблагодарили: 58365
100%
Откуда: Файна Юкрайна
ukraine.gif
Ко мне, Мухтар! (1964) DVDRip
Год выпуска: 1964
Жанр: Драма
Выпущено: СССР, Мосфильм, ТО «Юность»

Описание фильма:
По повести И. Меттера "Мухтар".
Приказав своей собаке лежать, красивая женщина вышла из поезда. Напрасно ждал Мухтар, хозяйка не вернулась. Хорошо, что беднягу подобрал лейтенант милиции Глазычев, сделавший из Мухтара не только великолепную розыскную собаку, но и своего друга.

Режиссер: Семён Туманов, В. Тиунова
Актеры: Юрий Никулин, Владимир Емельянов, Леонид Кмит, Юрий Белов, Алла Ларионова, Фёдор Никитин, Николай Крючков, Сергей Голованов, Владимир Гуляев, Лев Дуров, Екатерина Савинова, Леонид Пархоменко, Вадим Захарченко, Юрий Медведев, Тамара Логинова, Ия Маркс, Лидия Савченко, Дмитрий Масанов

Продолжительность: 01:17:50



Видеокодек: MPEG-4 AVC/H.264
Битрейт видео: ~2222 Кбит/с
Размер кадра: 720 x 436 @ 1026 x 436
Качество видео: DVDRip
Аудиокодек: AC3 5.1
Битрейт аудио: 448 Кбит/с
Общее
Уникальный идентификатор : 209322712204033328685175844841619547936 (0x9D7A1683B8B16917B815EB806CE56720)
Полное имя : Ko.mne,Muhtar!1964.DVDRip-AVC.mkv
Формат : Matroska
Версия формата : Version 2
Размер файла : 1,45 Гбайт
Продолжительность : 1 ч. 17 м.
Общий поток : 2672 Кбит/сек
Дата кодирования : UTC 2013-01-28 22:07:22
Программа кодирования : mkvmerge v5.0.1 ('Es ist Sommer') built on Nov 6 2011 16:23:40
Библиотека кодирования : libebml v1.2.2 + libmatroska v1.3.0

Видео
Идентификатор : 1
Формат : AVC
Формат/Информация : Advanced Video Codec
Профиль формата : High@L4.1
Параметр CABAC формата : Да
Параметр ReFrames формата : 11 кадров
Идентификатор кодека : V_MPEG4/ISO/AVC
Продолжительность : 1 ч. 17 м.
Битрейт : 2222 Кбит/сек
Ширина : 720 пикселей
Высота : 436 пикселей
Соотношение сторон : 2,35:1
Режим частоты кадров : Постоянный
Частота кадров : 25,000 кадров/сек
Цветовое пространство : YUV
Субдискретизация насыщенности : 4:2:0
Битовая глубина : 8 бит
Тип развёртки : Прогрессивная
Бит/(Пиксели*Кадры) : 0.283
Размер потока : 1,18 Гбайт (81%)
Библиотека кодирования : x264 core 119 r2106 07efeb4
Настройки программы : cabac=1 / ref=11 / deblock=1:-2:-1 / analyse=0x3:0x113 / me=umh / subme=9 / psy=1 / psy_rd=1.00:0.20 / mixed_ref=1 / me_range=32 / chroma_me=1 / trellis=1 / 8x8dct=1 / cqm=0 / deadzone=21,11 / fast_pskip=0 / chroma_qp_offset=-3 / threads=3 / sliced_threads=0 / nr=0 / decimate=0 / interlaced=0 / bluray_compat=0 / constrained_intra=0 / bframes=8 / b_pyramid=2 / b_adapt=2 / b_bias=0 / direct=3 / weightb=1 / open_gop=0 / weightp=2 / keyint=250 / keyint_min=25 / scenecut=40 / intra_refresh=0 / rc_lookahead=60 / rc=2pass / mbtree=1 / bitrate=2222 / ratetol=1.0 / qcomp=0.60 / qpmin=0 / qpmax=69 / qpstep=4 / cplxblur=20.0 / qblur=0.5 / ip_ratio=1.40 / aq=1:1.00
Default : Да
Forced : Нет

Аудио
Идентификатор : 2
Формат : AC-3
Формат/Информация : Audio Coding 3
Расширение режима : CM (complete main)
Параметр Endianness формата : Big
Идентификатор кодека : A_AC3
Продолжительность : 1 ч. 17 м.
Вид битрейта : Постоянный
Битрейт : 448 Кбит/сек
Каналы : 6 каналов
Расположение каналов : Front: L C R, Side: L R, LFE
Частота : 48,0 КГц
Битовая глубина : 16 бит
Метод сжатия : С потерями
Размер потока : 249 Мбайт (17%)
Default : Да
Forced : Нет
Скриншоты:

"Ко мне, Мухтар!" на NNM-CLUB

Время раздачи: По возможности (до 3 скачавших)
[NNM-Club.me]_Ko.mne,Muhtar!1964.DVDRip-AVC.mkv.torrent
 Торрент: Платиновая раздача  Зарегистрирован
 
Скачать


Примагнититься
 Зарегистрирован:   19 Май 2014 22:07:32
 Размер:   1.45 GB  (
 Рейтинг:   4.8 (Голосов: 123)
 Поблагодарили:   301
 Проверка:   Оформление проверено модератором 21 Май 2014 02:25:16
Как cкачать  ·  Как раздать  ·  Правильно оформить  ·  Поднять ратио!  
pretok
Стаж: 13 лет 4 мес.
Сообщений: 83
Ratio: 50.814
100%
russia.gif
Автор, а не подскажете, с какого года в СССР начали кодировать звук в 5,1?
polycom ®
Стаж: 10 лет 10 мес.
Сообщений: 849
Ratio: 179.913
Поблагодарили: 58365
100%
Откуда: Файна Юкрайна
ukraine.gif
pretok
Был оставлен, т.к. присутствовал на ДВД.
Показать сообщения:   
Начать новую тему   Ответить на тему    Торрент-трекер NNM-Club -> Классика кино и Старые фильмы до 90-х -> Отечественная Классика (HD*Rip/LQ, DVDRip, SATRip, VHSRip) Часовой пояс: GMT + 3
Страница 1 из 1