Классический форум-трекер
canvas not supported
Нас вместе: 4 171 719

Игорь Тальков - Лучшие песни (Вторая часть) (2001) [ALAC|Tracks]<Авторская песня>


 
 
RSS
Начать новую тему   Ответить на тему    Торрент-трекер NNM-Club -> Аудио и Видео -> Музыка Lossless (ALAC)
Автор Сообщение
Cecidit ®
Стаж: 7 лет 10 мес.
Сообщений: 129
Ratio: 39.772
Поблагодарили: 8815
100%
Откуда: Москва, МО Щелково
russia.gif
Игорь Тальков - Лучшие песни (Вторая часть) (2001)
Год: 2001
Жанр: Авторская песня
Продолжительность: 01:00:29

Кодек: ALAC
Битрейт: Lossless
Тип раздачи: Tracks
Обложки: Вшиты
Кодирование: Easy CD-DA Extractor + iTunes

Треклист:
01. Глобус
02. Господа демократы
03. Солнце уходит на запад
04. Моя любовь
05. Ты опоздала
06. Таня
07. Летний дождь
08. Память
09. Love You
10. Я вернусь
Код:

Общее
Полное имя                               : /Users/Denis/Library/Containers/net.mediaarea.mediainfo.mac/Data/Music/iTunes/iTunes Media/Music/Игорь Тальков/Лучшие песни (Часть 2)/01 Глобус.m4a
Формат                                   : MPEG-4
Профиль формата                          : Apple audio with iTunes info
Идентификатор кодека                     : M4A
Размер файла                             : 45,8 Мбайт
Продолжительность                        : 6 м. 55 с.
Режим общего битрейта                    : Переменный
Общий поток                              : 926 Кбит/сек
Альбом                                   : Лучшие песни (Часть 2)
Альбом/Исполнитель                       : Игорь Тальков
Трек                                     : Глобус
Трек/Положение                           : 1
Исполнитель                              : Игорь Тальков
Жанр                                     : Авторская песня
Дата записи                              : 2001
Дата кодирования                         : UTC 2014-05-23 12:03:03
Дата пометки                             : UTC 2014-05-23 17:08:56
Программа кодирования                    : Easy CD-DA Extractor (http://www.poikosoft.com)
Обложка                                  : Yes / Yes

Аудио
Идентификатор                            : 1
Формат                                   : ALAC
Идентификатор кодека                     : alac
Идентификатор кодека/Информация          : Apple Lossless Audio Codec
Продолжительность                        : 6 м. 55 с.
Duration_LastFrame                       : -79 мс.
Вид битрейта                             : Переменный
Битрейт                                  : 910 Кбит/сек
Каналы                                   : 2 канала
Частота                                  : 44,1 КГц
Битовая глубина                          : 16 бит
Размер потока                            : 45,0 Мбайт (98%)
Язык                                     : English
Дата кодирования                         : UTC 2014-05-23 12:03:03
Дата пометки                             : UTC 2014-05-23 17:08:56

Общее
Полное имя                               : /Users/Denis/Library/Containers/net.mediaarea.mediainfo.mac/Data/Music/iTunes/iTunes Media/Music/Игорь Тальков/Лучшие песни (Часть 2)/02 Господа демократы.m4a
Формат                                   : MPEG-4
Профиль формата                          : Apple audio with iTunes info
Идентификатор кодека                     : M4A
Размер файла                             : 27,1 Мбайт
Продолжительность                        : 3 м. 50 с.
Режим общего битрейта                    : Переменный
Общий поток                              : 986 Кбит/сек
Альбом                                   : Лучшие песни (Часть 2)
Альбом/Исполнитель                       : Игорь Тальков
Трек                                     : Господа демократы
Трек/Положение                           : 2
Исполнитель                              : Игорь Тальков
Жанр                                     : Авторская песня
Дата записи                              : 2001
Дата кодирования                         : UTC 2014-05-23 12:03:03
Дата пометки                             : UTC 2014-05-23 17:08:58
Программа кодирования                    : Easy CD-DA Extractor (http://www.poikosoft.com)
Обложка                                  : Yes / Yes

Аудио
Идентификатор                            : 1
Формат                                   : ALAC
Идентификатор кодека                     : alac
Идентификатор кодека/Информация          : Apple Lossless Audio Codec
Продолжительность                        : 3 м. 50 с.
Duration_LastFrame                       : -76 мс.
Вид битрейта                             : Переменный
Битрейт                                  : 957 Кбит/сек
Каналы                                   : 2 канала
Частота                                  : 44,1 КГц
Битовая глубина                          : 16 бит
Размер потока                            : 26,3 Мбайт (97%)
Язык                                     : English
Дата кодирования                         : UTC 2014-05-23 12:03:03
Дата пометки                             : UTC 2014-05-23 17:08:58

Общее
Полное имя                               : /Users/Denis/Library/Containers/net.mediaarea.mediainfo.mac/Data/Music/iTunes/iTunes Media/Music/Игорь Тальков/Лучшие песни (Часть 2)/03 Солнце уходит на запад.m4a
Формат                                   : MPEG-4
Профиль формата                          : Apple audio with iTunes info
Идентификатор кодека                     : M4A
Размер файла                             : 48,6 Мбайт
Продолжительность                        : 7 м. 13 с.
Режим общего битрейта                    : Переменный
Общий поток                              : 941 Кбит/сек
Альбом                                   : Лучшие песни (Часть 2)
Альбом/Исполнитель                       : Игорь Тальков
Трек                                     : Солнце уходит на запад
Трек/Положение                           : 3
Исполнитель                              : Игорь Тальков
Жанр                                     : Авторская песня
Дата записи                              : 2001
Дата кодирования                         : UTC 2014-05-23 12:04:55
Дата пометки                             : UTC 2014-05-23 17:10:11
Программа кодирования                    : Easy CD-DA Extractor (http://www.poikosoft.com)
Обложка                                  : Yes / Yes

Аудио
Идентификатор                            : 1
Формат                                   : ALAC
Идентификатор кодека                     : alac
Идентификатор кодека/Информация          : Apple Lossless Audio Codec
Продолжительность                        : 7 м. 13 с.
Duration_LastFrame                       : -28 мс.
Вид битрейта                             : Переменный
Битрейт                                  : 925 Кбит/сек
Каналы                                   : 2 канала
Частота                                  : 44,1 КГц
Битовая глубина                          : 16 бит
Размер потока                            : 47,8 Мбайт (98%)
Язык                                     : English
Дата кодирования                         : UTC 2014-05-23 12:04:55
Дата пометки                             : UTC 2014-05-23 17:10:11

Общее
Полное имя                               : /Users/Denis/Library/Containers/net.mediaarea.mediainfo.mac/Data/Music/iTunes/iTunes Media/Music/Игорь Тальков/Лучшие песни (Часть 2)/04 Моя любовь.m4a
Формат                                   : MPEG-4
Профиль формата                          : Apple audio with iTunes info
Идентификатор кодека                     : M4A
Размер файла                             : 39,7 Мбайт
Продолжительность                        : 6 м. 24 с.
Режим общего битрейта                    : Переменный
Общий поток                              : 868 Кбит/сек
Альбом                                   : Лучшие песни (Часть 2)
Альбом/Исполнитель                       : Игорь Тальков
Трек                                     : Моя любовь
Трек/Положение                           : 4
Исполнитель                              : Игорь Тальков
Жанр                                     : Авторская песня
Дата записи                              : 2001
Дата кодирования                         : UTC 2014-05-23 12:06:41
Дата пометки                             : UTC 2014-05-23 17:09:04
Программа кодирования                    : Easy CD-DA Extractor (http://www.poikosoft.com)
Обложка                                  : Yes / Yes

Аудио
Идентификатор                            : 1
Формат                                   : ALAC
Идентификатор кодека                     : alac
Идентификатор кодека/Информация          : Apple Lossless Audio Codec
Продолжительность                        : 6 м. 24 с.
Duration_LastFrame                       : -18 мс.
Вид битрейта                             : Переменный
Битрейт                                  : 850 Кбит/сек
Каналы                                   : 2 канала
Частота                                  : 44,1 КГц
Битовая глубина                          : 16 бит
Размер потока                            : 38,9 Мбайт (98%)
Язык                                     : English
Дата кодирования                         : UTC 2014-05-23 12:06:41
Дата пометки                             : UTC 2014-05-23 17:09:04

Общее
Полное имя                               : /Users/Denis/Library/Containers/net.mediaarea.mediainfo.mac/Data/Music/iTunes/iTunes Media/Music/Игорь Тальков/Лучшие песни (Часть 2)/05 Ты опоздала.m4a
Формат                                   : MPEG-4
Профиль формата                          : Apple audio with iTunes info
Идентификатор кодека                     : M4A
Размер файла                             : 32,0 Мбайт
Продолжительность                        : 5 м. 9 с.
Режим общего битрейта                    : Переменный
Общий поток                              : 868 Кбит/сек
Альбом                                   : Лучшие песни (Часть 2)
Альбом/Исполнитель                       : Игорь Тальков
Трек                                     : Ты опоздала
Трек/Положение                           : 5
Исполнитель                              : Игорь Тальков
Жанр                                     : Авторская песня
Дата записи                              : 2001
Дата кодирования                         : UTC 2014-05-23 12:09:26
Дата пометки                             : UTC 2014-05-23 17:09:07
Программа кодирования                    : Easy CD-DA Extractor (http://www.poikosoft.com)
Обложка                                  : Yes / Yes

Аудио
Идентификатор                            : 1
Формат                                   : ALAC
Идентификатор кодека                     : alac
Идентификатор кодека/Информация          : Apple Lossless Audio Codec
Продолжительность                        : 5 м. 9 с.
Duration_LastFrame                       : -22 мс.
Вид битрейта                             : Переменный
Битрейт                                  : 846 Кбит/сек
Каналы                                   : 2 канала
Частота                                  : 44,1 КГц
Битовая глубина                          : 16 бит
Размер потока                            : 31,2 Мбайт (97%)
Язык                                     : English
Дата кодирования                         : UTC 2014-05-23 12:09:26
Дата пометки                             : UTC 2014-05-23 17:09:07

Общее
Полное имя                               : /Users/Denis/Library/Containers/net.mediaarea.mediainfo.mac/Data/Music/iTunes/iTunes Media/Music/Игорь Тальков/Лучшие песни (Часть 2)/06 Таня.m4a
Формат                                   : MPEG-4
Профиль формата                          : Apple audio with iTunes info
Идентификатор кодека                     : M4A
Размер файла                             : 34,5 Мбайт
Продолжительность                        : 4 м. 50 с.
Режим общего битрейта                    : Переменный
Общий поток                              : 999 Кбит/сек
Альбом                                   : Лучшие песни (Часть 2)
Альбом/Исполнитель                       : Игорь Тальков
Трек                                     : Таня
Трек/Положение                           : 6
Исполнитель                              : Игорь Тальков
Жанр                                     : Авторская песня
Дата записи                              : 2001
Дата кодирования                         : UTC 2014-05-23 12:12:35
Дата пометки                             : UTC 2014-05-23 17:09:09
Программа кодирования                    : Easy CD-DA Extractor (http://www.poikosoft.com)
Обложка                                  : Yes / Yes

Аудио
Идентификатор                            : 1
Формат                                   : ALAC
Идентификатор кодека                     : alac
Идентификатор кодека/Информация          : Apple Lossless Audio Codec
Продолжительность                        : 4 м. 50 с.
Duration_LastFrame                       : -63 мс.
Вид битрейта                             : Переменный
Битрейт                                  : 976 Кбит/сек
Каналы                                   : 2 канала
Частота                                  : 44,1 КГц
Битовая глубина                          : 16 бит
Размер потока                            : 33,7 Мбайт (98%)
Язык                                     : English
Дата кодирования                         : UTC 2014-05-23 12:12:35
Дата пометки                             : UTC 2014-05-23 17:09:09

Общее
Полное имя                               : /Users/Denis/Library/Containers/net.mediaarea.mediainfo.mac/Data/Music/iTunes/iTunes Media/Music/Игорь Тальков/Лучшие песни (Часть 2)/07 Летний дождь.m4a
Формат                                   : MPEG-4
Профиль формата                          : Apple audio with iTunes info
Идентификатор кодека                     : M4A
Размер файла                             : 54,7 Мбайт
Продолжительность                        : 8 м. 39 с.
Режим общего битрейта                    : Переменный
Общий поток                              : 885 Кбит/сек
Альбом                                   : Лучшие песни (Часть 2)
Альбом/Исполнитель                       : Игорь Тальков
Трек                                     : Летний дождь
Трек/Положение                           : 7
Исполнитель                              : Игорь Тальков
Жанр                                     : Авторская песня
Дата записи                              : 2001
Дата кодирования                         : UTC 2014-05-23 12:15:49
Дата пометки                             : UTC 2014-05-23 17:09:13
Программа кодирования                    : Easy CD-DA Extractor (http://www.poikosoft.com)
Обложка                                  : Yes / Yes

Аудио
Идентификатор                            : 1
Формат                                   : ALAC
Идентификатор кодека                     : alac
Идентификатор кодека/Информация          : Apple Lossless Audio Codec
Продолжительность                        : 8 м. 39 с.
Duration_LastFrame                       : -39 мс.
Вид битрейта                             : Переменный
Битрейт                                  : 871 Кбит/сек
Каналы                                   : 2 канала
Частота                                  : 44,1 КГц
Битовая глубина                          : 16 бит
Размер потока                            : 53,9 Мбайт (99%)
Язык                                     : English
Дата кодирования                         : UTC 2014-05-23 12:15:49
Дата пометки                             : UTC 2014-05-23 17:09:13

Общее
Полное имя                               : /Users/Denis/Library/Containers/net.mediaarea.mediainfo.mac/Data/Music/iTunes/iTunes Media/Music/Игорь Тальков/Лучшие песни (Часть 2)/08 Память.m4a
Формат                                   : MPEG-4
Профиль формата                          : Apple audio with iTunes info
Идентификатор кодека                     : M4A
Размер файла                             : 31,6 Мбайт
Продолжительность                        : 5 м. 9 с.
Режим общего битрейта                    : Переменный
Общий поток                              : 856 Кбит/сек
Альбом                                   : Лучшие песни (Часть 2)
Альбом/Исполнитель                       : Игорь Тальков
Трек                                     : Память
Трек/Положение                           : 8
Исполнитель                              : Игорь Тальков
Жанр                                     : Авторская песня
Дата записи                              : 2001
Дата кодирования                         : UTC 2014-05-23 12:19:38
Дата пометки                             : UTC 2014-05-23 17:09:16
Программа кодирования                    : Easy CD-DA Extractor (http://www.poikosoft.com)
Обложка                                  : Yes / Yes

Аудио
Идентификатор                            : 1
Формат                                   : ALAC
Идентификатор кодека                     : alac
Идентификатор кодека/Информация          : Apple Lossless Audio Codec
Продолжительность                        : 5 м. 9 с.
Duration_LastFrame                       : -8 мс.
Вид битрейта                             : Переменный
Битрейт                                  : 834 Кбит/сек
Каналы                                   : 2 канала
Частота                                  : 44,1 КГц
Битовая глубина                          : 16 бит
Размер потока                            : 30,8 Мбайт (97%)
Язык                                     : English
Дата кодирования                         : UTC 2014-05-23 12:19:38
Дата пометки                             : UTC 2014-05-23 17:09:16

Общее
Полное имя                               : /Users/Denis/Library/Containers/net.mediaarea.mediainfo.mac/Data/Music/iTunes/iTunes Media/Music/Игорь Тальков/Лучшие песни (Часть 2)/09 Love You.m4a
Формат                                   : MPEG-4
Профиль формата                          : Apple audio with iTunes info
Идентификатор кодека                     : M4A
Размер файла                             : 43,5 Мбайт
Продолжительность                        : 5 м. 59 с.
Режим общего битрейта                    : Переменный
Общий поток                              : 1015 Кбит/сек
Альбом                                   : Лучшие песни (Часть 2)
Альбом/Исполнитель                       : Игорь Тальков
Трек                                     : Love You
Трек/Положение                           : 9
Исполнитель                              : Игорь Тальков
Жанр                                     : Авторская песня
Дата записи                              : 2001
Дата кодирования                         : UTC 2014-05-23 12:23:28
Дата пометки                             : UTC 2014-05-23 17:09:19
Программа кодирования                    : Easy CD-DA Extractor (http://www.poikosoft.com)
Обложка                                  : Yes / Yes

Аудио
Идентификатор                            : 1
Формат                                   : ALAC
Идентификатор кодека                     : alac
Идентификатор кодека/Информация          : Apple Lossless Audio Codec
Продолжительность                        : 5 м. 59 с.
Duration_LastFrame                       : -32 мс.
Вид битрейта                             : Переменный
Битрейт                                  : 996 Кбит/сек
Каналы                                   : 2 канала
Частота                                  : 44,1 КГц
Битовая глубина                          : 16 бит
Размер потока                            : 42,6 Мбайт (98%)
Язык                                     : English
Дата кодирования                         : UTC 2014-05-23 12:23:28
Дата пометки                             : UTC 2014-05-23 17:09:19

Общее
Полное имя                               : /Users/Denis/Library/Containers/net.mediaarea.mediainfo.mac/Data/Music/iTunes/iTunes Media/Music/Игорь Тальков/Лучшие песни (Часть 2)/10 Я вернусь.m4a
Формат                                   : MPEG-4
Профиль формата                          : Apple audio with iTunes info
Идентификатор кодека                     : M4A
Размер файла                             : 41,4 Мбайт
Продолжительность                        : 6 м. 18 с.
Режим общего битрейта                    : Переменный
Общий поток                              : 918 Кбит/сек
Альбом                                   : Лучшие песни (Часть 2)
Альбом/Исполнитель                       : Игорь Тальков
Трек                                     : Я вернусь
Трек/Положение                           : 10
Исполнитель                              : Игорь Тальков
Жанр                                     : Авторская песня
Дата записи                              : 2001
Дата кодирования                         : UTC 2014-05-23 12:27:59
Дата пометки                             : UTC 2014-05-23 17:09:22
Программа кодирования                    : Easy CD-DA Extractor (http://www.poikosoft.com)
Обложка                                  : Yes / Yes

Аудио
Идентификатор                            : 1
Формат                                   : ALAC
Идентификатор кодека                     : alac
Идентификатор кодека/Информация          : Apple Lossless Audio Codec
Продолжительность                        : 6 м. 18 с.
Duration_LastFrame                       : -34 мс.
Вид битрейта                             : Переменный
Битрейт                                  : 900 Кбит/сек
Каналы                                   : 2 канала
Частота                                  : 44,1 КГц
Битовая глубина                          : 16 бит
Размер потока                            : 40,6 Мбайт (98%)
Язык                                     : English
Дата кодирования                         : UTC 2014-05-23 12:27:59
Дата пометки                             : UTC 2014-05-23 17:09:22
Код:

-----------------------

DON'T MODIFY THIS FILE

-----------------------

PERFORMER: auCDtect Task Manager, ver. 1.6.0 RC1 build 1.6.0.1
Copyright (c) 2008-2010 y-soft. All rights reserved
http://y-soft.org

ANALYZER: auCDtect: CD records authenticity detector, version 0.8.2
Copyright (c) 2004 Oleg Berngardt. All rights reserved.
Copyright (c) 2004 Alexander Djourik. All rights reserved.

FILE: 10 Я вернусь.m4a
  Size: 43370980 Hash: 3FB07F02DBC9940BBE43CA7C4265824E Accuracy: -m40
  Conclusion: CDDA 100%
  Signature: D3D133A8B5F19954653805D1B3AFECB5BDDCC6D4
FILE: 09 Love You.m4a
  Size: 45562540 Hash: 437C440E5CEF62D24B5807AEB0D3E9B7 Accuracy: -m40
  Conclusion: CDDA 100%
  Signature: 53422FDBF0BC7746F8855643D122800967D64777
FILE: 08 Память.m4a
  Size: 33133252 Hash: B9426A2F0B7AA2AEAE9B356F0C95A64C Accuracy: -m8
  Conclusion: CDDA 100%
  Signature: 94C494556A3B83C77050239866ECF2D2E759CFB6
FILE: 07 Летний дождь.m4a
  Size: 57391666 Hash: E263F450D782C67F75B301E56158A284 Accuracy: -m40
  Conclusion: CDDA 100%
  Signature: 6A3C5C9C48CAC42C2604C09583C4898A8866CC5A
FILE: 06 Таня.m4a
  Size: 36224326 Hash: 4D8456F0B6B4227BA38FAB527A7E1FB5 Accuracy: -m40
  Conclusion: CDDA 100%
  Signature: 721E1770DA2E62F782E9C8FD3D97A7925F1FB251
FILE: 05 Ты опоздала.m4a
  Size: 33568112 Hash: B491B26D7D27A247D873E43BCB7DD44C Accuracy: -m40
  Conclusion: CDDA 100%
  Signature: B9BADD47C13B613BAA5AF0636238C4C389EC0BF9
FILE: 04 Моя любовь.m4a
  Size: 41656024 Hash: D928FD1CE3F979C660E745ACED1F7066 Accuracy: -m40
  Conclusion: CDDA 100%
  Signature: B1A9DE791B19774084DF507852FE031201027A48
FILE: 03 Солнце уходит на запад.m4a
  Size: 51011811 Hash: D745CFF1E9EC7E01D3B0C40FA0D121E3 Accuracy: -m40
  Conclusion: CDDA 100%
  Signature: 85B7C93CB645F4D09D8E2C403F359B4B7905B9D8
FILE: 02 Господа демократы.m4a
  Size: 28369196 Hash: 7B967E8FD7B560ACA0AA1C8FBB89811C Accuracy: -m40
  Conclusion: CDDA 100%
  Signature: 1BA91F8D191A114859A04D8D69876DC27D750377
FILE: 01 Глобус.m4a
  Size: 48070478 Hash: 8138B211F4AEEA8E586D32C58EC0FA0D Accuracy: -m40
  Conclusion: CDDA 100%
  Signature: AA16A592A83AAE45C93A6BB0131345DB0354F85D
Время раздачи: с 20:00 до 03:00 постоянно / часто 24/7 - До первых 5 скачавших
[NNM-Club.me]_Igor' Tal'kov (2001) Luchshie pesni (CHast' 2).torrent
 Торрент: Платиновая раздача  Зарегистрирован
 
Скачать


Примагнититься
 Зарегистрирован:   24 Май 2014 00:20:39
 Размер:   399 MB  (
 Рейтинг:   4.5 (Голосов: 75)
 Поблагодарили:   185
 Проверка:   Оформление проверено модератором 24 Май 2014 09:24:38
Как cкачать  ·  Как раздать  ·  Правильно оформить  ·  Поднять ратио!  
Показать сообщения:   
Начать новую тему   Ответить на тему    Торрент-трекер NNM-Club -> Аудио и Видео -> Музыка Lossless (ALAC) Часовой пояс: GMT + 3
Страница 1 из 1