Классический форум-трекер
canvas not supported
Нас вместе: 4 166 203

Кипелов - Путь наверх (Live) (2003) [ALAC|Tracks]<Heavy Metal>


 
 
RSS
Начать новую тему   Ответить на тему    Торрент-трекер NNM-Club -> Аудио и Видео -> Музыка Lossless (ALAC)
Автор Сообщение
Cecidit ®
Стаж: 7 лет 8 мес.
Сообщений: 129
Ratio: 39.772
Поблагодарили: 8806
100%
Откуда: Москва, МО Щелково
russia.gif
Кипелов - Путь наверх (Live) (2003)
Год: 2003
Жанр: Heavy Metal
Продолжительность: 01:54:20

Кодек: ALAC
Битрейт: Lossless
Тип раздачи: Tracks
Обложки: Вшиты
Кодирование: Easy CD-DA Extractor + iTunes

Запись концертного выступления была осуществлена 24 мая 2003 года во Дворце спорта «Юбилейный» в Санкт-Петербурге. В основном на концерте были исполнены композиции из репертуара группы «Ария» (в основном, написанные участниками группы), а также материал с совместного альбома Валерия Кипелова и Сергея Маврина «Смутное время».
Первый двойной концертный альбом, выпущенный в 2003 году лейблом «Русский хит»

Состав:
Валерий Кипелов - вокал
Сергей Маврин - гитара
Сергей Терентьев - гитара
Алексей Харьков - бас-гитара
Александр Манякин - барабаны.

Треклист:
Продолжительность: 00:52:08

01. Путь наверх (8:18)
02. Я не сошел с ума (6:18)
03. Грязь (4:33)
04. Бесы (3:43)
05. Дьявольский зной (5:20)
06. Castlevania (6:15)
07. Я свободен (7:10)
08. Путь в никуда (5:29)
09. Следуй за мной (5:03)
Продолжительность: 01:02:12

01. Потерянный рай (6:01)
02. Беспечный ангел (3:37)
03. Герой асфальта (5:16)
04. Мёртвая зона (6:43)
05. Закат (3:34)
06. Возьми моё сердце (3:54)
07. Тореро (6:50)
08. Машина смерти (5:10)
09. Воля и разум (7:40)
10. Встань, страх преодолей (bonus track) (4:46)
11. Мечты (bonus track) (4:18)
12. Здесь куют металл (bonus track) (4:23)
Mediainfo и отчет
Код:

Общее
Полное имя                               : /Users/Denis/Library/Containers/net.mediaarea.mediainfo.mac/Data/Music/iTunes/iTunes Media/Music/Кипелов/Путь наверх (Live)/1-01 Путь наверх.m4a
Формат                                   : MPEG-4
Профиль формата                          : Apple audio with iTunes info
Идентификатор кодека                     : M4A
Размер файла                             : 56,6 Мбайт
Продолжительность                        : 8 м. 17 с.
Режим общего битрейта                    : Переменный
Общий поток                              : 954 Кбит/сек
Альбом                                   : Путь наверх (Live)
Альбом/Исполнитель                       : Кипелов
Часть/Положение                          : 1
Часть/Всего                              : 2
Трек                                     : Путь наверх
Трек/Положение                           : 1
Исполнитель                              : Кипелов
Жанр                                     : Heavy Metal
Дата записи                              : 2003
Дата кодирования                         : UTC 2014-05-18 17:38:29
Дата пометки                             : UTC 2014-05-24 02:42:30
Программа кодирования                    : Easy CD-DA Extractor (http://www.poikosoft.com)
Обложка                                  : Yes

Аудио
Идентификатор                            : 1
Формат                                   : ALAC
Идентификатор кодека                     : alac
Идентификатор кодека/Информация          : Apple Lossless Audio Codec
Продолжительность                        : 8 м. 17 с.
Duration_LastFrame                       : -50 мс.
Вид битрейта                             : Переменный
Битрейт                                  : 952 Кбит/сек
Каналы                                   : 2 канала
Частота                                  : 44,1 КГц
Битовая глубина                          : 16 бит
Размер потока                            : 56,5 Мбайт (100%)
Язык                                     : English
Дата кодирования                         : UTC 2014-05-18 17:38:29
Дата пометки                             : UTC 2014-05-24 02:42:30

Общее
Полное имя                               : /Users/Denis/Library/Containers/net.mediaarea.mediainfo.mac/Data/Music/iTunes/iTunes Media/Music/Кипелов/Путь наверх (Live)/1-02 Я не сошёл с ума.m4a
Формат                                   : MPEG-4
Профиль формата                          : Apple audio with iTunes info
Идентификатор кодека                     : M4A
Размер файла                             : 45,7 Мбайт
Продолжительность                        : 6 м. 18 с.
Режим общего битрейта                    : Переменный
Общий поток                              : 1012 Кбит/сек
Альбом                                   : Путь наверх (Live)
Альбом/Исполнитель                       : Кипелов
Часть/Положение                          : 1
Часть/Всего                              : 2
Трек                                     : Я не сошёл с ума
Трек/Положение                           : 2
Исполнитель                              : Кипелов
Жанр                                     : Heavy Metal
Дата записи                              : 2003
Дата кодирования                         : UTC 2014-05-18 17:38:29
Дата пометки                             : UTC 2014-05-24 02:42:30
Программа кодирования                    : Easy CD-DA Extractor (http://www.poikosoft.com)
Обложка                                  : Yes

Аудио
Идентификатор                            : 1
Формат                                   : ALAC
Идентификатор кодека                     : alac
Идентификатор кодека/Информация          : Apple Lossless Audio Codec
Продолжительность                        : 6 м. 18 с.
Duration_LastFrame                       : -85 мс.
Вид битрейта                             : Переменный
Битрейт                                  : 1009 Кбит/сек
Каналы                                   : 2 канала
Частота                                  : 44,1 КГц
Битовая глубина                          : 16 бит
Размер потока                            : 45,5 Мбайт (100%)
Язык                                     : English
Дата кодирования                         : UTC 2014-05-18 17:38:29
Дата пометки                             : UTC 2014-05-24 02:42:30

Общее
Полное имя                               : /Users/Denis/Library/Containers/net.mediaarea.mediainfo.mac/Data/Music/iTunes/iTunes Media/Music/Кипелов/Путь наверх (Live)/1-03 Грязь.m4a
Формат                                   : MPEG-4
Профиль формата                          : Apple audio with iTunes info
Идентификатор кодека                     : M4A
Размер файла                             : 32,9 Мбайт
Продолжительность                        : 4 м. 33 с.
Режим общего битрейта                    : Переменный
Общий поток                              : 1012 Кбит/сек
Альбом                                   : Путь наверх (Live)
Альбом/Исполнитель                       : Кипелов
Часть/Положение                          : 1
Часть/Всего                              : 2
Трек                                     : Грязь
Трек/Положение                           : 3
Исполнитель                              : Кипелов
Жанр                                     : Heavy Metal
Дата записи                              : 2003
Дата кодирования                         : UTC 2014-05-18 17:39:57
Дата пометки                             : UTC 2014-05-24 02:42:30
Программа кодирования                    : Easy CD-DA Extractor (http://www.poikosoft.com)
Обложка                                  : Yes

Аудио
Идентификатор                            : 1
Формат                                   : ALAC
Идентификатор кодека                     : alac
Идентификатор кодека/Информация          : Apple Lossless Audio Codec
Продолжительность                        : 4 м. 33 с.
Duration_LastFrame                       : -67 мс.
Вид битрейта                             : Переменный
Битрейт                                  : 1008 Кбит/сек
Каналы                                   : 2 канала
Частота                                  : 44,1 КГц
Битовая глубина                          : 16 бит
Размер потока                            : 32,8 Мбайт (100%)
Язык                                     : English
Дата кодирования                         : UTC 2014-05-18 17:39:57
Дата пометки                             : UTC 2014-05-24 02:42:30

Общее
Полное имя                               : /Users/Denis/Library/Containers/net.mediaarea.mediainfo.mac/Data/Music/iTunes/iTunes Media/Music/Кипелов/Путь наверх (Live)/1-04 Бесы.m4a
Формат                                   : MPEG-4
Профиль формата                          : Apple audio with iTunes info
Идентификатор кодека                     : M4A
Размер файла                             : 26,3 Мбайт
Продолжительность                        : 3 м. 42 с.
Режим общего битрейта                    : Переменный
Общий поток                              : 990 Кбит/сек
Альбом                                   : Путь наверх (Live)
Альбом/Исполнитель                       : Кипелов
Часть/Положение                          : 1
Часть/Всего                              : 2
Трек                                     : Бесы
Трек/Положение                           : 4
Исполнитель                              : Кипелов
Жанр                                     : Heavy Metal
Дата записи                              : 2003
Дата кодирования                         : UTC 2014-05-18 17:40:05
Дата пометки                             : UTC 2014-05-24 02:42:30
Программа кодирования                    : Easy CD-DA Extractor (http://www.poikosoft.com)
Обложка                                  : Yes

Аудио
Идентификатор                            : 1
Формат                                   : ALAC
Идентификатор кодека                     : alac
Идентификатор кодека/Информация          : Apple Lossless Audio Codec
Продолжительность                        : 3 м. 42 с.
Duration_LastFrame                       : -33 мс.
Вид битрейта                             : Переменный
Битрейт                                  : 985 Кбит/сек
Каналы                                   : 2 канала
Частота                                  : 44,1 КГц
Битовая глубина                          : 16 бит
Размер потока                            : 26,1 Мбайт (100%)
Язык                                     : English
Дата кодирования                         : UTC 2014-05-18 17:40:05
Дата пометки                             : UTC 2014-05-24 02:42:30

Общее
Полное имя                               : /Users/Denis/Library/Containers/net.mediaarea.mediainfo.mac/Data/Music/iTunes/iTunes Media/Music/Кипелов/Путь наверх (Live)/1-05 Дьявольский зной.m4a
Формат                                   : MPEG-4
Профиль формата                          : Apple audio with iTunes info
Идентификатор кодека                     : M4A
Размер файла                             : 38,7 Мбайт
Продолжительность                        : 5 м. 20 с.
Режим общего битрейта                    : Переменный
Общий поток                              : 1013 Кбит/сек
Альбом                                   : Путь наверх (Live)
Альбом/Исполнитель                       : Кипелов
Часть/Положение                          : 1
Часть/Всего                              : 2
Трек                                     : Дьявольский зной
Трек/Положение                           : 5
Исполнитель                              : Кипелов
Жанр                                     : Heavy Metal
Дата записи                              : 2003
Дата кодирования                         : UTC 2014-05-18 17:41:06
Дата пометки                             : UTC 2014-05-24 02:42:30
Программа кодирования                    : Easy CD-DA Extractor (http://www.poikosoft.com)
Обложка                                  : Yes

Аудио
Идентификатор                            : 1
Формат                                   : ALAC
Идентификатор кодека                     : alac
Идентификатор кодека/Информация          : Apple Lossless Audio Codec
Продолжительность                        : 5 м. 20 с.
Duration_LastFrame                       : -89 мс.
Вид битрейта                             : Переменный
Битрейт                                  : 1009 Кбит/сек
Каналы                                   : 2 канала
Частота                                  : 44,1 КГц
Битовая глубина                          : 16 бит
Размер потока                            : 38,5 Мбайт (100%)
Язык                                     : English
Дата кодирования                         : UTC 2014-05-18 17:41:06
Дата пометки                             : UTC 2014-05-24 02:42:30

Общее
Полное имя                               : /Users/Denis/Library/Containers/net.mediaarea.mediainfo.mac/Data/Music/iTunes/iTunes Media/Music/Кипелов/Путь наверх (Live)/1-06 Castlevania.m4a
Формат                                   : MPEG-4
Профиль формата                          : Apple audio with iTunes info
Идентификатор кодека                     : M4A
Размер файла                             : 44,7 Мбайт
Продолжительность                        : 6 м. 14 с.
Режим общего битрейта                    : Переменный
Общий поток                              : 1000 Кбит/сек
Альбом                                   : Путь наверх (Live)
Альбом/Исполнитель                       : Кипелов
Часть/Положение                          : 1
Часть/Всего                              : 2
Трек                                     : Castlevania
Трек/Положение                           : 6
Исполнитель                              : Кипелов
Жанр                                     : Heavy Metal
Дата записи                              : 2003
Дата кодирования                         : UTC 2014-05-18 17:41:13
Дата пометки                             : UTC 2014-05-24 02:42:30
Программа кодирования                    : Easy CD-DA Extractor (http://www.poikosoft.com)
Обложка                                  : Yes

Аудио
Идентификатор                            : 1
Формат                                   : ALAC
Идентификатор кодека                     : alac
Идентификатор кодека/Информация          : Apple Lossless Audio Codec
Продолжительность                        : 6 м. 14 с.
Duration_LastFrame                       : -76 мс.
Вид битрейта                             : Переменный
Битрейт                                  : 997 Кбит/сек
Каналы                                   : 2 канала
Частота                                  : 44,1 КГц
Битовая глубина                          : 16 бит
Размер потока                            : 44,5 Мбайт (100%)
Язык                                     : English
Дата кодирования                         : UTC 2014-05-18 17:41:13
Дата пометки                             : UTC 2014-05-24 02:42:30

Общее
Полное имя                               : /Users/Denis/Library/Containers/net.mediaarea.mediainfo.mac/Data/Music/iTunes/iTunes Media/Music/Кипелов/Путь наверх (Live)/1-07 Я свободен.m4a
Формат                                   : MPEG-4
Профиль формата                          : Apple audio with iTunes info
Идентификатор кодека                     : M4A
Размер файла                             : 48,4 Мбайт
Продолжительность                        : 7 м. 9 с.
Режим общего битрейта                    : Переменный
Общий поток                              : 945 Кбит/сек
Альбом                                   : Путь наверх (Live)
Альбом/Исполнитель                       : Кипелов
Часть/Положение                          : 1
Часть/Всего                              : 2
Трек                                     : Я свободен
Трек/Положение                           : 7
Исполнитель                              : Кипелов
Жанр                                     : Heavy Metal
Дата записи                              : 2003
Дата кодирования                         : UTC 2014-05-18 17:42:54
Дата пометки                             : UTC 2014-05-24 02:42:30
Программа кодирования                    : Easy CD-DA Extractor (http://www.poikosoft.com)
Обложка                                  : Yes

Аудио
Идентификатор                            : 1
Формат                                   : ALAC
Идентификатор кодека                     : alac
Идентификатор кодека/Информация          : Apple Lossless Audio Codec
Продолжительность                        : 7 м. 9 с.
Duration_LastFrame                       : -74 мс.
Вид битрейта                             : Переменный
Битрейт                                  : 942 Кбит/сек
Каналы                                   : 2 канала
Частота                                  : 44,1 КГц
Битовая глубина                          : 16 бит
Размер потока                            : 48,3 Мбайт (100%)
Язык                                     : English
Дата кодирования                         : UTC 2014-05-18 17:42:54
Дата пометки                             : UTC 2014-05-24 02:42:30

Общее
Полное имя                               : /Users/Denis/Library/Containers/net.mediaarea.mediainfo.mac/Data/Music/iTunes/iTunes Media/Music/Кипелов/Путь наверх (Live)/1-08 Путь в никуда.m4a
Формат                                   : MPEG-4
Профиль формата                          : Apple audio with iTunes info
Идентификатор кодека                     : M4A
Размер файла                             : 40,1 Мбайт
Продолжительность                        : 5 м. 29 с.
Режим общего битрейта                    : Переменный
Общий поток                              : 1022 Кбит/сек
Альбом                                   : Путь наверх (Live)
Альбом/Исполнитель                       : Кипелов
Часть/Положение                          : 1
Часть/Всего                              : 2
Трек                                     : Путь в никуда
Трек/Положение                           : 8
Исполнитель                              : Кипелов
Жанр                                     : Heavy Metal
Дата записи                              : 2003
Дата кодирования                         : UTC 2014-05-18 17:43:10
Дата пометки                             : UTC 2014-05-24 02:42:30
Программа кодирования                    : Easy CD-DA Extractor (http://www.poikosoft.com)
Обложка                                  : Yes

Аудио
Идентификатор                            : 1
Формат                                   : ALAC
Идентификатор кодека                     : alac
Идентификатор кодека/Информация          : Apple Lossless Audio Codec
Продолжительность                        : 5 м. 29 с.
Duration_LastFrame                       : -45 мс.
Вид битрейта                             : Переменный
Битрейт                                  : 1019 Кбит/сек
Каналы                                   : 2 канала
Частота                                  : 44,1 КГц
Битовая глубина                          : 16 бит
Размер потока                            : 40,0 Мбайт (100%)
Язык                                     : English
Дата кодирования                         : UTC 2014-05-18 17:43:10
Дата пометки                             : UTC 2014-05-24 02:42:30

Общее
Полное имя                               : /Users/Denis/Library/Containers/net.mediaarea.mediainfo.mac/Data/Music/iTunes/iTunes Media/Music/Кипелов/Путь наверх (Live)/1-09 Следуй за мной.m4a
Формат                                   : MPEG-4
Профиль формата                          : Apple audio with iTunes info
Идентификатор кодека                     : M4A
Размер файла                             : 34,4 Мбайт
Продолжительность                        : 5 м. 2 с.
Режим общего битрейта                    : Переменный
Общий поток                              : 955 Кбит/сек
Альбом                                   : Путь наверх (Live)
Альбом/Исполнитель                       : Кипелов
Часть/Положение                          : 1
Часть/Всего                              : 2
Трек                                     : Следуй за мной
Трек/Положение                           : 9
Исполнитель                              : Кипелов
Жанр                                     : Heavy Metal
Дата записи                              : 2003
Дата кодирования                         : UTC 2014-05-18 17:45:01
Дата пометки                             : UTC 2014-05-24 02:42:30
Программа кодирования                    : Easy CD-DA Extractor (http://www.poikosoft.com)
Обложка                                  : Yes

Аудио
Идентификатор                            : 1
Формат                                   : ALAC
Идентификатор кодека                     : alac
Идентификатор кодека/Информация          : Apple Lossless Audio Codec
Продолжительность                        : 5 м. 2 с.
Duration_LastFrame                       : -69 мс.
Вид битрейта                             : Переменный
Битрейт                                  : 951 Кбит/сек
Каналы                                   : 2 канала
Частота                                  : 44,1 КГц
Битовая глубина                          : 16 бит
Размер потока                            : 34,3 Мбайт (100%)
Язык                                     : English
Дата кодирования                         : UTC 2014-05-18 17:45:01
Дата пометки                             : UTC 2014-05-24 02:42:30

Общее
Полное имя                               : /Users/Denis/Library/Containers/net.mediaarea.mediainfo.mac/Data/Music/iTunes/iTunes Media/Music/Кипелов/Путь наверх (Live)/2-01 Потерянный рай.m4a
Формат                                   : MPEG-4
Профиль формата                          : Apple audio with iTunes info
Идентификатор кодека                     : M4A
Размер файла                             : 41,3 Мбайт
Продолжительность                        : 6 м. 1 с.
Режим общего битрейта                    : Переменный
Общий поток                              : 958 Кбит/сек
Альбом                                   : Путь наверх (Live)
Альбом/Исполнитель                       : Кипелов
Часть/Положение                          : 2
Часть/Всего                              : 2
Трек                                     : Потерянный рай
Трек/Положение                           : 1
Исполнитель                              : Кипелов
Жанр                                     : Heavy Metal
Дата записи                              : 2003
Дата кодирования                         : UTC 2014-05-18 17:58:41
Дата пометки                             : UTC 2014-05-24 02:41:57
Программа кодирования                    : Easy CD-DA Extractor (http://www.poikosoft.com)
Обложка                                  : Yes

Аудио
Идентификатор                            : 1
Формат                                   : ALAC
Идентификатор кодека                     : alac
Идентификатор кодека/Информация          : Apple Lossless Audio Codec
Продолжительность                        : 6 м. 1 с.
Duration_LastFrame                       : -22 мс.
Вид битрейта                             : Переменный
Битрейт                                  : 955 Кбит/сек
Каналы                                   : 2 канала
Частота                                  : 44,1 КГц
Битовая глубина                          : 16 бит
Размер потока                            : 41,1 Мбайт (100%)
Язык                                     : English
Дата кодирования                         : UTC 2014-05-18 17:58:41
Дата пометки                             : UTC 2014-05-24 02:41:57

Общее
Полное имя                               : /Users/Denis/Library/Containers/net.mediaarea.mediainfo.mac/Data/Music/iTunes/iTunes Media/Music/Кипелов/Путь наверх (Live)/2-02 Беспечный ангел.m4a
Формат                                   : MPEG-4
Профиль формата                          : Apple audio with iTunes info
Идентификатор кодека                     : M4A
Размер файла                             : 25,2 Мбайт
Продолжительность                        : 3 м. 36 с.
Режим общего битрейта                    : Переменный
Общий поток                              : 975 Кбит/сек
Альбом                                   : Путь наверх (Live)
Альбом/Исполнитель                       : Кипелов
Часть/Положение                          : 2
Часть/Всего                              : 2
Трек                                     : Беспечный ангел
Трек/Положение                           : 2
Исполнитель                              : Кипелов
Жанр                                     : Heavy Metal
Дата записи                              : 2003
Дата кодирования                         : UTC 2014-05-18 17:58:41
Дата пометки                             : UTC 2014-05-24 02:41:58
Программа кодирования                    : Easy CD-DA Extractor (http://www.poikosoft.com)
Обложка                                  : Yes

Аудио
Идентификатор                            : 1
Формат                                   : ALAC
Идентификатор кодека                     : alac
Идентификатор кодека/Информация          : Apple Lossless Audio Codec
Продолжительность                        : 3 м. 36 с.
Duration_LastFrame                       : -7 мс.
Вид битрейта                             : Переменный
Битрейт                                  : 970 Кбит/сек
Каналы                                   : 2 канала
Частота                                  : 44,1 КГц
Битовая глубина                          : 16 бит
Размер потока                            : 25,1 Мбайт (99%)
Язык                                     : English
Дата кодирования                         : UTC 2014-05-18 17:58:41
Дата пометки                             : UTC 2014-05-24 02:41:58

Общее
Полное имя                               : /Users/Denis/Library/Containers/net.mediaarea.mediainfo.mac/Data/Music/iTunes/iTunes Media/Music/Кипелов/Путь наверх (Live)/2-03 Герой асфальта.m4a
Формат                                   : MPEG-4
Профиль формата                          : Apple audio with iTunes info
Идентификатор кодека                     : M4A
Размер файла                             : 36,9 Мбайт
Продолжительность                        : 5 м. 16 с.
Режим общего битрейта                    : Переменный
Общий поток                              : 977 Кбит/сек
Альбом                                   : Путь наверх (Live)
Альбом/Исполнитель                       : Кипелов
Часть/Положение                          : 2
Часть/Всего                              : 2
Трек                                     : Герой асфальта
Трек/Положение                           : 3
Исполнитель                              : Кипелов
Жанр                                     : Heavy Metal
Дата записи                              : 2003
Дата кодирования                         : UTC 2014-05-18 17:59:35
Дата пометки                             : UTC 2014-05-24 02:41:58
Программа кодирования                    : Easy CD-DA Extractor (http://www.poikosoft.com)
Обложка                                  : Yes

Аудио
Идентификатор                            : 1
Формат                                   : ALAC
Идентификатор кодека                     : alac
Идентификатор кодека/Информация          : Apple Lossless Audio Codec
Продолжительность                        : 5 м. 16 с.
Duration_LastFrame                       : -82 мс.
Вид битрейта                             : Переменный
Битрейт                                  : 974 Кбит/сек
Каналы                                   : 2 канала
Частота                                  : 44,1 КГц
Битовая глубина                          : 16 бит
Размер потока                            : 36,7 Мбайт (100%)
Язык                                     : English
Дата кодирования                         : UTC 2014-05-18 17:59:35
Дата пометки                             : UTC 2014-05-24 02:41:58

Общее
Полное имя                               : /Users/Denis/Library/Containers/net.mediaarea.mediainfo.mac/Data/Music/iTunes/iTunes Media/Music/Кипелов/Путь наверх (Live)/2-04 Мёртвая зона.m4a
Формат                                   : MPEG-4
Профиль формата                          : Apple audio with iTunes info
Идентификатор кодека                     : M4A
Размер файла                             : 46,9 Мбайт
Продолжительность                        : 6 м. 43 с.
Режим общего битрейта                    : Переменный
Общий поток                              : 975 Кбит/сек
Альбом                                   : Путь наверх (Live)
Альбом/Исполнитель                       : Кипелов
Часть/Положение                          : 2
Часть/Всего                              : 2
Трек                                     : Мёртвая зона
Трек/Положение                           : 4
Исполнитель                              : Кипелов
Жанр                                     : Heavy Metal
Дата записи                              : 2003
Дата кодирования                         : UTC 2014-05-18 17:59:48
Дата пометки                             : UTC 2014-05-24 02:41:58
Программа кодирования                    : Easy CD-DA Extractor (http://www.poikosoft.com)
Обложка                                  : Yes

Аудио
Идентификатор                            : 1
Формат                                   : ALAC
Идентификатор кодека                     : alac
Идентификатор кодека/Информация          : Apple Lossless Audio Codec
Продолжительность                        : 6 м. 43 с.
Duration_LastFrame                       : -57 мс.
Вид битрейта                             : Переменный
Битрейт                                  : 972 Кбит/сек
Каналы                                   : 2 канала
Частота                                  : 44,1 КГц
Битовая глубина                          : 16 бит
Размер потока                            : 46,7 Мбайт (100%)
Язык                                     : English
Дата кодирования                         : UTC 2014-05-18 17:59:48
Дата пометки                             : UTC 2014-05-24 02:41:58

Общее
Полное имя                               : /Users/Denis/Library/Containers/net.mediaarea.mediainfo.mac/Data/Music/iTunes/iTunes Media/Music/Кипелов/Путь наверх (Live)/2-05 Закат.m4a
Формат                                   : MPEG-4
Профиль формата                          : Apple audio with iTunes info
Идентификатор кодека                     : M4A
Размер файла                             : 23,7 Мбайт
Продолжительность                        : 3 м. 33 с.
Режим общего битрейта                    : Переменный
Общий поток                              : 928 Кбит/сек
Альбом                                   : Путь наверх (Live)
Альбом/Исполнитель                       : Кипелов
Часть/Положение                          : 2
Часть/Всего                              : 2
Трек                                     : Закат
Трек/Положение                           : 5
Исполнитель                              : Кипелов
Жанр                                     : Heavy Metal
Дата записи                              : 2003
Дата кодирования                         : UTC 2014-05-18 18:00:41
Дата пометки                             : UTC 2014-05-24 02:41:58
Программа кодирования                    : Easy CD-DA Extractor (http://www.poikosoft.com)
Обложка                                  : Yes

Аудио
Идентификатор                            : 1
Формат                                   : ALAC
Идентификатор кодека                     : alac
Идентификатор кодека/Информация          : Apple Lossless Audio Codec
Продолжительность                        : 3 м. 33 с.
Duration_LastFrame                       : -89 мс.
Вид битрейта                             : Переменный
Битрейт                                  : 923 Кбит/сек
Каналы                                   : 2 канала
Частота                                  : 44,1 КГц
Битовая глубина                          : 16 бит
Размер потока                            : 23,5 Мбайт (99%)
Язык                                     : English
Дата кодирования                         : UTC 2014-05-18 18:00:41
Дата пометки                             : UTC 2014-05-24 02:41:58

Общее
Полное имя                               : /Users/Denis/Library/Containers/net.mediaarea.mediainfo.mac/Data/Music/iTunes/iTunes Media/Music/Кипелов/Путь наверх (Live)/2-06 Возьми моё сердце.m4a
Формат                                   : MPEG-4
Профиль формата                          : Apple audio with iTunes info
Идентификатор кодека                     : M4A
Размер файла                             : 27,4 Мбайт
Продолжительность                        : 3 м. 53 с.
Режим общего битрейта                    : Переменный
Общий поток                              : 981 Кбит/сек
Альбом                                   : Путь наверх (Live)
Альбом/Исполнитель                       : Кипелов
Часть/Положение                          : 2
Часть/Всего                              : 2
Трек                                     : Возьми моё сердце
Трек/Положение                           : 6
Исполнитель                              : Кипелов
Жанр                                     : Heavy Metal
Дата записи                              : 2003
Дата кодирования                         : UTC 2014-05-18 18:01:20
Дата пометки                             : UTC 2014-05-24 02:41:58
Программа кодирования                    : Easy CD-DA Extractor (http://www.poikosoft.com)
Обложка                                  : Yes

Аудио
Идентификатор                            : 1
Формат                                   : ALAC
Идентификатор кодека                     : alac
Идентификатор кодека/Информация          : Apple Lossless Audio Codec
Продолжительность                        : 3 м. 53 с.
Duration_LastFrame                       : -71 мс.
Вид битрейта                             : Переменный
Битрейт                                  : 977 Кбит/сек
Каналы                                   : 2 канала
Частота                                  : 44,1 КГц
Битовая глубина                          : 16 бит
Размер потока                            : 27,2 Мбайт (100%)
Язык                                     : English
Дата кодирования                         : UTC 2014-05-18 18:01:20
Дата пометки                             : UTC 2014-05-24 02:41:58

Общее
Полное имя                               : /Users/Denis/Library/Containers/net.mediaarea.mediainfo.mac/Data/Music/iTunes/iTunes Media/Music/Кипелов/Путь наверх (Live)/2-07 Тореро.m4a
Формат                                   : MPEG-4
Профиль формата                          : Apple audio with iTunes info
Идентификатор кодека                     : M4A
Размер файла                             : 48,0 Мбайт
Продолжительность                        : 6 м. 49 с.
Режим общего битрейта                    : Переменный
Общий поток                              : 984 Кбит/сек
Альбом                                   : Путь наверх (Live)
Альбом/Исполнитель                       : Кипелов
Часть/Положение                          : 2
Часть/Всего                              : 2
Трек                                     : Тореро
Трек/Положение                           : 7
Исполнитель                              : Кипелов
Жанр                                     : Heavy Metal
Дата записи                              : 2003
Дата кодирования                         : UTC 2014-05-18 18:01:50
Дата пометки                             : UTC 2014-05-24 02:41:58
Программа кодирования                    : Easy CD-DA Extractor (http://www.poikosoft.com)
Обложка                                  : Yes

Аудио
Идентификатор                            : 1
Формат                                   : ALAC
Идентификатор кодека                     : alac
Идентификатор кодека/Информация          : Apple Lossless Audio Codec
Продолжительность                        : 6 м. 49 с.
Duration_LastFrame                       : -40 мс.
Вид битрейта                             : Переменный
Битрейт                                  : 981 Кбит/сек
Каналы                                   : 2 канала
Частота                                  : 44,1 КГц
Битовая глубина                          : 16 бит
Размер потока                            : 47,9 Мбайт (100%)
Язык                                     : English
Дата кодирования                         : UTC 2014-05-18 18:01:50
Дата пометки                             : UTC 2014-05-24 02:41:58

Общее
Полное имя                               : /Users/Denis/Library/Containers/net.mediaarea.mediainfo.mac/Data/Music/iTunes/iTunes Media/Music/Кипелов/Путь наверх (Live)/2-08 Машина смерти.m4a
Формат                                   : MPEG-4
Профиль формата                          : Apple audio with iTunes info
Идентификатор кодека                     : M4A
Размер файла                             : 35,4 Мбайт
Продолжительность                        : 5 м. 10 с.
Режим общего битрейта                    : Переменный
Общий поток                              : 958 Кбит/сек
Альбом                                   : Путь наверх (Live)
Альбом/Исполнитель                       : Кипелов
Часть/Положение                          : 2
Часть/Всего                              : 2
Трек                                     : Машина смерти
Трек/Положение                           : 8
Исполнитель                              : Кипелов
Жанр                                     : Heavy Metal
Дата записи                              : 2003
Дата кодирования                         : UTC 2014-05-18 18:02:50
Дата пометки                             : UTC 2014-05-24 02:41:58
Программа кодирования                    : Easy CD-DA Extractor (http://www.poikosoft.com)
Обложка                                  : Yes

Аудио
Идентификатор                            : 1
Формат                                   : ALAC
Идентификатор кодека                     : alac
Идентификатор кодека/Информация          : Apple Lossless Audio Codec
Продолжительность                        : 5 м. 10 с.
Duration_LastFrame                       : -84 мс.
Вид битрейта                             : Переменный
Битрейт                                  : 954 Кбит/сек
Каналы                                   : 2 канала
Частота                                  : 44,1 КГц
Битовая глубина                          : 16 бит
Размер потока                            : 35,3 Мбайт (100%)
Язык                                     : English
Дата кодирования                         : UTC 2014-05-18 18:02:50
Дата пометки                             : UTC 2014-05-24 02:41:58

Общее
Полное имя                               : /Users/Denis/Library/Containers/net.mediaarea.mediainfo.mac/Data/Music/iTunes/iTunes Media/Music/Кипелов/Путь наверх (Live)/2-09 Воля и разум.m4a
Формат                                   : MPEG-4
Профиль формата                          : Apple audio with iTunes info
Идентификатор кодека                     : M4A
Размер файла                             : 51,3 Мбайт
Продолжительность                        : 7 м. 40 с.
Режим общего битрейта                    : Переменный
Общий поток                              : 934 Кбит/сек
Альбом                                   : Путь наверх (Live)
Альбом/Исполнитель                       : Кипелов
Часть/Положение                          : 2
Часть/Всего                              : 2
Трек                                     : Воля и разум
Трек/Положение                           : 9
Исполнитель                              : Кипелов
Жанр                                     : Heavy Metal
Дата записи                              : 2003
Дата кодирования                         : UTC 2014-05-18 18:04:21
Дата пометки                             : UTC 2014-05-24 02:41:58
Программа кодирования                    : Easy CD-DA Extractor (http://www.poikosoft.com)
Обложка                                  : Yes

Аудио
Идентификатор                            : 1
Формат                                   : ALAC
Идентификатор кодека                     : alac
Идентификатор кодека/Информация          : Apple Lossless Audio Codec
Продолжительность                        : 7 м. 40 с.
Duration_LastFrame                       : -85 мс.
Вид битрейта                             : Переменный
Битрейт                                  : 932 Кбит/сек
Каналы                                   : 2 канала
Частота                                  : 44,1 КГц
Битовая глубина                          : 16 бит
Размер потока                            : 51,1 Мбайт (100%)
Язык                                     : English
Дата кодирования                         : UTC 2014-05-18 18:04:21
Дата пометки                             : UTC 2014-05-24 02:41:58

Общее
Полное имя                               : /Users/Denis/Library/Containers/net.mediaarea.mediainfo.mac/Data/Music/iTunes/iTunes Media/Music/Кипелов/Путь наверх (Live)/2-11 Мечты (Bonus track).m4a
Формат                                   : MPEG-4
Профиль формата                          : Apple audio with iTunes info
Идентификатор кодека                     : M4A
Размер файла                             : 30,4 Мбайт
Продолжительность                        : 4 м. 18 с.
Режим общего битрейта                    : Переменный
Общий поток                              : 988 Кбит/сек
Альбом                                   : Путь наверх (Live)
Альбом/Исполнитель                       : Кипелов
Часть/Положение                          : 2
Часть/Всего                              : 2
Трек                                     : Мечты (Bonus track)
Трек/Положение                           : 11
Исполнитель                              : Кипелов
Жанр                                     : Heavy Metal
Дата записи                              : 2003
Дата кодирования                         : UTC 2014-05-18 18:06:50
Дата пометки                             : UTC 2014-05-24 02:41:58
Программа кодирования                    : Easy CD-DA Extractor (http://www.poikosoft.com)
Обложка                                  : Yes

Аудио
Идентификатор                            : 1
Формат                                   : ALAC
Идентификатор кодека                     : alac
Идентификатор кодека/Информация          : Apple Lossless Audio Codec
Продолжительность                        : 4 м. 18 с.
Duration_LastFrame                       : -73 мс.
Вид битрейта                             : Переменный
Битрейт                                  : 984 Кбит/сек
Каналы                                   : 2 канала
Частота                                  : 44,1 КГц
Битовая глубина                          : 16 бит
Размер потока                            : 30,3 Мбайт (100%)
Язык                                     : English
Дата кодирования                         : UTC 2014-05-18 18:06:50
Дата пометки                             : UTC 2014-05-24 02:41:58

Общее
Полное имя                               : /Users/Denis/Library/Containers/net.mediaarea.mediainfo.mac/Data/Music/iTunes/iTunes Media/Music/Кипелов/Путь наверх (Live)/2-12 Здесь куют металл (Bonus track).m4a
Формат                                   : MPEG-4
Профиль формата                          : Apple audio with iTunes info
Идентификатор кодека                     : M4A
Размер файла                             : 30,6 Мбайт
Продолжительность                        : 4 м. 23 с.
Режим общего битрейта                    : Переменный
Общий поток                              : 974 Кбит/сек
Альбом                                   : Путь наверх (Live)
Альбом/Исполнитель                       : Кипелов
Часть/Положение                          : 2
Часть/Всего                              : 2
Трек                                     : Здесь куют металл (Bonus track)
Трек/Положение                           : 12
Исполнитель                              : Кипелов
Жанр                                     : Heavy Metal
Дата записи                              : 2003
Дата кодирования                         : UTC 2014-05-18 18:07:38
Дата пометки                             : UTC 2014-05-24 02:41:58
Программа кодирования                    : Easy CD-DA Extractor (http://www.poikosoft.com)
Обложка                                  : Yes

Аудио
Идентификатор                            : 1
Формат                                   : ALAC
Идентификатор кодека                     : alac
Идентификатор кодека/Информация          : Apple Lossless Audio Codec
Продолжительность                        : 4 м. 23 с.
Duration_LastFrame                       : -88 мс.
Вид битрейта                             : Переменный
Битрейт                                  : 970 Кбит/сек
Каналы                                   : 2 канала
Частота                                  : 44,1 КГц
Битовая глубина                          : 16 бит
Размер потока                            : 30,4 Мбайт (100%)
Язык                                     : English
Дата кодирования                         : UTC 2014-05-18 18:07:38
Дата пометки                             : UTC 2014-05-24 02:41:58
Код:

-----------------------

DON'T MODIFY THIS FILE

-----------------------

PERFORMER: auCDtect Task Manager, ver. 1.6.0 RC1 build 1.6.0.1
Copyright (c) 2008-2010 y-soft. All rights reserved
http://y-soft.org

ANALYZER: auCDtect: CD records authenticity detector, version 0.8.2
Copyright (c) 2004 Oleg Berngardt. All rights reserved.
Copyright (c) 2004 Alexander Djourik. All rights reserved.

FILE: 2-12 Здесь куют металл (Bonus track).m4a
  Size: 32037872 Hash: 25AFAE63EE3FB8375081E35C4BA373A4 Accuracy: -m40
  Conclusion: CDDA 100%
  Signature: A3A0A43B5DB88D2DDED085F81939DE69519A1690
FILE: 2-11 Мечты (Bonus track).m4a
  Size: 31871103 Hash: 8E4083F3A4AAC1F1E82C9A47DE2DC1BD Accuracy: -m40
  Conclusion: CDDA 100%
  Signature: 932DE6790AA7E33B24A8098DA4F7FFC79EC4603E
FILE: 2-10 Встань, страх преодолей (Bonus track).m4a
  Size: 35571236 Hash: F8ACD19CDFA691E3826BA1D37E171122 Accuracy: -m8
  Conclusion: CDDA 100%
  Signature: 829B6A8398AC818DA8F3031275CB4CFD3EE573C9
FILE: 2-09 Воля и разум.m4a
  Size: 53776452 Hash: 9EFD8C2489F88A279924EE150E2542B6 Accuracy: -m40
  Conclusion: CDDA 100%
  Signature: 9C2F0128192F99B1A07F3AA55528A51287378467
FILE: 2-08 Машина смерти.m4a
  Size: 37141446 Hash: 6EAC49BB9A2E12DA7BBC4761C7C84209 Accuracy: -m40
  Conclusion: CDDA 100%
  Signature: F87B1365472C0286053BF488B3C7F2EAACDEB473
FILE: 2-07 Тореро.m4a
  Size: 50364337 Hash: 428534AF725CF093C2A3043CEDE91DC1 Accuracy: -m40
  Conclusion: CDDA 100%
  Signature: 9F4679709FE7B194C50BD3FF0778649D286CEC87
FILE: 2-06 Возьми моё сердце.m4a
  Size: 28689627 Hash: D92C4A25E5E1951553DA254B0C6BC4DF Accuracy: -m40
  Conclusion: CDDA 100%
  Signature: 39639BAF2B825847EC4FF7FEF183CC35B2521CCC
FILE: 2-05 Закат.m4a
  Size: 24804620 Hash: 48E1694C482D90F4ECE6544B6A62A8FF Accuracy: -m40
  Conclusion: CDDA 100%
  Signature: A80E3AB85B4C9F5CCE42FE0C2AE6970A530F2172
FILE: 2-04 Мёртвая зона.m4a
  Size: 49139352 Hash: F784874778AC1B61EB5ADDE917B0A2A9 Accuracy: -m8
  Conclusion: CDDA 100%
  Signature: E6F6212DC9D93D7DCD241AB0A0E5DAEE4394F332
FILE: 2-03 Герой асфальта.m4a
  Size: 38648330 Hash: CF89CA264210AE00CF6FE8D0E331979D Accuracy: -m8
  Conclusion: CDDA 100%
  Signature: 3D1A00F924FA645C890E36F5204C1ECBCD7EB8BD
FILE: 2-02 Беспечный ангел.m4a
  Size: 26446662 Hash: 0CFB128BE570E6843D4B32AD74CEB6B3 Accuracy: -m40
  Conclusion: CDDA 100%
  Signature: D46D7FCAB39A9A8ECEDE6A9AD3A3A8D5F9B4221F
FILE: 2-01 Потерянный рай.m4a
  Size: 43264598 Hash: D94025586B419B71C47A6D72BFF98CCB Accuracy: -m40
  Conclusion: CDDA 100%
  Signature: 6BF9005F6C58451694A17B65F0CB0665455B4FE3
FILE: 1-09 Следуй за мной.m4a
  Size: 36101592 Hash: EE309CC27DA2D73F3FF769FBAC523D2B Accuracy: -m40
  Conclusion: CDDA 100%
  Signature: 52DD7052A03B1ADAEBFFF5EF26F5E6BF68F36C92
FILE: 1-08 Путь в никуда.m4a
  Size: 42099082 Hash: B6F2E047A003E423EAAE185CCCD1E184 Accuracy: -m8
  Conclusion: CDDA 100%
  Signature: D5750BFCDD067AC37B5F00B1BE41951E52596EA1
FILE: 1-07 Я свободен.m4a
  Size: 50756310 Hash: 02E05A0630699DA041B18C8C860D6E6A Accuracy: -m40
  Conclusion: CDDA 100%
  Signature: CF5EEE7B09AF1EFC1EDA27C1CDA4A2168900264A
FILE: 1-06 Castlevania.m4a
  Size: 46853287 Hash: E9C33B7081669765B99A301CBF19FE45 Accuracy: -m8
  Conclusion: CDDA 100%
  Signature: 1FD3E10BB2D644E3D6B5FCC4EAC7209440D3E17C
FILE: 1-05 Дьявольский зной.m4a
  Size: 40544282 Hash: 1ABBA325E269D11B6581FAFAD88994F5 Accuracy: -m40
  Conclusion: CDDA 100%
  Signature: A21CE65024EB2FF2FE63967C9ACA737A8580F61F
FILE: 1-04 Бесы.m4a
  Size: 27557567 Hash: 095B9AB56D309AF24FFB875EF5BA8935 Accuracy: -m40
  Conclusion: CDDA 100%
  Signature: 4EFA4B3C025BDCBC4B6C23A61B9AF058A483C8F8
FILE: 1-03 Грязь.m4a
  Size: 34537374 Hash: 63801422B4A40924AE8C5851DE343917 Accuracy: -m40
  Conclusion: CDDA 100%
  Signature: 0630A3062202FD5AB9A3C6522E80C3FF6C53CCD7
FILE: 1-02 Я не сошёл с ума.m4a
  Size: 47898197 Hash: 2FC6808E80F0230EE44AAB3185A2FD2C Accuracy: -m40
  Conclusion: CDDA 100%
  Signature: 6BD6A8F1234DE39DEEC101765FF106DA57AA6ABF
FILE: 1-01 Путь наверх.m4a
  Size: 59364139 Hash: CCBABE47711C77A616F07D90039E3750 Accuracy: -m40
  Conclusion: CDDA 100%
  Signature: ACC4AC9A977D93F72172FBEE6EF09ED4CB9C272C
Время раздачи: с 20:00 до 03:00 постоянно / часто 24/7 - До первых 5 скачавших
[NNM-Club.me]_Kipelov (2003) Put' naverh (Live).torrent
 Торрент: Платиновая раздача  Зарегистрирован
 
Скачать


Примагнититься
 Зарегистрирован:   24 Май 2014 03:46:11
 Размер:   799 MB  (
 Рейтинг:    (Голосов: 9)
 Поблагодарили:   25
 Проверка:   Оформление проверено модератором 24 Май 2014 09:26:15
Как cкачать  ·  Как раздать  ·  Правильно оформить  ·  Поднять ратио!  
holodniyyar
Стаж: 5 лет 1 мес.
Сообщений: 1
Ratio: 32.527
0%
ukraine.gif
Раздайте пожалуйста...
Показать сообщения:   
Начать новую тему   Ответить на тему    Торрент-трекер NNM-Club -> Аудио и Видео -> Музыка Lossless (ALAC) Часовой пояс: GMT + 3
Страница 1 из 1