Классический форум-трекер
canvas not supported
Нас вместе: 4 171 366

Кипелов - Реки времен - ремикс ремастеред (2007) [ALAC|Tracks]<Heavy Metal>


 
 
RSS
Начать новую тему   Ответить на тему    Торрент-трекер NNM-Club -> Аудио и Видео -> Музыка Lossless (ALAC)
Автор Сообщение
Cecidit ®
Стаж: 7 лет 9 мес.
Сообщений: 129
Ratio: 39.772
Поблагодарили: 8815
100%
Откуда: Москва, МО Щелково
russia.gif
Кипелов - Реки времен - ремикс ремастеред (2007)
Год: 2007
Жанр: Heavy Metal
Продолжительность: 00:48:17

Кодек: ALAC
Битрейт: Lossless
Тип раздачи: Tracks
Обложки: Вшиты
Кодирование: Easy CD-DA Extractor + iTunes

Релиз 15 октября 2007 года ремикс и ремастер альбома Реки времён 2005 года.

Треклист:
01. На распутье
02. Дыхание тьмы
03. Пророк
04. Не сейчас
05. Матричный Бог
06. Я здесь
07. Наважденье
08. Реки времён
09. Призрачный взвод
Код:

Общее
Полное имя                               : /Users/Denis/Library/Containers/net.mediaarea.mediainfo.mac/Data/Music/iTunes/iTunes Media/Music/Кипелов/Реки времён (Переизданное)/01 На распутье.m4a
Формат                                   : MPEG-4
Профиль формата                          : Apple audio with iTunes info
Идентификатор кодека                     : M4A
Размер файла                             : 38,3 Мбайт
Продолжительность                        : 5 м. 0 с.
Режим общего битрейта                    : Переменный
Общий поток                              : 1070 Кбит/сек
Альбом                                   : Реки времён (Переизданное)
Альбом/Исполнитель                       : Кипелов
Трек                                     : На распутье
Трек/Положение                           : 1
Исполнитель                              : Кипелов
Жанр                                     : Heavy Metal
Дата записи                              : 2007
Дата кодирования                         : UTC 2014-05-18 20:07:25
Дата пометки                             : UTC 2014-05-21 06:38:41
Программа кодирования                    : Easy CD-DA Extractor (http://www.poikosoft.com)
Обложка                                  : Yes

Аудио
Идентификатор                            : 1
Формат                                   : ALAC
Идентификатор кодека                     : alac
Идентификатор кодека/Информация          : Apple Lossless Audio Codec
Продолжительность                        : 5 м. 0 с.
Duration_LastFrame                       : -92 мс.
Вид битрейта                             : Переменный
Битрейт                                  : 1058 Кбит/сек
Каналы                                   : 2 канала
Частота                                  : 44,1 КГц
Битовая глубина                          : 16 бит
Размер потока                            : 37,9 Мбайт (99%)
Язык                                     : English
Дата кодирования                         : UTC 2014-05-18 20:07:25
Дата пометки                             : UTC 2014-05-21 06:38:41

Общее
Полное имя                               : /Users/Denis/Library/Containers/net.mediaarea.mediainfo.mac/Data/Music/iTunes/iTunes Media/Music/Кипелов/Реки времён (Переизданное)/02 Дыханье тьмы.m4a
Формат                                   : MPEG-4
Профиль формата                          : Apple audio with iTunes info
Идентификатор кодека                     : M4A
Размер файла                             : 38,7 Мбайт
Продолжительность                        : 5 м. 5 с.
Режим общего битрейта                    : Переменный
Общий поток                              : 1060 Кбит/сек
Альбом                                   : Реки времён (Переизданное)
Альбом/Исполнитель                       : Кипелов
Трек                                     : Дыханье тьмы
Трек/Положение                           : 2
Исполнитель                              : Кипелов
Жанр                                     : Heavy Metal
Дата записи                              : 2007
Дата кодирования                         : UTC 2014-05-18 20:07:25
Дата пометки                             : UTC 2014-05-21 06:38:41
Программа кодирования                    : Easy CD-DA Extractor (http://www.poikosoft.com)
Обложка                                  : Yes

Аудио
Идентификатор                            : 1
Формат                                   : ALAC
Идентификатор кодека                     : alac
Идентификатор кодека/Информация          : Apple Lossless Audio Codec
Продолжительность                        : 5 м. 5 с.
Duration_LastFrame                       : -52 мс.
Вид битрейта                             : Переменный
Битрейт                                  : 1049 Кбит/сек
Каналы                                   : 2 канала
Частота                                  : 44,1 КГц
Битовая глубина                          : 16 бит
Размер потока                            : 38,3 Мбайт (99%)
Язык                                     : English
Дата кодирования                         : UTC 2014-05-18 20:07:25
Дата пометки                             : UTC 2014-05-21 06:38:41

Общее
Полное имя                               : /Users/Denis/Library/Containers/net.mediaarea.mediainfo.mac/Data/Music/iTunes/iTunes Media/Music/Кипелов/Реки времён (Переизданное)/03 Пророк.m4a
Формат                                   : MPEG-4
Профиль формата                          : Apple audio with iTunes info
Идентификатор кодека                     : M4A
Размер файла                             : 39,9 Мбайт
Продолжительность                        : 5 м. 30 с.
Режим общего битрейта                    : Переменный
Общий поток                              : 1015 Кбит/сек
Альбом                                   : Реки времён (Переизданное)
Альбом/Исполнитель                       : Кипелов
Трек                                     : Пророк
Трек/Положение                           : 3
Исполнитель                              : Кипелов
Жанр                                     : Heavy Metal
Дата записи                              : 2007
Дата кодирования                         : UTC 2014-05-18 20:08:22
Дата пометки                             : UTC 2014-05-21 06:38:41
Программа кодирования                    : Easy CD-DA Extractor (http://www.poikosoft.com)
Обложка                                  : Yes

Аудио
Идентификатор                            : 1
Формат                                   : ALAC
Идентификатор кодека                     : alac
Идентификатор кодека/Информация          : Apple Lossless Audio Codec
Продолжительность                        : 5 м. 30 с.
Duration_LastFrame                       : -82 мс.
Вид битрейта                             : Переменный
Битрейт                                  : 1005 Кбит/сек
Каналы                                   : 2 канала
Частота                                  : 44,1 КГц
Битовая глубина                          : 16 бит
Размер потока                            : 39,5 Мбайт (99%)
Язык                                     : English
Дата кодирования                         : UTC 2014-05-18 20:08:22
Дата пометки                             : UTC 2014-05-21 06:38:41

Общее
Полное имя                               : /Users/Denis/Library/Containers/net.mediaarea.mediainfo.mac/Data/Music/iTunes/iTunes Media/Music/Кипелов/Реки времён (Переизданное)/04 Не сейчас.m4a
Формат                                   : MPEG-4
Профиль формата                          : Apple audio with iTunes info
Идентификатор кодека                     : M4A
Размер файла                             : 36,0 Мбайт
Продолжительность                        : 4 м. 54 с.
Режим общего битрейта                    : Переменный
Общий поток                              : 1026 Кбит/сек
Альбом                                   : Реки времён (Переизданное)
Альбом/Исполнитель                       : Кипелов
Трек                                     : Не сейчас
Трек/Положение                           : 4
Исполнитель                              : Кипелов
Жанр                                     : Heavy Metal
Дата записи                              : 2007
Дата кодирования                         : UTC 2014-05-18 20:08:29
Дата пометки                             : UTC 2014-05-21 06:38:41
Программа кодирования                    : Easy CD-DA Extractor (http://www.poikosoft.com)
Обложка                                  : Yes

Аудио
Идентификатор                            : 1
Формат                                   : ALAC
Идентификатор кодека                     : alac
Идентификатор кодека/Информация          : Apple Lossless Audio Codec
Продолжительность                        : 4 м. 54 с.
Duration_LastFrame                       : -4 мс.
Вид битрейта                             : Переменный
Битрейт                                  : 1014 Кбит/сек
Каналы                                   : 2 канала
Частота                                  : 44,1 КГц
Битовая глубина                          : 16 бит
Размер потока                            : 35,6 Мбайт (99%)
Язык                                     : English
Дата кодирования                         : UTC 2014-05-18 20:08:29
Дата пометки                             : UTC 2014-05-21 06:38:41

Общее
Полное имя                               : /Users/Denis/Library/Containers/net.mediaarea.mediainfo.mac/Data/Music/iTunes/iTunes Media/Music/Кипелов/Реки времён (Переизданное)/05 Матричный бог.m4a
Формат                                   : MPEG-4
Профиль формата                          : Apple audio with iTunes info
Идентификатор кодека                     : M4A
Размер файла                             : 49,3 Мбайт
Продолжительность                        : 6 м. 32 с.
Режим общего битрейта                    : Переменный
Общий поток                              : 1052 Кбит/сек
Альбом                                   : Реки времён (Переизданное)
Альбом/Исполнитель                       : Кипелов
Трек                                     : Матричный бог
Трек/Положение                           : 5
Исполнитель                              : Кипелов
Жанр                                     : Heavy Metal
Дата записи                              : 2007
Дата кодирования                         : UTC 2014-05-18 20:09:37
Дата пометки                             : UTC 2014-05-21 06:38:41
Программа кодирования                    : Easy CD-DA Extractor (http://www.poikosoft.com)
Обложка                                  : Yes

Аудио
Идентификатор                            : 1
Формат                                   : ALAC
Идентификатор кодека                     : alac
Идентификатор кодека/Информация          : Apple Lossless Audio Codec
Продолжительность                        : 6 м. 32 с.
Duration_LastFrame                       : -41 мс.
Вид битрейта                             : Переменный
Битрейт                                  : 1043 Кбит/сек
Каналы                                   : 2 канала
Частота                                  : 44,1 КГц
Битовая глубина                          : 16 бит
Размер потока                            : 48,9 Мбайт (99%)
Язык                                     : English
Дата кодирования                         : UTC 2014-05-18 20:09:37
Дата пометки                             : UTC 2014-05-21 06:38:41

Общее
Полное имя                               : /Users/Denis/Library/Containers/net.mediaarea.mediainfo.mac/Data/Music/iTunes/iTunes Media/Music/Кипелов/Реки времён (Переизданное)/06 Я здесь.m4a
Формат                                   : MPEG-4
Профиль формата                          : Apple audio with iTunes info
Идентификатор кодека                     : M4A
Размер файла                             : 41,7 Мбайт
Продолжительность                        : 5 м. 38 с.
Режим общего битрейта                    : Переменный
Общий поток                              : 1035 Кбит/сек
Альбом                                   : Реки времён (Переизданное)
Альбом/Исполнитель                       : Кипелов
Трек                                     : Я здесь
Трек/Положение                           : 6
Исполнитель                              : Кипелов
Жанр                                     : Heavy Metal
Дата записи                              : 2007
Дата кодирования                         : UTC 2014-05-18 20:09:46
Дата пометки                             : UTC 2014-05-21 06:38:41
Программа кодирования                    : Easy CD-DA Extractor (http://www.poikosoft.com)
Обложка                                  : Yes

Аудио
Идентификатор                            : 1
Формат                                   : ALAC
Идентификатор кодека                     : alac
Идентификатор кодека/Информация          : Apple Lossless Audio Codec
Продолжительность                        : 5 м. 38 с.
Duration_LastFrame                       : -69 мс.
Вид битрейта                             : Переменный
Битрейт                                  : 1024 Кбит/сек
Каналы                                   : 2 канала
Частота                                  : 44,1 КГц
Битовая глубина                          : 16 бит
Размер потока                            : 41,3 Мбайт (99%)
Язык                                     : English
Дата кодирования                         : UTC 2014-05-18 20:09:46
Дата пометки                             : UTC 2014-05-21 06:38:41

Общее
Полное имя                               : /Users/Denis/Library/Containers/net.mediaarea.mediainfo.mac/Data/Music/iTunes/iTunes Media/Music/Кипелов/Реки времён (Переизданное)/07 Наважденье.m4a
Формат                                   : MPEG-4
Профиль формата                          : Apple audio with iTunes info
Идентификатор кодека                     : M4A
Размер файла                             : 41,7 Мбайт
Продолжительность                        : 5 м. 37 с.
Режим общего битрейта                    : Переменный
Общий поток                              : 1038 Кбит/сек
Альбом                                   : Реки времён (Переизданное)
Альбом/Исполнитель                       : Кипелов
Трек                                     : Наважденье
Трек/Положение                           : 7
Исполнитель                              : Кипелов
Жанр                                     : Heavy Metal
Дата записи                              : 2007
Дата кодирования                         : UTC 2014-05-18 20:11:31
Дата пометки                             : UTC 2014-05-21 06:38:42
Программа кодирования                    : Easy CD-DA Extractor (http://www.poikosoft.com)
Обложка                                  : Yes

Аудио
Идентификатор                            : 1
Формат                                   : ALAC
Идентификатор кодека                     : alac
Идентификатор кодека/Информация          : Apple Lossless Audio Codec
Продолжительность                        : 5 м. 37 с.
Duration_LastFrame                       : -74 мс.
Вид битрейта                             : Переменный
Битрейт                                  : 1027 Кбит/сек
Каналы                                   : 2 канала
Частота                                  : 44,1 КГц
Битовая глубина                          : 16 бит
Размер потока                            : 41,3 Мбайт (99%)
Язык                                     : English
Дата кодирования                         : UTC 2014-05-18 20:11:31
Дата пометки                             : UTC 2014-05-21 06:38:42

Общее
Полное имя                               : /Users/Denis/Library/Containers/net.mediaarea.mediainfo.mac/Data/Music/iTunes/iTunes Media/Music/Кипелов/Реки времён (Переизданное)/08 Реки времён.m4a
Формат                                   : MPEG-4
Профиль формата                          : Apple audio with iTunes info
Идентификатор кодека                     : M4A
Размер файла                             : 34,3 Мбайт
Продолжительность                        : 4 м. 58 с.
Режим общего битрейта                    : Переменный
Общий поток                              : 965 Кбит/сек
Альбом                                   : Реки времён (Переизданное)
Альбом/Исполнитель                       : Кипелов
Трек                                     : Реки времён
Трек/Положение                           : 8
Исполнитель                              : Кипелов
Жанр                                     : Heavy Metal
Дата записи                              : 2007
Дата кодирования                         : UTC 2014-05-18 20:11:42
Дата пометки                             : UTC 2014-05-21 06:38:42
Программа кодирования                    : Easy CD-DA Extractor (http://www.poikosoft.com)
Обложка                                  : Yes

Аудио
Идентификатор                            : 1
Формат                                   : ALAC
Идентификатор кодека                     : alac
Идентификатор кодека/Информация          : Apple Lossless Audio Codec
Продолжительность                        : 4 м. 58 с.
Duration_LastFrame                       : -25 мс.
Вид битрейта                             : Переменный
Битрейт                                  : 953 Кбит/сек
Каналы                                   : 2 канала
Частота                                  : 44,1 КГц
Битовая глубина                          : 16 бит
Размер потока                            : 33,9 Мбайт (99%)
Язык                                     : English
Дата кодирования                         : UTC 2014-05-18 20:11:42
Дата пометки                             : UTC 2014-05-21 06:38:42

Общее
Полное имя                               : /Users/Denis/Library/Containers/net.mediaarea.mediainfo.mac/Data/Music/iTunes/iTunes Media/Music/Кипелов/Реки времён (Переизданное)/09 Призрачный взвод.m4a
Формат                                   : MPEG-4
Профиль формата                          : Apple audio with iTunes info
Идентификатор кодека                     : M4A
Размер файла                             : 37,6 Мбайт
Продолжительность                        : 5 м. 0 с.
Режим общего битрейта                    : Переменный
Общий поток                              : 1050 Кбит/сек
Альбом                                   : Реки времён (Переизданное)
Альбом/Исполнитель                       : Кипелов
Трек                                     : Призрачный взвод
Трек/Положение                           : 9
Исполнитель                              : Кипелов
Жанр                                     : Heavy Metal
Дата записи                              : 2007
Дата кодирования                         : UTC 2014-05-18 20:13:26
Дата пометки                             : UTC 2014-05-21 06:38:42
Программа кодирования                    : Easy CD-DA Extractor (http://www.poikosoft.com)
Обложка                                  : Yes

Аудио
Идентификатор                            : 1
Формат                                   : ALAC
Идентификатор кодека                     : alac
Идентификатор кодека/Информация          : Apple Lossless Audio Codec
Продолжительность                        : 5 м. 0 с.
Duration_LastFrame                       : -79 мс.
Вид битрейта                             : Переменный
Битрейт                                  : 1038 Кбит/сек
Каналы                                   : 2 канала
Частота                                  : 44,1 КГц
Битовая глубина                          : 16 бит
Размер потока                            : 37,2 Мбайт (99%)
Язык                                     : English
Дата кодирования                         : UTC 2014-05-18 20:13:26
Дата пометки                             : UTC 2014-05-21 06:38:42
Код:

-----------------------

DON'T MODIFY THIS FILE

-----------------------

PERFORMER: auCDtect Task Manager, ver. 1.6.0 RC1 build 1.6.0.1
Copyright (c) 2008-2010 y-soft. All rights reserved
http://y-soft.org

ANALYZER: auCDtect: CD records authenticity detector, version 0.8.2
Copyright (c) 2004 Oleg Berngardt. All rights reserved.
Copyright (c) 2004 Alexander Djourik. All rights reserved.

FILE: 09 Призрачный взвод.m4a
  Size: 39436513 Hash: CFF8D044165DD64C2A38C9783E874FDD Accuracy: -m8
  Conclusion: CDDA 99%
  Signature: F3A48930E3B84E6AFCFA550B5E0E89F7302C8765
FILE: 08 Реки времён.m4a
  Size: 35941123 Hash: 6CEAD038017E3A9E66CF193A83BCBB15 Accuracy: -m40
  Conclusion: CDDA 100%
  Signature: 97E400827CCC1C6B73A31F158F55E78B16CEBA6E
FILE: 07 Наважденье.m4a
  Size: 43733098 Hash: 7449B00940060F2E8AA366051F621F7A Accuracy: -m40
  Conclusion: CDDA 100%
  Signature: E34DB2A146BAF472DBFD296E43C75DC1EDC4A61A
FILE: 06 Я здесь.m4a
  Size: 43724545 Hash: 4D0DD023F147DA6B9336EE758F9DAA83 Accuracy: -m40
  Conclusion: CDDA 100%
  Signature: 85E5DD0D2974354B27E7F1F17E10151F843580C9
FILE: 05 Матричный бог.m4a
  Size: 51690692 Hash: 2FA97E6AB74F9EF8F11BBCDBF75BFD2B Accuracy: -m40
  Conclusion: CDDA 100%
  Signature: D65B0D2EBEFE7388F6B2968FB366911D6058E188
FILE: 04 Не сейчас.m4a
  Size: 37736638 Hash: A71840143473ADF83783D71937402E8B Accuracy: -m40
  Conclusion: CDDA 100%
  Signature: 9C542F2FF04E9EB72346E3032E635F2BE95484E9
FILE: 03 Пророк.m4a
  Size: 41882393 Hash: 4CC9914F4324821CF2051F313147C131 Accuracy: -m40
  Conclusion: CDDA 100%
  Signature: FF9FDE0B5BE4B76E7E021E38F1179D10CA147A38
FILE: 02 Дыханье тьмы.m4a
  Size: 40549912 Hash: 95400BDF7EB0A23F5024F29968DE074D Accuracy: -m40
  Conclusion: CDDA 100%
  Signature: ABACE91D3998F972194AFEBA1525E8883DC8E065
FILE: 01 На распутье.m4a
  Size: 40209599 Hash: 1C22A8E2A9F70580FA238F86F7DCC907 Accuracy: -m40
  Conclusion: CDDA 100%
  Signature: 743450950EE01C6FBC11EE98D1E4F339DE3FCFE3
Время раздачи: с 20:00 до 03:00 постоянно / часто 24/7 - До первых 5 скачавших
[NNM-Club.me]_Kipelov (2007) Reki vremen - pereizdanie.torrent
 Торрент: Платиновая раздача  Зарегистрирован
 
Скачать


Примагнититься
 Зарегистрирован:   24 Май 2014 12:27:18
 Размер:   358 MB  (
 Рейтинг:   4.5 (Голосов: 21)
 Поблагодарили:   61
 Проверка:   Оформление проверено модератором 24 Май 2014 12:47:14
Как cкачать  ·  Как раздать  ·  Правильно оформить  ·  Поднять ратио!  
Показать сообщения:   
Начать новую тему   Ответить на тему    Торрент-трекер NNM-Club -> Аудио и Видео -> Музыка Lossless (ALAC) Часовой пояс: GMT + 3
Страница 1 из 1