Классический форум-трекер
canvas not supported
Нас вместе: 4 166 488

Валерий Кипелов & Сергей Маврин - Смутное время (1997) [ALAC|Tracks]<Heavy Metal>


 
 
RSS
Начать новую тему   Ответить на тему    Торрент-трекер NNM-Club -> Аудио и Видео -> Музыка Lossless (ALAC)
Автор Сообщение
Cecidit ®
Стаж: 7 лет 8 мес.
Сообщений: 129
Ratio: 39.772
Поблагодарили: 8806
100%
Откуда: Москва, МО Щелково
russia.gif
Валерий Кипелов & Сергей Маврин - Смутное время (1997)
Год: 1997
Жанр: Heavy Metal
Продолжительность: 01:00:44

Кодек: ALAC
Битрейт: Lossless
Тип раздачи: Tracks
Обложки: Вшиты
Кодирование: Easy CD-DA Extractor + iTunes

«Смутное время» — совместный студийный альбом вокалиста Валерия Кипелова и гитариста Сергея Маврина, бывшего участника группы «Ария» (Кипелов был на тот момент действующим участником). Альбом, выпущенный в 1997 году на лейбле Moroz Records, ныне входит в дискографию группы «Маврин». Вживую же песни исполняются как группой «Маврин», так и группой «Кипелов».

Треклист:
01. Путь наверх
02. Выпьем ещё
03. Вот и все дела!
04. Я Свободен
05. Смутное время
06. Пустой трек
07. Свет дневной иссяк...
08. Castlevania
09. Ночь в июле
10. Будем жить, мать Россия!
11. Кода
Код:

Общее
Полное имя                               : /Users/Denis/Library/Containers/net.mediaarea.mediainfo.mac/Data/Music/iTunes/iTunes Media/Music/Сергей Маврин/Химический сон/01 Слушай, человек.m4a
Формат                                   : MPEG-4
Профиль формата                          : Apple audio with iTunes info
Идентификатор кодека                     : M4A
Размер файла                             : 9,44 Мбайт
Продолжительность                        : 1 м. 18 с.
Режим общего битрейта                    : Переменный
Общий поток                              : 1002 Кбит/сек
Альбом                                   : Химический сон
Альбом/Исполнитель                       : Сергей Маврин
Трек                                     : Слушай, человек
Трек/Положение                           : 1
Исполнитель                              : Сергей Маврин
Жанр                                     : Heavy Metal
Дата записи                              : 2001
Дата кодирования                         : UTC 2014-05-19 04:27:54
Дата пометки                             : UTC 2014-05-21 06:51:39
Программа кодирования                    : Easy CD-DA Extractor (http://www.poikosoft.com)
Обложка                                  : Yes

Аудио
Идентификатор                            : 1
Формат                                   : ALAC
Идентификатор кодека                     : alac
Идентификатор кодека/Информация          : Apple Lossless Audio Codec
Продолжительность                        : 1 м. 18 с.
Duration_LastFrame                       : -54 мс.
Вид битрейта                             : Переменный
Битрейт                                  : 960 Кбит/сек
Каналы                                   : 2 канала
Частота                                  : 44,1 КГц
Битовая глубина                          : 16 бит
Размер потока                            : 9,04 Мбайт (96%)
Язык                                     : English
Дата кодирования                         : UTC 2014-05-19 04:27:54
Дата пометки                             : UTC 2014-05-21 06:51:39

Общее
Полное имя                               : /Users/Denis/Library/Containers/net.mediaarea.mediainfo.mac/Data/Music/iTunes/iTunes Media/Music/Сергей Маврин/Химический сон/02 Хранитель.m4a
Формат                                   : MPEG-4
Профиль формата                          : Apple audio with iTunes info
Идентификатор кодека                     : M4A
Размер файла                             : 32,1 Мбайт
Продолжительность                        : 4 м. 4 с.
Режим общего битрейта                    : Переменный
Общий поток                              : 1101 Кбит/сек
Альбом                                   : Химический сон
Альбом/Исполнитель                       : Сергей Маврин
Трек                                     : Хранитель
Трек/Положение                           : 2
Исполнитель                              : Сергей Маврин
Жанр                                     : Heavy Metal
Дата записи                              : 2001
Дата кодирования                         : UTC 2014-05-19 04:27:54
Дата пометки                             : UTC 2014-05-21 06:51:39
Программа кодирования                    : Easy CD-DA Extractor (http://www.poikosoft.com)
Обложка                                  : Yes

Аудио
Идентификатор                            : 1
Формат                                   : ALAC
Идентификатор кодека                     : alac
Идентификатор кодека/Информация          : Apple Lossless Audio Codec
Продолжительность                        : 4 м. 4 с.
Duration_LastFrame                       : -33 мс.
Вид битрейта                             : Переменный
Битрейт                                  : 1087 Кбит/сек
Каналы                                   : 2 канала
Частота                                  : 44,1 КГц
Битовая глубина                          : 16 бит
Размер потока                            : 31,7 Мбайт (99%)
Язык                                     : English
Дата кодирования                         : UTC 2014-05-19 04:27:54
Дата пометки                             : UTC 2014-05-21 06:51:39

Общее
Полное имя                               : /Users/Denis/Library/Containers/net.mediaarea.mediainfo.mac/Data/Music/iTunes/iTunes Media/Music/Сергей Маврин/Химический сон/03 Мираж.m4a
Формат                                   : MPEG-4
Профиль формата                          : Apple audio with iTunes info
Идентификатор кодека                     : M4A
Размер файла                             : 48,0 Мбайт
Продолжительность                        : 5 м. 59 с.
Режим общего битрейта                    : Переменный
Общий поток                              : 1118 Кбит/сек
Альбом                                   : Химический сон
Альбом/Исполнитель                       : Сергей Маврин
Трек                                     : Мираж
Трек/Положение                           : 3
Исполнитель                              : Сергей Маврин
Жанр                                     : Heavy Metal
Дата записи                              : 2001
Дата кодирования                         : UTC 2014-05-19 04:28:17
Дата пометки                             : UTC 2014-05-21 06:51:39
Программа кодирования                    : Easy CD-DA Extractor (http://www.poikosoft.com)
Обложка                                  : Yes

Аудио
Идентификатор                            : 1
Формат                                   : ALAC
Идентификатор кодека                     : alac
Идентификатор кодека/Информация          : Apple Lossless Audio Codec
Продолжительность                        : 5 м. 59 с.
Duration_LastFrame                       : -56 мс.
Вид битрейта                             : Переменный
Битрейт                                  : 1109 Кбит/сек
Каналы                                   : 2 канала
Частота                                  : 44,1 КГц
Битовая глубина                          : 16 бит
Размер потока                            : 47,6 Мбайт (99%)
Язык                                     : English
Дата кодирования                         : UTC 2014-05-19 04:28:17
Дата пометки                             : UTC 2014-05-21 06:51:39

Общее
Полное имя                               : /Users/Denis/Library/Containers/net.mediaarea.mediainfo.mac/Data/Music/iTunes/iTunes Media/Music/Сергей Маврин/Химический сон/04 На осколках веры.m4a
Формат                                   : MPEG-4
Профиль формата                          : Apple audio with iTunes info
Идентификатор кодека                     : M4A
Размер файла                             : 41,1 Мбайт
Продолжительность                        : 5 м. 31 с.
Режим общего битрейта                    : Переменный
Общий поток                              : 1041 Кбит/сек
Альбом                                   : Химический сон
Альбом/Исполнитель                       : Сергей Маврин
Трек                                     : На осколках веры
Трек/Положение                           : 4
Исполнитель                              : Сергей Маврин
Жанр                                     : Heavy Metal
Дата записи                              : 2001
Дата кодирования                         : UTC 2014-05-19 04:28:35
Дата пометки                             : UTC 2014-05-21 06:51:39
Программа кодирования                    : Easy CD-DA Extractor (http://www.poikosoft.com)
Обложка                                  : Yes

Аудио
Идентификатор                            : 1
Формат                                   : ALAC
Идентификатор кодека                     : alac
Идентификатор кодека/Информация          : Apple Lossless Audio Codec
Продолжительность                        : 5 м. 31 с.
Duration_LastFrame                       : -50 мс.
Вид битрейта                             : Переменный
Битрейт                                  : 1030 Кбит/сек
Каналы                                   : 2 канала
Частота                                  : 44,1 КГц
Битовая глубина                          : 16 бит
Размер потока                            : 40,7 Мбайт (99%)
Язык                                     : English
Дата кодирования                         : UTC 2014-05-19 04:28:35
Дата пометки                             : UTC 2014-05-21 06:51:39

Общее
Полное имя                               : /Users/Denis/Library/Containers/net.mediaarea.mediainfo.mac/Data/Music/iTunes/iTunes Media/Music/Сергей Маврин/Химический сон/05 Химический сон.m4a
Формат                                   : MPEG-4
Профиль формата                          : Apple audio with iTunes info
Идентификатор кодека                     : M4A
Размер файла                             : 43,5 Мбайт
Продолжительность                        : 5 м. 47 с.
Режим общего битрейта                    : Переменный
Общий поток                              : 1051 Кбит/сек
Альбом                                   : Химический сон
Альбом/Исполнитель                       : Сергей Маврин
Трек                                     : Химический сон
Трек/Положение                           : 5
Исполнитель                              : Сергей Маврин
Жанр                                     : Heavy Metal
Дата записи                              : 2001
Дата кодирования                         : UTC 2014-05-19 04:29:38
Дата пометки                             : UTC 2014-05-21 06:51:39
Программа кодирования                    : Easy CD-DA Extractor (http://www.poikosoft.com)
Обложка                                  : Yes

Аудио
Идентификатор                            : 1
Формат                                   : ALAC
Идентификатор кодека                     : alac
Идентификатор кодека/Информация          : Apple Lossless Audio Codec
Продолжительность                        : 5 м. 47 с.
Duration_LastFrame                       : -51 мс.
Вид битрейта                             : Переменный
Битрейт                                  : 1041 Кбит/сек
Каналы                                   : 2 канала
Частота                                  : 44,1 КГц
Битовая глубина                          : 16 бит
Размер потока                            : 43,1 Мбайт (99%)
Язык                                     : English
Дата кодирования                         : UTC 2014-05-19 04:29:38
Дата пометки                             : UTC 2014-05-21 06:51:39

Общее
Полное имя                               : /Users/Denis/Library/Containers/net.mediaarea.mediainfo.mac/Data/Music/iTunes/iTunes Media/Music/Сергей Маврин/Химический сон/06 Пусть настанет завтра.m4a
Формат                                   : MPEG-4
Профиль формата                          : Apple audio with iTunes info
Идентификатор кодека                     : M4A
Размер файла                             : 34,0 Мбайт
Продолжительность                        : 4 м. 7 с.
Режим общего битрейта                    : Переменный
Общий поток                              : 1150 Кбит/сек
Альбом                                   : Химический сон
Альбом/Исполнитель                       : Сергей Маврин
Трек                                     : Пусть настанет завтра
Трек/Положение                           : 6
Исполнитель                              : Сергей Маврин
Жанр                                     : Heavy Metal
Дата записи                              : 2001
Дата кодирования                         : UTC 2014-05-19 04:30:23
Дата пометки                             : UTC 2014-05-21 06:51:39
Программа кодирования                    : Easy CD-DA Extractor (http://www.poikosoft.com)
Обложка                                  : Yes

Аудио
Идентификатор                            : 1
Формат                                   : ALAC
Идентификатор кодека                     : alac
Идентификатор кодека/Информация          : Apple Lossless Audio Codec
Продолжительность                        : 4 м. 7 с.
Duration_LastFrame                       : -30 мс.
Вид битрейта                             : Переменный
Битрейт                                  : 1136 Кбит/сек
Каналы                                   : 2 канала
Частота                                  : 44,1 КГц
Битовая глубина                          : 16 бит
Размер потока                            : 33,5 Мбайт (99%)
Язык                                     : English
Дата кодирования                         : UTC 2014-05-19 04:30:23
Дата пометки                             : UTC 2014-05-21 06:51:39

Общее
Полное имя                               : /Users/Denis/Library/Containers/net.mediaarea.mediainfo.mac/Data/Music/iTunes/iTunes Media/Music/Сергей Маврин/Химический сон/07 Прорвёмся.m4a
Формат                                   : MPEG-4
Профиль формата                          : Apple audio with iTunes info
Идентификатор кодека                     : M4A
Размер файла                             : 34,4 Мбайт
Продолжительность                        : 4 м. 15 с.
Режим общего битрейта                    : Переменный
Общий поток                              : 1128 Кбит/сек
Альбом                                   : Химический сон
Альбом/Исполнитель                       : Сергей Маврин
Трек                                     : Прорвёмся
Трек/Положение                           : 7
Исполнитель                              : Сергей Маврин
Жанр                                     : Heavy Metal
Дата записи                              : 2001
Дата кодирования                         : UTC 2014-05-19 04:31:11
Дата пометки                             : UTC 2014-05-21 06:51:39
Программа кодирования                    : Easy CD-DA Extractor (http://www.poikosoft.com)
Обложка                                  : Yes

Аудио
Идентификатор                            : 1
Формат                                   : ALAC
Идентификатор кодека                     : alac
Идентификатор кодека/Информация          : Apple Lossless Audio Codec
Продолжительность                        : 4 м. 15 с.
Duration_LastFrame                       : -85 мс.
Вид битрейта                             : Переменный
Битрейт                                  : 1115 Кбит/сек
Каналы                                   : 2 канала
Частота                                  : 44,1 КГц
Битовая глубина                          : 16 бит
Размер потока                            : 34,0 Мбайт (99%)
Язык                                     : English
Дата кодирования                         : UTC 2014-05-19 04:31:11
Дата пометки                             : UTC 2014-05-21 06:51:39

Общее
Полное имя                               : /Users/Denis/Library/Containers/net.mediaarea.mediainfo.mac/Data/Music/iTunes/iTunes Media/Music/Сергей Маврин/Химический сон/08 Вчера.m4a
Формат                                   : MPEG-4
Профиль формата                          : Apple audio with iTunes info
Идентификатор кодека                     : M4A
Размер файла                             : 24,4 Мбайт
Продолжительность                        : 3 м. 25 с.
Режим общего битрейта                    : Переменный
Общий поток                              : 1000 Кбит/сек
Альбом                                   : Химический сон
Альбом/Исполнитель                       : Сергей Маврин
Трек                                     : Вчера
Трек/Положение                           : 8
Исполнитель                              : Сергей Маврин
Жанр                                     : Heavy Metal
Дата записи                              : 2001
Дата кодирования                         : UTC 2014-05-19 04:31:55
Дата пометки                             : UTC 2014-05-21 06:51:39
Программа кодирования                    : Easy CD-DA Extractor (http://www.poikosoft.com)
Обложка                                  : Yes

Аудио
Идентификатор                            : 1
Формат                                   : ALAC
Идентификатор кодека                     : alac
Идентификатор кодека/Информация          : Apple Lossless Audio Codec
Продолжительность                        : 3 м. 25 с.
Duration_LastFrame                       : -65 мс.
Вид битрейта                             : Переменный
Битрейт                                  : 983 Кбит/сек
Каналы                                   : 2 канала
Частота                                  : 44,1 КГц
Битовая глубина                          : 16 бит
Размер потока                            : 24,0 Мбайт (98%)
Язык                                     : English
Дата кодирования                         : UTC 2014-05-19 04:31:55
Дата пометки                             : UTC 2014-05-21 06:51:39

Общее
Полное имя                               : /Users/Denis/Library/Containers/net.mediaarea.mediainfo.mac/Data/Music/iTunes/iTunes Media/Music/Сергей Маврин/Химический сон/09 Заклинание.m4a
Формат                                   : MPEG-4
Профиль формата                          : Apple audio with iTunes info
Идентификатор кодека                     : M4A
Размер файла                             : 56,8 Мбайт
Продолжительность                        : 7 м. 20 с.
Режим общего битрейта                    : Переменный
Общий поток                              : 1081 Кбит/сек
Альбом                                   : Химический сон
Альбом/Исполнитель                       : Сергей Маврин
Трек                                     : Заклинание
Трек/Положение                           : 9
Исполнитель                              : Сергей Маврин
Жанр                                     : Heavy Metal
Дата записи                              : 2001
Дата кодирования                         : UTC 2014-05-19 04:32:52
Дата пометки                             : UTC 2014-05-21 06:51:39
Программа кодирования                    : Easy CD-DA Extractor (http://www.poikosoft.com)
Обложка                                  : Yes

Аудио
Идентификатор                            : 1
Формат                                   : ALAC
Идентификатор кодека                     : alac
Идентификатор кодека/Информация          : Apple Lossless Audio Codec
Продолжительность                        : 7 м. 20 с.
Duration_LastFrame                       : -48 мс.
Вид битрейта                             : Переменный
Битрейт                                  : 1073 Кбит/сек
Каналы                                   : 2 канала
Частота                                  : 44,1 КГц
Битовая глубина                          : 16 бит
Размер потока                            : 56,4 Мбайт (99%)
Язык                                     : English
Дата кодирования                         : UTC 2014-05-19 04:32:52
Дата пометки                             : UTC 2014-05-21 06:51:39

Общее
Полное имя                               : /Users/Denis/Library/Containers/net.mediaarea.mediainfo.mac/Data/Music/iTunes/iTunes Media/Music/Сергей Маврин/Химический сон/10 С новым веком....m4a
Формат                                   : MPEG-4
Профиль формата                          : Apple audio with iTunes info
Идентификатор кодека                     : M4A
Размер файла                             : 11,3 Мбайт
Продолжительность                        : 1 м. 26 с.
Режим общего битрейта                    : Переменный
Общий поток                              : 1094 Кбит/сек
Альбом                                   : Химический сон
Альбом/Исполнитель                       : Сергей Маврин
Трек                                     : С новым веком...
Трек/Положение                           : 10
Исполнитель                              : Сергей Маврин
Жанр                                     : Heavy Metal
Дата записи                              : 2001
Дата кодирования                         : UTC 2014-05-19 04:33:30
Дата пометки                             : UTC 2014-05-21 06:51:39
Программа кодирования                    : Easy CD-DA Extractor (http://www.poikosoft.com)
Обложка                                  : Yes

Аудио
Идентификатор                            : 1
Формат                                   : ALAC
Идентификатор кодека                     : alac
Идентификатор кодека/Информация          : Apple Lossless Audio Codec
Продолжительность                        : 1 м. 26 с.
Duration_LastFrame                       : -29 мс.
Вид битрейта                             : Переменный
Битрейт                                  : 1055 Кбит/сек
Каналы                                   : 2 канала
Частота                                  : 44,1 КГц
Битовая глубина                          : 16 бит
Размер потока                            : 10,9 Мбайт (96%)
Язык                                     : English
Дата кодирования                         : UTC 2014-05-19 04:33:30
Дата пометки                             : UTC 2014-05-21 06:51:39

Общее
Полное имя                               : /Users/Denis/Library/Containers/net.mediaarea.mediainfo.mac/Data/Music/iTunes/iTunes Media/Music/Сергей Маврин/Химический сон/11 Одиночество.m4a
Формат                                   : MPEG-4
Профиль формата                          : Apple audio with iTunes info
Идентификатор кодека                     : M4A
Размер файла                             : 22,0 Мбайт
Продолжительность                        : 3 м. 11 с.
Режим общего битрейта                    : Переменный
Общий поток                              : 963 Кбит/сек
Альбом                                   : Химический сон
Альбом/Исполнитель                       : Сергей Маврин
Трек                                     : Одиночество
Трек/Положение                           : 11
Исполнитель                              : Сергей Маврин
Жанр                                     : Heavy Metal
Дата записи                              : 2001
Дата кодирования                         : UTC 2014-05-19 04:35:02
Дата пометки                             : UTC 2014-05-21 06:51:39
Программа кодирования                    : Easy CD-DA Extractor (http://www.poikosoft.com)
Обложка                                  : Yes

Аудио
Идентификатор                            : 1
Формат                                   : ALAC
Идентификатор кодека                     : alac
Идентификатор кодека/Информация          : Apple Lossless Audio Codec
Продолжительность                        : 3 м. 11 с.
Duration_LastFrame                       : -25 мс.
Вид битрейта                             : Переменный
Битрейт                                  : 945 Кбит/сек
Каналы                                   : 2 канала
Частота                                  : 44,1 КГц
Битовая глубина                          : 16 бит
Размер потока                            : 21,6 Мбайт (98%)
Язык                                     : English
Дата кодирования                         : UTC 2014-05-19 04:35:02
Дата пометки                             : UTC 2014-05-21 06:51:39
Код:

-----------------------

DON'T MODIFY THIS FILE

-----------------------

PERFORMER: auCDtect Task Manager, ver. 1.6.0 RC1 build 1.6.0.1
Copyright (c) 2008-2010 y-soft. All rights reserved
http://y-soft.org

ANALYZER: auCDtect: CD records authenticity detector, version 0.8.2
Copyright (c) 2004 Oleg Berngardt. All rights reserved.
Copyright (c) 2004 Alexander Djourik. All rights reserved.

FILE: 11 Ночь в июле.m4a
  Size: 50883254 Hash: 1BB6F93C4B80B22FB23AE2ABB546846D Accuracy: -m0
  Conclusion: CDDA 100%
  Signature: 22243DC5F049C6CFA30EDE348C2BF52478B36336
FILE: 10 Кода.m4a
  Size: 4456318 Hash: BB63673CB64319D2484A5B6239DA2DFE Accuracy: -m0
  Conclusion: CDDA 100%
  Signature: 1151AD12008C7E6A6DE2F56DD9EA19A139D32232
FILE: 09 Будем жить, мать Россия.m4a
  Size: 52790437 Hash: F68736496E3D87F33F11A831A47C4792 Accuracy: -m0
  Conclusion: CDDA 100%
  Signature: 37F5B5274BDE9911DE41377ECFEBA73C376C9E6B
FILE: 08 Castlevania.m4a
  Size: 45708323 Hash: 785E177061A3A548EF811A3B1BCF693F Accuracy: -m0
  Conclusion: CDDA 100%
  Signature: D12F910FA57AED1C5C2055751179152B0C4FEEAF
FILE: 07 Свет дневной иссяк....m4a
  Size: 39761914 Hash: CE67673D11493ACE8B5696E9ED3645A4 Accuracy: -m0
  Conclusion: CDDA 100%
  Signature: 888F5101202D1E770BC69943E030C54ADA787BA2
FILE: 06 Пустой трек.m4a
  Size: 741591 Hash: 21B4DFB2D939B2D3BE4827A6D168A74B Accuracy: -m0
  Conclusion: CDDA 100%
  Signature: B8639E6E91F5DD0667E54985D47194AD94E62005
FILE: 05 Смутное время.m4a
  Size: 48420637 Hash: C07D300FB5AA502A53E50F5A5613DB56 Accuracy: -m0
  Conclusion: CDDA 100%
  Signature: 147F4175D2609942A946261F1ECA1D77B481F3D9
FILE: 04 Я свободен.m4a
  Size: 53083971 Hash: C7C4714F19EF0840C3791C768ECCB1C3 Accuracy: -m8
  Conclusion: CDDA 100%
  Signature: 49BB825D902B7F47490BD7820DC5E79FBDADBFB1
FILE: 03 Вот и все дела.m4a
  Size: 48613628 Hash: DAA37859C59FA7CB253A622178CC8871 Accuracy: -m0
  Conclusion: CDDA 100%
  Signature: 3C15574158DD43BA537B2EB193524636FE934947
FILE: 02 Выпьем ещё.m4a
  Size: 45171512 Hash: 61496DFC954A7329BB5A6C3EC9A37EE5 Accuracy: -m0
  Conclusion: CDDA 100%
  Signature: 7D61F0783E7C41FE87FE37C4A92B2A99418EC76A
FILE: 01 Путь наверх.m4a
  Size: 55675704 Hash: 2EF6FBBB1CE491B1DCBCC89569CD027F Accuracy: -m0
  Conclusion: CDDA 100%
  Signature: 3E901B8C3D5692DD142FD124680CAD3C46737260
Время раздачи: с 20:00 до 03:00 постоянно / часто 24/7 - До первых 5 скачавших
[NNM-Club.me]_Valerii&#774; Kipelov & Sergei&#774; Mavrin (1997) Smutnoe vremya.torrent
 Торрент: Платиновая раздача  Зарегистрирован
 
Скачать


Примагнититься
 Зарегистрирован:   25 Май 2014 06:52:34
 Размер:   425 MB  (
 Рейтинг:   4.7 (Голосов: 63)
 Поблагодарили:   196
 Проверка:   Оформление проверено модератором 25 Май 2014 07:34:57
Как cкачать  ·  Как раздать  ·  Правильно оформить  ·  Поднять ратио!  
LazyKent
Стаж: 14 лет 4 мес.
Сообщений: 416
Ratio: 15.412
Поблагодарили: 1396
100%
russia.gif
Всё прекрасно, но сталкиваюсь с разницей кодировки некоторых букв в тегах.
Это не в укор автору, просто наблюдение. Как я догадываюсь, автор использует компьютер от Apple.

"й" — "й" Похоже, но не то.
То же самое с "ё".
Let4iK1984
Стаж: 8 лет 9 мес.
Сообщений: 4
Ratio: 5.506
44.78%
russia.gif
мне этот альбом более интересен
Показать сообщения:   
Начать новую тему   Ответить на тему    Торрент-трекер NNM-Club -> Аудио и Видео -> Музыка Lossless (ALAC) Часовой пояс: GMT + 3
Страница 1 из 1