Классический форум-трекер
canvas not supported
Нас вместе: 4 171 354

Сергей Маврин - Неформат 1 (2000) [ALAC|Tracks]<Heavy Metal>


 
 
RSS
Начать новую тему   Ответить на тему    Торрент-трекер NNM-Club -> Аудио и Видео -> Музыка Lossless (ALAC)
Автор Сообщение
Cecidit ®
Стаж: 7 лет 9 мес.
Сообщений: 129
Ratio: 39.772
Поблагодарили: 8815
100%
Откуда: Москва, МО Щелково
russia.gif
Сергей Маврин - Неформат 1 (2000)
Год: 2000
Жанр: Heavy Metal
Продолжительность: 00:48:38

Кодек: ALAC
Битрейт: Lossless
Тип раздачи: Tracks
Обложки: Вшиты
Кодирование: Easy CD-DA Extractor + iTunes

Треклист:
01. Стая
02. Эй, человек
03. Время
04. Поезд
05. Век мой, зверь
06. Харон
07. В диком поле
08. Ветер
09. Ты и я
10. Всё в прошлом
11. До cвидания

Лейбл: Classic Company
Cостав:
Стас Витарт - вокал
Александр Мосинян - бас-гитара
Павел Чиняков - ударные
Сергей Маврин - гитара, клавишные
Код:

Общее
Полное имя                               : /Users/Denis/Library/Containers/net.mediaarea.mediainfo.mac/Data/Music/iTunes/iTunes Media/Music/Сергей Маврин/Неформат (Часть 1)/01 Стая.m4a
Формат                                   : MPEG-4
Профиль формата                          : Apple audio with iTunes info
Идентификатор кодека                     : M4A
Размер файла                             : 33,0 Мбайт
Продолжительность                        : 4 м. 27 с.
Режим общего битрейта                    : Переменный
Общий поток                              : 1035 Кбит/сек
Альбом                                   : Неформат (Часть 1)
Альбом/Исполнитель                       : Сергей Маврин
Трек                                     : Стая
Трек/Положение                           : 1
Исполнитель                              : Сергей Маврин
Жанр                                     : Heavy Metal
Дата записи                              : 2000
Дата кодирования                         : UTC 2014-05-19 03:59:33
Дата пометки                             : UTC 2014-05-21 06:51:38
Программа кодирования                    : Easy CD-DA Extractor (http://www.poikosoft.com)
Обложка                                  : Yes

Аудио
Идентификатор                            : 1
Формат                                   : ALAC
Идентификатор кодека                     : alac
Идентификатор кодека/Информация          : Apple Lossless Audio Codec
Продолжительность                        : 4 м. 27 с.
Duration_LastFrame                       : -93 мс.
Вид битрейта                             : Переменный
Битрейт                                  : 1023 Кбит/сек
Каналы                                   : 2 канала
Частота                                  : 44,1 КГц
Битовая глубина                          : 16 бит
Размер потока                            : 32,6 Мбайт (99%)
Язык                                     : English
Дата кодирования                         : UTC 2014-05-19 03:59:33
Дата пометки                             : UTC 2014-05-21 06:51:38

Общее
Полное имя                               : /Users/Denis/Library/Containers/net.mediaarea.mediainfo.mac/Data/Music/iTunes/iTunes Media/Music/Сергей Маврин/Неформат (Часть 1)/02 Эй, человек.m4a
Формат                                   : MPEG-4
Профиль формата                          : Apple audio with iTunes info
Идентификатор кодека                     : M4A
Размер файла                             : 24,8 Мбайт
Продолжительность                        : 3 м. 8 с.
Режим общего битрейта                    : Переменный
Общий поток                              : 1101 Кбит/сек
Альбом                                   : Неформат (Часть 1)
Альбом/Исполнитель                       : Сергей Маврин
Трек                                     : Эй, человек
Трек/Положение                           : 2
Исполнитель                              : Сергей Маврин
Жанр                                     : Heavy Metal
Дата записи                              : 2000
Дата кодирования                         : UTC 2014-05-19 03:59:33
Дата пометки                             : UTC 2014-05-21 06:51:38
Программа кодирования                    : Easy CD-DA Extractor (http://www.poikosoft.com)
Обложка                                  : Yes

Аудио
Идентификатор                            : 1
Формат                                   : ALAC
Идентификатор кодека                     : alac
Идентификатор кодека/Информация          : Apple Lossless Audio Codec
Продолжительность                        : 3 м. 8 с.
Duration_LastFrame                       : -38 мс.
Вид битрейта                             : Переменный
Битрейт                                  : 1084 Кбит/сек
Каналы                                   : 2 канала
Частота                                  : 44,1 КГц
Битовая глубина                          : 16 бит
Размер потока                            : 24,4 Мбайт (98%)
Язык                                     : English
Дата кодирования                         : UTC 2014-05-19 03:59:33
Дата пометки                             : UTC 2014-05-21 06:51:38

Общее
Полное имя                               : /Users/Denis/Library/Containers/net.mediaarea.mediainfo.mac/Data/Music/iTunes/iTunes Media/Music/Сергей Маврин/Неформат (Часть 1)/03 Время.m4a
Формат                                   : MPEG-4
Профиль формата                          : Apple audio with iTunes info
Идентификатор кодека                     : M4A
Размер файла                             : 35,0 Мбайт
Продолжительность                        : 4 м. 46 с.
Режим общего битрейта                    : Переменный
Общий поток                              : 1025 Кбит/сек
Альбом                                   : Неформат (Часть 1)
Альбом/Исполнитель                       : Сергей Маврин
Трек                                     : Время
Трек/Положение                           : 3
Исполнитель                              : Сергей Маврин
Жанр                                     : Heavy Metal
Дата записи                              : 2000
Дата кодирования                         : UTC 2014-05-19 04:00:17
Дата пометки                             : UTC 2014-05-21 06:51:38
Программа кодирования                    : Easy CD-DA Extractor (http://www.poikosoft.com)
Обложка                                  : Yes

Аудио
Идентификатор                            : 1
Формат                                   : ALAC
Идентификатор кодека                     : alac
Идентификатор кодека/Информация          : Apple Lossless Audio Codec
Продолжительность                        : 4 м. 46 с.
Duration_LastFrame                       : -80 мс.
Вид битрейта                             : Переменный
Битрейт                                  : 1013 Кбит/сек
Каналы                                   : 2 канала
Частота                                  : 44,1 КГц
Битовая глубина                          : 16 бит
Размер потока                            : 34,6 Мбайт (99%)
Язык                                     : English
Дата кодирования                         : UTC 2014-05-19 04:00:17
Дата пометки                             : UTC 2014-05-21 06:51:38

Общее
Полное имя                               : /Users/Denis/Library/Containers/net.mediaarea.mediainfo.mac/Data/Music/iTunes/iTunes Media/Music/Сергей Маврин/Неформат (Часть 1)/04 Поезд.m4a
Формат                                   : MPEG-4
Профиль формата                          : Apple audio with iTunes info
Идентификатор кодека                     : M4A
Размер файла                             : 31,0 Мбайт
Продолжительность                        : 4 м. 9 с.
Режим общего битрейта                    : Переменный
Общий поток                              : 1041 Кбит/сек
Альбом                                   : Неформат (Часть 1)
Альбом/Исполнитель                       : Сергей Маврин
Трек                                     : Поезд
Трек/Положение                           : 4
Исполнитель                              : Сергей Маврин
Жанр                                     : Heavy Metal
Дата записи                              : 2000
Дата кодирования                         : UTC 2014-05-19 04:00:25
Дата пометки                             : UTC 2014-05-21 06:51:38
Программа кодирования                    : Easy CD-DA Extractor (http://www.poikosoft.com)
Обложка                                  : Yes

Аудио
Идентификатор                            : 1
Формат                                   : ALAC
Идентификатор кодека                     : alac
Идентификатор кодека/Информация          : Apple Lossless Audio Codec
Продолжительность                        : 4 м. 9 с.
Duration_LastFrame                       : -73 мс.
Вид битрейта                             : Переменный
Битрейт                                  : 1028 Кбит/сек
Каналы                                   : 2 канала
Частота                                  : 44,1 КГц
Битовая глубина                          : 16 бит
Размер потока                            : 30,6 Мбайт (99%)
Язык                                     : English
Дата кодирования                         : UTC 2014-05-19 04:00:25
Дата пометки                             : UTC 2014-05-21 06:51:38

Общее
Полное имя                               : /Users/Denis/Library/Containers/net.mediaarea.mediainfo.mac/Data/Music/iTunes/iTunes Media/Music/Сергей Маврин/Неформат (Часть 1)/05 Век мой, зверь.m4a
Формат                                   : MPEG-4
Профиль формата                          : Apple audio with iTunes info
Идентификатор кодека                     : M4A
Размер файла                             : 35,6 Мбайт
Продолжительность                        : 5 м. 7 с.
Режим общего битрейта                    : Переменный
Общий поток                              : 971 Кбит/сек
Альбом                                   : Неформат (Часть 1)
Альбом/Исполнитель                       : Сергей Маврин
Трек                                     : Век мой, зверь
Трек/Положение                           : 5
Исполнитель                              : Сергей Маврин
Жанр                                     : Heavy Metal
Дата записи                              : 2000
Дата кодирования                         : UTC 2014-05-19 04:01:18
Дата пометки                             : UTC 2014-05-21 06:51:38
Программа кодирования                    : Easy CD-DA Extractor (http://www.poikosoft.com)
Обложка                                  : Yes

Аудио
Идентификатор                            : 1
Формат                                   : ALAC
Идентификатор кодека                     : alac
Идентификатор кодека/Информация          : Apple Lossless Audio Codec
Продолжительность                        : 5 м. 7 с.
Duration_LastFrame                       : -16 мс.
Вид битрейта                             : Переменный
Битрейт                                  : 960 Кбит/сек
Каналы                                   : 2 канала
Частота                                  : 44,1 КГц
Битовая глубина                          : 16 бит
Размер потока                            : 35,2 Мбайт (99%)
Язык                                     : English
Дата кодирования                         : UTC 2014-05-19 04:01:18
Дата пометки                             : UTC 2014-05-21 06:51:38

Общее
Полное имя                               : /Users/Denis/Library/Containers/net.mediaarea.mediainfo.mac/Data/Music/iTunes/iTunes Media/Music/Сергей Маврин/Неформат (Часть 1)/06 Харон.m4a
Формат                                   : MPEG-4
Профиль формата                          : Apple audio with iTunes info
Идентификатор кодека                     : M4A
Размер файла                             : 10,5 Мбайт
Продолжительность                        : 1 м. 30 с.
Режим общего битрейта                    : Переменный
Общий поток                              : 975 Кбит/сек
Альбом                                   : Неформат (Часть 1)
Альбом/Исполнитель                       : Сергей Маврин
Трек                                     : Харон
Трек/Положение                           : 6
Исполнитель                              : Сергей Маврин
Жанр                                     : Heavy Metal
Дата записи                              : 2000
Дата кодирования                         : UTC 2014-05-19 04:01:26
Дата пометки                             : UTC 2014-05-21 06:51:39
Программа кодирования                    : Easy CD-DA Extractor (http://www.poikosoft.com)
Обложка                                  : Yes

Аудио
Идентификатор                            : 1
Формат                                   : ALAC
Идентификатор кодека                     : alac
Идентификатор кодека/Информация          : Apple Lossless Audio Codec
Продолжительность                        : 1 м. 30 с.
Duration_LastFrame                       : -25 мс.
Вид битрейта                             : Переменный
Битрейт                                  : 939 Кбит/сек
Каналы                                   : 2 канала
Частота                                  : 44,1 КГц
Битовая глубина                          : 16 бит
Размер потока                            : 10,1 Мбайт (96%)
Язык                                     : English
Дата кодирования                         : UTC 2014-05-19 04:01:26
Дата пометки                             : UTC 2014-05-21 06:51:39

Общее
Полное имя                               : /Users/Denis/Library/Containers/net.mediaarea.mediainfo.mac/Data/Music/iTunes/iTunes Media/Music/Сергей Маврин/Неформат (Часть 1)/07 В диком поле.m4a
Формат                                   : MPEG-4
Профиль формата                          : Apple audio with iTunes info
Идентификатор кодека                     : M4A
Размер файла                             : 48,0 Мбайт
Продолжительность                        : 6 м. 24 с.
Режим общего битрейта                    : Переменный
Общий поток                              : 1048 Кбит/сек
Альбом                                   : Неформат (Часть 1)
Альбом/Исполнитель                       : Сергей Маврин
Трек                                     : В диком поле
Трек/Положение                           : 7
Исполнитель                              : Сергей Маврин
Жанр                                     : Heavy Metal
Дата записи                              : 2000
Дата кодирования                         : UTC 2014-05-19 04:02:16
Дата пометки                             : UTC 2014-05-21 06:51:39
Программа кодирования                    : Easy CD-DA Extractor (http://www.poikosoft.com)
Обложка                                  : Yes

Аудио
Идентификатор                            : 1
Формат                                   : ALAC
Идентификатор кодека                     : alac
Идентификатор кодека/Информация          : Apple Lossless Audio Codec
Продолжительность                        : 6 м. 24 с.
Duration_LastFrame                       : -16 мс.
Вид битрейта                             : Переменный
Битрейт                                  : 1039 Кбит/сек
Каналы                                   : 2 канала
Частота                                  : 44,1 КГц
Битовая глубина                          : 16 бит
Размер потока                            : 47,6 Мбайт (99%)
Язык                                     : English
Дата кодирования                         : UTC 2014-05-19 04:02:16
Дата пометки                             : UTC 2014-05-21 06:51:39

Общее
Полное имя                               : /Users/Denis/Library/Containers/net.mediaarea.mediainfo.mac/Data/Music/iTunes/iTunes Media/Music/Сергей Маврин/Неформат (Часть 1)/08 Ветер.m4a
Формат                                   : MPEG-4
Профиль формата                          : Apple audio with iTunes info
Идентификатор кодека                     : M4A
Размер файла                             : 29,0 Мбайт
Продолжительность                        : 4 м. 29 с.
Режим общего битрейта                    : Переменный
Общий поток                              : 906 Кбит/сек
Альбом                                   : Неформат (Часть 1)
Альбом/Исполнитель                       : Сергей Маврин
Трек                                     : Ветер
Трек/Положение                           : 8
Исполнитель                              : Сергей Маврин
Жанр                                     : Heavy Metal
Дата записи                              : 2000
Дата кодирования                         : UTC 2014-05-19 04:02:33
Дата пометки                             : UTC 2014-05-21 06:51:39
Программа кодирования                    : Easy CD-DA Extractor (http://www.poikosoft.com)
Обложка                                  : Yes

Аудио
Идентификатор                            : 1
Формат                                   : ALAC
Идентификатор кодека                     : alac
Идентификатор кодека/Информация          : Apple Lossless Audio Codec
Продолжительность                        : 4 м. 29 с.
Duration_LastFrame                       : -73 мс.
Вид битрейта                             : Переменный
Битрейт                                  : 893 Кбит/сек
Каналы                                   : 2 канала
Частота                                  : 44,1 КГц
Битовая глубина                          : 16 бит
Размер потока                            : 28,6 Мбайт (99%)
Язык                                     : English
Дата кодирования                         : UTC 2014-05-19 04:02:33
Дата пометки                             : UTC 2014-05-21 06:51:39

Общее
Полное имя                               : /Users/Denis/Library/Containers/net.mediaarea.mediainfo.mac/Data/Music/iTunes/iTunes Media/Music/Сергей Маврин/Неформат (Часть 1)/09 Ты и я.m4a
Формат                                   : MPEG-4
Профиль формата                          : Apple audio with iTunes info
Идентификатор кодека                     : M4A
Размер файла                             : 30,4 Мбайт
Продолжительность                        : 4 м. 17 с.
Режим общего битрейта                    : Переменный
Общий поток                              : 990 Кбит/сек
Альбом                                   : Неформат (Часть 1)
Альбом/Исполнитель                       : Сергей Маврин
Трек                                     : Ты и я
Трек/Положение                           : 9
Исполнитель                              : Сергей Маврин
Жанр                                     : Heavy Metal
Дата записи                              : 2000
Дата кодирования                         : UTC 2014-05-19 04:03:44
Дата пометки                             : UTC 2014-05-21 06:51:39
Программа кодирования                    : Easy CD-DA Extractor (http://www.poikosoft.com)
Обложка                                  : Yes

Аудио
Идентификатор                            : 1
Формат                                   : ALAC
Идентификатор кодека                     : alac
Идентификатор кодека/Информация          : Apple Lossless Audio Codec
Продолжительность                        : 4 м. 17 с.
Duration_LastFrame                       : -24 мс.
Вид битрейта                             : Переменный
Битрейт                                  : 978 Кбит/сек
Каналы                                   : 2 канала
Частота                                  : 44,1 КГц
Битовая глубина                          : 16 бит
Размер потока                            : 30,0 Мбайт (99%)
Язык                                     : English
Дата кодирования                         : UTC 2014-05-19 04:03:44
Дата пометки                             : UTC 2014-05-21 06:51:39

Общее
Полное имя                               : /Users/Denis/Library/Containers/net.mediaarea.mediainfo.mac/Data/Music/iTunes/iTunes Media/Music/Сергей Маврин/Неформат (Часть 1)/10 Всё в прошлом.m4a
Формат                                   : MPEG-4
Профиль формата                          : Apple audio with iTunes info
Идентификатор кодека                     : M4A
Размер файла                             : 36,8 Мбайт
Продолжительность                        : 5 м. 18 с.
Режим общего битрейта                    : Переменный
Общий поток                              : 968 Кбит/сек
Альбом                                   : Неформат (Часть 1)
Альбом/Исполнитель                       : Сергей Маврин
Трек                                     : Всё в прошлом
Трек/Положение                           : 10
Исполнитель                              : Сергей Маврин
Жанр                                     : Heavy Metal
Дата записи                              : 2000
Дата кодирования                         : UTC 2014-05-19 04:04:27
Дата пометки                             : UTC 2014-05-21 06:51:39
Программа кодирования                    : Easy CD-DA Extractor (http://www.poikosoft.com)
Обложка                                  : Yes

Аудио
Идентификатор                            : 1
Формат                                   : ALAC
Идентификатор кодека                     : alac
Идентификатор кодека/Информация          : Apple Lossless Audio Codec
Продолжительность                        : 5 м. 18 с.
Duration_LastFrame                       : -44 мс.
Вид битрейта                             : Переменный
Битрейт                                  : 958 Кбит/сек
Каналы                                   : 2 канала
Частота                                  : 44,1 КГц
Битовая глубина                          : 16 бит
Размер потока                            : 36,4 Мбайт (99%)
Язык                                     : English
Дата кодирования                         : UTC 2014-05-19 04:04:27
Дата пометки                             : UTC 2014-05-21 06:51:39

Общее
Полное имя                               : /Users/Denis/Library/Containers/net.mediaarea.mediainfo.mac/Data/Music/iTunes/iTunes Media/Music/Сергей Маврин/Неформат (Часть 1)/11 До свидания.m4a
Формат                                   : MPEG-4
Профиль формата                          : Apple audio with iTunes info
Идентификатор кодека                     : M4A
Размер файла                             : 33,2 Мбайт
Продолжительность                        : 4 м. 57 с.
Режим общего битрейта                    : Переменный
Общий поток                              : 937 Кбит/сек
Альбом                                   : Неформат (Часть 1)
Альбом/Исполнитель                       : Сергей Маврин
Трек                                     : До свидания
Трек/Положение                           : 11
Исполнитель                              : Сергей Маврин
Жанр                                     : Heavy Metal
Дата записи                              : 2000
Дата кодирования                         : UTC 2014-05-19 04:05:36
Дата пометки                             : UTC 2014-05-21 06:51:39
Программа кодирования                    : Easy CD-DA Extractor (http://www.poikosoft.com)
Обложка                                  : Yes

Аудио
Идентификатор                            : 1
Формат                                   : ALAC
Идентификатор кодека                     : alac
Идентификатор кодека/Информация          : Apple Lossless Audio Codec
Продолжительность                        : 4 м. 57 с.
Duration_LastFrame                       : -41 мс.
Вид битрейта                             : Переменный
Битрейт                                  : 926 Кбит/сек
Каналы                                   : 2 канала
Частота                                  : 44,1 КГц
Битовая глубина                          : 16 бит
Размер потока                            : 32,8 Мбайт (99%)
Язык                                     : English
Дата кодирования                         : UTC 2014-05-19 04:05:36
Дата пометки                             : UTC 2014-05-21 06:51:39
Код:

-----------------------

DON'T MODIFY THIS FILE

-----------------------

PERFORMER: auCDtect Task Manager, ver. 1.6.0 RC1 build 1.6.0.1
Copyright (c) 2008-2010 y-soft. All rights reserved
http://y-soft.org

ANALYZER: auCDtect: CD records authenticity detector, version 0.8.2
Copyright (c) 2004 Oleg Berngardt. All rights reserved.
Copyright (c) 2004 Alexander Djourik. All rights reserved.

FILE: 11 До свидания.m4a
  Size: 34817777 Hash: E08780DB9519DFE344472D6A0623C36F Accuracy: -m8
  Conclusion: CDDA 99%
  Signature: 87B61F569F3B1DFECA9AD39F56AFBB4EEF4AD605
FILE: 10 Всё в прошлом.m4a
  Size: 38559112 Hash: F4A9983CBD80A75F09E62206AE06E75E Accuracy: -m8
  Conclusion: CDDA 100%
  Signature: F250DECD90A666326794FCA4FDF3B6323C97124E
FILE: 09 Ты и я.m4a
  Size: 31837137 Hash: 338B6B79589CC22BC16B1F37A55900CF Accuracy: -m8
  Conclusion: CDDA 100%
  Signature: 5C5C67B4DC951C7C1C24356AACBA671593ED4D8A
FILE: 08 Ветер.m4a
  Size: 30450067 Hash: F8F7C58C49694BA35EE44B4827EA9C1C Accuracy: -m8
  Conclusion: CDDA 100%
  Signature: 756E8D43F66F80388D1FD58D27F2E32AA4483E3E
FILE: 07 В диком поле.m4a
  Size: 50362643 Hash: 9F558DB003F5F1D7290CF5B16186FD2B Accuracy: -m8
  Conclusion: CDDA 100%
  Signature: 7A2DC2AAF3081268BA7327E3EABFDDECC9B7980A
FILE: 06 Харон.m4a
  Size: 11017155 Hash: F70ED4E19A8B9923A79CCA16DB432C3E Accuracy: -m8
  Conclusion: CDDA 100%
  Signature: 2385BCC47AA8C12D35F2EB295FF083E299132E0F
FILE: 05 Век мой, зверь.m4a
  Size: 37373005 Hash: 3F9EAF5FD1870A606526D6778D10286A Accuracy: -m8
  Conclusion: CDDA 100%
  Signature: B6B4F05D338D51EE739D3737BDDD93FC507B1C3D
FILE: 04 Поезд.m4a
  Size: 32520998 Hash: 4BB7F1E2FA26C92EF43C834013964418 Accuracy: -m8
  Conclusion: CDDA 100%
  Signature: D49CB5AFDA35F63DCFA33F0A993A5B86B9D491C0
FILE: 03 Время.m4a
  Size: 36702813 Hash: C9EAAFC8BF6CE85DD02555EEDE1F233E Accuracy: -m8
  Conclusion: CDDA 99%
  Signature: C27F0A79CB6C50A125AB11D71CAA73167A2DB457
FILE: 02 Эй, человек.m4a
  Size: 25998054 Hash: AC4DD1627062DBFF1E9C2764D545AB87 Accuracy: -m8
  Conclusion: CDDA 100%
  Signature: AEEA5FB82E9B9F72D777E2D4183B6E36E563FB95
FILE: 01 Стая.m4a
  Size: 34636775 Hash: 921C8CB01ECC7432346977B79E5B9FA4 Accuracy: -m8
  Conclusion: CDDA 100%
  Signature: 2B2A25FB7F6D1D9A097508F558501656A5AE9E48
Время раздачи: с 20:00 до 03:00 постоянно / часто 24/7 - До первых 5 скачавших
[NNM-Club.me]_Mavrin (2000) Neformat 1.torrent
 Торрент: Платиновая раздача  Зарегистрирован
 
Скачать


Примагнититься
 Зарегистрирован:   25 Май 2014 08:32:21
 Размер:   347 MB  (
 Рейтинг:   3.7 (Голосов: 14)
 Поблагодарили:   28
 Проверка:   Оформление проверено модератором 25 Май 2014 09:03:16
Как cкачать  ·  Как раздать  ·  Правильно оформить  ·  Поднять ратио!  
Показать сообщения:   
Начать новую тему   Ответить на тему    Торрент-трекер NNM-Club -> Аудио и Видео -> Музыка Lossless (ALAC) Часовой пояс: GMT + 3
Страница 1 из 1