Классический форум-трекер
canvas not supported
Нас вместе: 4 082 228

Квант милосердия / Quantum of Solace (2008) BDRip


 
 
RSS
Начать новую тему   Ответить на тему    Торрент-трекер NNM-Club -> Зарубежное кино -> Зарубежные Фильмы (HD*Rip/LQ, DVDRip, SATRip, VHSRip)
Автор Сообщение
ivandubskoj ®
Стаж: 5 лет 10 мес.
Сообщений: 753
Ratio: 962,318
Раздал: 18,07 TB
Поблагодарили: 68377
100%
Квант милосердия / Quantum of Solace (2008) BDRip
Год выпуска: 2008
Жанр: Боевик, триллер, приключения, экранизация

Описание фильма:
Действие фильма "Квант милосердия" начинается буквально через час после финальных событий предыдущего, "Казино Рояль". После предательства Веспер, агент 007 борется с желанием превратить последнее задание в личную вендетту. В поисках истины, Бонд и М допрашивают Мистера Уайта, от которого узнают, что шантажировавшая Веспер Организация намного сложнее и опаснее, чем можно было подумать.

Режиссер: Марк Форстер
Актеры: Дэниэл Крэйг, Ольга Куриленко, Матье Амальрик, Джуди Денч, Джанкарло Джаннини, Джемма Артертон, Джеффри Райт, Дэвид Харбор, Джеспер Кристенсен, Анатоль Таубман

Продолжительность: 01:46:14
Качество видео: BDRip (Исходник: Blu-Ray Remux (1080p))
Перевод: Дублированный (со вставками авторского одноголосого закадрового на НЕ переведённые места в дубляже: Надписи, титры и эпизоды где говорят на других языках)

Релиз от: ivandubskoj



Дата мировой премьеры: 29 октября 2008
Дата российской премьеры: 6 ноября 2008, «BVSPR»
Дата выхода DVD релиза: 25 декабря 2008, «Двадцатый Век Фокс СНГ»
Дата выхода Blu-Ray релиза: 23 апреля 2009, «Двадцатый Век Фокс СНГ»

Видеокодек: XviD
Битрейт видео: 2314 Кбит/с
Размер кадра: 720x304
Частота кадров: 23,976 кадр/с
Аудиокодек: AC3 5.1
Битрейт аудио: 448 Кбит/с



Автор рипа и релиза - ivandubskoj
General
Complete name : Kvant.Miloserdiya.2008.BDRip.avi
Format : AVI
Format/Info : Audio Video Interleave
Format profile : OpenDML
File size : 2.06 GiB
Duration : 1h 46mn
Overall bit rate : 2 772 Kbps
Movie name : Квант милосердия / Quantum of Solace (2008) BDRip
Genre : Боевик, триллер, криминал, приключения, экранизация
Recorded date : 26.05.2014
Writing application : VirtualDubMod 1.5.10.3 | www.virtualdub-fr.org || (build 2550/release)
Writing library : VirtualDubMod build 2550/release
Copyright : rip by ivandubskoj

Video
ID : 0
Format : MPEG-4 Visual
Format profile : Advanced Simple@L5
Format settings, BVOP : 1
Format settings, QPel : No
Format settings, GMC : No warppoints
Format settings, Matrix : Default (MPEG)
Codec ID : XVID
Codec ID/Hint : XviD
Duration : 1h 46mn
Bit rate : 2 314 Kbps
Width : 720 pixels
Height : 304 pixels
Display aspect ratio : 2.35:1
Frame rate : 23.976 fps
Color space : YUV
Chroma subsampling : 4:2:0
Bit depth : 8 bits
Scan type : Progressive
Compression mode : Lossy
Bits/(Pixel*Frame) : 0.441
Stream size : 1.72 GiB (83%)
Writing library : XviD 73

Audio
ID : 1
Format : AC-3
Format/Info : Audio Coding 3
Mode extension : CM (complete main)
Codec ID : 2000
Duration : 1h 46mn
Bit rate mode : Constant
Bit rate : 448 Kbps
Channel(s) : 6 channels
Channel positions : Front: L C R, Side: L R, LFE
Sampling rate : 48.0 KHz
Bit depth : 16 bits
Compression mode : Lossy
Stream size : 340 MiB (16%)
Alignment : Split accross interleaves
Interleave, duration : 64 ms (1.53 video frames)
Interleave, preload duration : 500 ms
Title : Russian (DUB)
Скриншоты:


Время раздачи: 24/7 (круглосуточно)
[NNM-Club.me]_Kvant.Miloserdiya.2008.BDRip.avi.torrent
 Торрент: Платиновая раздача  Зарегистрирован
 
Скачать


Примагнититься
 Зарегистрирован:   26 Май 2014 16:29:02
 Размер:   2,06 GB  (
 Рейтинг:   4,8 (Голосов: 79)
 Поблагодарили:   211
 Проверка:   Оформление проверено модератором 26 Май 2014 22:11:07
Как cкачать  ·  Как раздать  ·  Правильно оформить  ·  Поднять ратио!  
ivandubskoj ®
Стаж: 5 лет 10 мес.
Сообщений: 753
Ratio: 962,318
Раздал: 18,07 TB
Поблагодарили: 68377
100%
В ДАННОМ РЕЛИЗЕ ПОЛНЫЙ РУССКИЙ ПЕРЕВОД. СДЕЛАЛ ВСТАВКИ VO НА НЕ ПЕРЕВЕДЁННЫЕ МЕСТА В ДУБЛЯЖЕ.

Сделано "по тому же принципу", что и другие мои релизы: Робокоп, Совокупность лжи, Трансформеры 3.
Сравнение с раздачей с другой раздачей, где есть дубляж, например.

В начале эпизода, также специально зацепил немножко дубляжа, чтобы вы НЕ подумали, что я хитрю и подсунул вам оригинал БЕЗ перевода.

http://multi-up.com/976198
http://multi-up.com/976199

А ТАКЖЕ В ПРИЛОЖЕННОМ СЭМПЛЕ ЕСТЬ ЭПИЗОД СО ВСТАВКОЙ, ПРИМЕРНО НА 2-Й МИНУТЕ, скачивайте проверяйте.
MAIKLLL
Стаж: 9 лет 10 мес.
Сообщений: 254
Ratio: 2,625
100%
Откуда: Новороссия
ussr.gif
Спасибо!
relax57
Стаж: 9 лет 11 мес.
Сообщений: 164
Ratio: 29,1
100%
russia.gif
супер
Stepanidin_VV
Стаж: 7 лет 3 мес.
Сообщений: 26
Ratio: 0,99
2.14%
Чудесно!
hariss
Стаж: 10 лет 3 мес.
Сообщений: 24
Ratio: 2,959
34.19%
latvia.gif
Спасибо!
Показать сообщения:   
Начать новую тему   Ответить на тему    Торрент-трекер NNM-Club -> Зарубежное кино -> Зарубежные Фильмы (HD*Rip/LQ, DVDRip, SATRip, VHSRip) Часовой пояс: GMT + 3
Страница 1 из 1