Классический форум-трекер
canvas not supported
Нас вместе: 4 166 414

Мираж - Звезды нас ждут (1994) [ALAC|Tracks]<Pop>


 
 
RSS
Начать новую тему   Ответить на тему    Торрент-трекер NNM-Club -> Аудио и Видео -> Музыка Lossless (ALAC)
Автор Сообщение
Cecidit ®
Стаж: 7 лет 8 мес.
Сообщений: 129
Ratio: 39.772
Поблагодарили: 8806
100%
Откуда: Москва, МО Щелково
russia.gif
Мираж - Звезды нас ждут (1994)
За основу взят именно CD 1994 года, первый официальный CD.

Год: 1994
Жанр: Pop
Продолжительность: 00:40:28

Кодек: ALAC
Битрейт: Lossless
Тип раздачи: Tracks
Обложки: Вшиты
Кодирование: XLD + QuickTime + iTunes
Лейбл: J. S. P.

Звёзды нас ждут — дебютный музыкальный альбом группы «Мираж». Был записан в конце 1986 года и выпущен на магнитной кассете в 1987 году. Издан на компакт-диске в 1994 году, претерпев некоторые изменения: изменен порядок песен, материал был пересведен. Режиссёр мастеринга переиздания — Игорь Бабенко.

Участие в записи:
Наталия Гулькина — вокал (дорожки 1, 3, 4, 8 и 9)
Маргарита Суханкина — вокал (дорожки 2, 6 и 7)
Андрей Литягин — аранжировки, клавишные, запись
Сергей Проклов — гитара
Алексей Рящин — клавишные
Андрей Лукинов — помощь в записи, саунпродюсер

Треклист:
01. Солнечное лето
02. Звёзды нас ждут
03. Безумный мир
04. Я не хочу
05. Около полуночи
06. Видео
07. Эта ночь
08. Электричество
09. Волшебный мир
Код:

Общее
Полное имя                               : /Users/Denis/Library/Containers/net.mediaarea.mediainfo.mac/Data/Music/iTunes/iTunes Media/Music/Мираж/Звёзды нас ждут/01 Солнечное лето.m4a
Формат                                   : MPEG-4
Профиль формата                          : Apple audio with iTunes info
Идентификатор кодека                     : M4A
Размер файла                             : 29,4 Мбайт
Продолжительность                        : 4 м. 30 с.
Режим общего битрейта                    : Переменный
Общий поток                              : 914 Кбит/сек
Альбом                                   : Звёзды нас ждут
Альбом/Исполнитель                       : Мираж
Трек                                     : Солнечное лето
Трек/Положение                           : 1
Трек/Всего                               : 9
Исполнитель                              : Мираж
Жанр                                     : Pop
Дата записи                              : 1994
Дата кодирования                         : UTC 1984-03-23 01:45:51
Дата пометки                             : UTC 2014-05-27 11:01:47
Программа кодирования                    : X Lossless Decoder 20140504, QuickTime 7.7.1
Обложка                                  : Yes
Примечание                               : ExactAudioCopy v0.99pb4
iTunes_CDDB_1                            : 78097C09+182263+9+155+20425+43010+60200+73643+97138+115425+135418+154410
iTunes_CDDB_TrackNumber                  : 1

Аудио
Идентификатор                            : 1
Формат                                   : ALAC
Идентификатор кодека                     : alac
Идентификатор кодека/Информация          : Apple Lossless Audio Codec
Продолжительность                        : 4 м. 30 с.
Duration_LastFrame                       : -14 мс.
Вид битрейта                             : Переменный
Битрейт                                  : 900 Кбит/сек
Каналы                                   : 2 канала
Частота                                  : 44,1 КГц
Битовая глубина                          : 16 бит
Размер потока                            : 29,0 Мбайт (99%)
Язык                                     : English
Дата кодирования                         : UTC 1984-03-23 01:45:51
Дата пометки                             : UTC 2014-05-27 11:01:47

Общее
Полное имя                               : /Users/Denis/Library/Containers/net.mediaarea.mediainfo.mac/Data/Music/iTunes/iTunes Media/Music/Мираж/Звёзды нас ждут/02 Звёзды нас ждут.m4a
Формат                                   : MPEG-4
Профиль формата                          : Apple audio with iTunes info
Идентификатор кодека                     : M4A
Размер файла                             : 33,3 Мбайт
Продолжительность                        : 5 м. 1 с.
Режим общего битрейта                    : Переменный
Общий поток                              : 926 Кбит/сек
Альбом                                   : Звёзды нас ждут
Альбом/Исполнитель                       : Мираж
Трек                                     : Звёзды нас ждут
Трек/Положение                           : 2
Трек/Всего                               : 9
Исполнитель                              : Мираж
Жанр                                     : Pop
Дата записи                              : 1994
Дата кодирования                         : UTC 1985-04-15 10:26:23
Дата пометки                             : UTC 2014-05-27 11:01:50
Программа кодирования                    : X Lossless Decoder 20140504, QuickTime 7.7.1
Обложка                                  : Yes
Примечание                               : ExactAudioCopy v0.99pb4
iTunes_CDDB_1                            : 78097C09+182263+9+155+20425+43010+60200+73643+97138+115425+135418+154410
iTunes_CDDB_TrackNumber                  : 2

Аудио
Идентификатор                            : 1
Формат                                   : ALAC
Идентификатор кодека                     : alac
Идентификатор кодека/Информация          : Apple Lossless Audio Codec
Продолжительность                        : 5 м. 1 с.
Duration_LastFrame                       : -76 мс.
Вид битрейта                             : Переменный
Битрейт                                  : 914 Кбит/сек
Каналы                                   : 2 канала
Частота                                  : 44,1 КГц
Битовая глубина                          : 16 бит
Размер потока                            : 32,8 Мбайт (99%)
Язык                                     : English
Дата кодирования                         : UTC 1985-04-15 10:26:23
Дата пометки                             : UTC 2014-05-27 11:01:50

Общее
Полное имя                               : /Users/Denis/Library/Containers/net.mediaarea.mediainfo.mac/Data/Music/iTunes/iTunes Media/Music/Мираж/Звёзды нас ждут/03 Безумный мир.m4a
Формат                                   : MPEG-4
Профиль формата                          : Apple audio with iTunes info
Идентификатор кодека                     : M4A
Размер файла                             : 25,9 Мбайт
Продолжительность                        : 3 м. 49 с.
Режим общего битрейта                    : Переменный
Общий поток                              : 949 Кбит/сек
Альбом                                   : Звёзды нас ждут
Альбом/Исполнитель                       : Мираж
Трек                                     : Безумный мир
Трек/Положение                           : 3
Трек/Всего                               : 9
Исполнитель                              : Мираж
Жанр                                     : Pop
Дата записи                              : 1994
Дата кодирования                         : UTC 2008-02-24 04:57:51
Дата пометки                             : UTC 2014-05-27 11:01:52
Программа кодирования                    : X Lossless Decoder 20140504, QuickTime 7.7.1
Обложка                                  : Yes
Примечание                               : ExactAudioCopy v0.99pb4
iTunes_CDDB_1                            : 78097C09+182263+9+155+20425+43010+60200+73643+97138+115425+135418+154410
iTunes_CDDB_TrackNumber                  : 3

Аудио
Идентификатор                            : 1
Формат                                   : ALAC
Идентификатор кодека                     : alac
Идентификатор кодека/Информация          : Apple Lossless Audio Codec
Продолжительность                        : 3 м. 49 с.
Duration_LastFrame                       : -27 мс.
Вид битрейта                             : Переменный
Битрейт                                  : 933 Кбит/сек
Каналы                                   : 2 канала
Частота                                  : 44,1 КГц
Битовая глубина                          : 16 бит
Размер потока                            : 25,5 Мбайт (98%)
Язык                                     : English
Дата кодирования                         : UTC 2008-02-24 04:57:51
Дата пометки                             : UTC 2014-05-27 11:01:52

Общее
Полное имя                               : /Users/Denis/Library/Containers/net.mediaarea.mediainfo.mac/Data/Music/iTunes/iTunes Media/Music/Мираж/Звёзды нас ждут/04 Я не хочу.m4a
Формат                                   : MPEG-4
Профиль формата                          : Apple audio with iTunes info
Идентификатор кодека                     : M4A
Размер файла                             : 19,9 Мбайт
Продолжительность                        : 2 м. 59 с.
Режим общего битрейта                    : Переменный
Общий поток                              : 932 Кбит/сек
Альбом                                   : Звёзды нас ждут
Альбом/Исполнитель                       : Мираж
Трек                                     : Я не хочу
Трек/Положение                           : 4
Трек/Всего                               : 9
Исполнитель                              : Мираж
Жанр                                     : Pop
Дата записи                              : 1994
Дата кодирования                         : UTC 2006-07-21 15:57:03
Дата пометки                             : UTC 2014-05-27 11:01:54
Программа кодирования                    : X Lossless Decoder 20140504, QuickTime 7.7.1
Обложка                                  : Yes
Примечание                               : ExactAudioCopy v0.99pb4
iTunes_CDDB_1                            : 78097C09+182263+9+155+20425+43010+60200+73643+97138+115425+135418+154410
iTunes_CDDB_TrackNumber                  : 4

Аудио
Идентификатор                            : 1
Формат                                   : ALAC
Идентификатор кодека                     : alac
Идентификатор кодека/Информация          : Apple Lossless Audio Codec
Продолжительность                        : 2 м. 59 с.
Duration_LastFrame                       : -18 мс.
Вид битрейта                             : Переменный
Битрейт                                  : 912 Кбит/сек
Каналы                                   : 2 канала
Частота                                  : 44,1 КГц
Битовая глубина                          : 16 бит
Размер потока                            : 19,5 Мбайт (98%)
Язык                                     : English
Дата кодирования                         : UTC 2006-07-21 15:57:03
Дата пометки                             : UTC 2014-05-27 11:01:54

Общее
Полное имя                               : /Users/Denis/Library/Containers/net.mediaarea.mediainfo.mac/Data/Music/iTunes/iTunes Media/Music/Мираж/Звёзды нас ждут/05 Около полуночи.m4a
Формат                                   : MPEG-4
Профиль формата                          : Apple audio with iTunes info
Идентификатор кодека                     : M4A
Размер файла                             : 31,0 Мбайт
Продолжительность                        : 5 м. 13 с.
Режим общего битрейта                    : Переменный
Общий поток                              : 831 Кбит/сек
Альбом                                   : Звёзды нас ждут
Альбом/Исполнитель                       : Мираж
Трек                                     : Около полуночи
Трек/Положение                           : 5
Трек/Всего                               : 9
Исполнитель                              : Мираж
Жанр                                     : Pop
Дата записи                              : 1994
Дата кодирования                         : UTC 2036-11-08 23:12:15
Дата пометки                             : UTC 2014-05-27 11:02:00
Программа кодирования                    : X Lossless Decoder 20140504, QuickTime 7.7.1
Обложка                                  : Yes
Примечание                               : ExactAudioCopy v0.99pb4
iTunes_CDDB_1                            : 78097C09+182263+9+155+20425+43010+60200+73643+97138+115425+135418+154410
iTunes_CDDB_TrackNumber                  : 5

Аудио
Идентификатор                            : 1
Формат                                   : ALAC
Идентификатор кодека                     : alac
Идентификатор кодека/Информация          : Apple Lossless Audio Codec
Продолжительность                        : 5 м. 13 с.
Duration_LastFrame                       : -17 мс.
Вид битрейта                             : Переменный
Битрейт                                  : 819 Кбит/сек
Каналы                                   : 2 канала
Частота                                  : 44,1 КГц
Битовая глубина                          : 16 бит
Размер потока                            : 30,6 Мбайт (99%)
Язык                                     : English
Дата кодирования                         : UTC 2036-11-08 23:12:15
Дата пометки                             : UTC 2014-05-27 11:02:00

Общее
Полное имя                               : /Users/Denis/Library/Containers/net.mediaarea.mediainfo.mac/Data/Music/iTunes/iTunes Media/Music/Мираж/Звёзды нас ждут/06 Видео.m4a
Формат                                   : MPEG-4
Профиль формата                          : Apple audio with iTunes info
Идентификатор кодека                     : M4A
Размер файла                             : 26,8 Мбайт
Продолжительность                        : 4 м. 3 с.
Режим общего битрейта                    : Переменный
Общий поток                              : 923 Кбит/сек
Альбом                                   : Звёзды нас ждут
Альбом/Исполнитель                       : Мираж
Трек                                     : Видео
Трек/Положение                           : 6
Трек/Всего                               : 9
Исполнитель                              : Мираж
Жанр                                     : Pop
Дата записи                              : 1994
Дата кодирования                         : UTC 2034-09-24 05:51:11
Дата пометки                             : UTC 2014-05-27 11:02:03
Программа кодирования                    : X Lossless Decoder 20140504, QuickTime 7.7.1
Обложка                                  : Yes
Примечание                               : ExactAudioCopy v0.99pb4
iTunes_CDDB_1                            : 78097C09+182263+9+155+20425+43010+60200+73643+97138+115425+135418+154410
iTunes_CDDB_TrackNumber                  : 6

Аудио
Идентификатор                            : 1
Формат                                   : ALAC
Идентификатор кодека                     : alac
Идентификатор кодека/Информация          : Apple Lossless Audio Codec
Продолжительность                        : 4 м. 3 с.
Duration_LastFrame                       : -76 мс.
Вид битрейта                             : Переменный
Битрейт                                  : 908 Кбит/сек
Каналы                                   : 2 канала
Частота                                  : 44,1 КГц
Битовая глубина                          : 16 бит
Размер потока                            : 26,4 Мбайт (98%)
Язык                                     : English
Дата кодирования                         : UTC 2034-09-24 05:51:11
Дата пометки                             : UTC 2014-05-27 11:02:03

Общее
Полное имя                               : /Users/Denis/Library/Containers/net.mediaarea.mediainfo.mac/Data/Music/iTunes/iTunes Media/Music/Мираж/Звёзды нас ждут/07 Эта ночь.m4a
Формат                                   : MPEG-4
Профиль формата                          : Apple audio with iTunes info
Идентификатор кодека                     : M4A
Размер файла                             : 28,5 Мбайт
Продолжительность                        : 4 м. 26 с.
Режим общего битрейта                    : Переменный
Общий поток                              : 896 Кбит/сек
Альбом                                   : Звёзды нас ждут
Альбом/Исполнитель                       : Мираж
Трек                                     : Эта ночь
Трек/Положение                           : 7
Трек/Всего                               : 9
Исполнитель                              : Мираж
Жанр                                     : Pop
Дата записи                              : 1994
Дата пометки                             : UTC 2014-05-27 11:02:06
Программа кодирования                    : X Lossless Decoder 20140504, QuickTime 7.7.1
Обложка                                  : Yes
Примечание                               : ExactAudioCopy v0.99pb4
iTunes_CDDB_1                            : 78097C09+182263+9+155+20425+43010+60200+73643+97138+115425+135418+154410
iTunes_CDDB_TrackNumber                  : 7

Аудио
Идентификатор                            : 1
Формат                                   : ALAC
Идентификатор кодека                     : alac
Идентификатор кодека/Информация          : Apple Lossless Audio Codec
Продолжительность                        : 4 м. 26 с.
Duration_LastFrame                       : -85 мс.
Вид битрейта                             : Переменный
Битрейт                                  : 883 Кбит/сек
Каналы                                   : 2 канала
Частота                                  : 44,1 КГц
Битовая глубина                          : 16 бит
Размер потока                            : 28,1 Мбайт (99%)
Язык                                     : English
Дата пометки                             : UTC 2014-05-27 11:02:06

Общее
Полное имя                               : /Users/Denis/Library/Containers/net.mediaarea.mediainfo.mac/Data/Music/iTunes/iTunes Media/Music/Мираж/Звёзды нас ждут/08 Электричество.m4a
Формат                                   : MPEG-4
Профиль формата                          : Apple audio with iTunes info
Идентификатор кодека                     : M4A
Размер файла                             : 27,4 Мбайт
Продолжительность                        : 4 м. 13 с.
Режим общего битрейта                    : Переменный
Общий поток                              : 909 Кбит/сек
Альбом                                   : Звёзды нас ждут
Альбом/Исполнитель                       : Мираж
Трек                                     : Электричество
Трек/Положение                           : 8
Трек/Всего                               : 9
Исполнитель                              : Мираж
Жанр                                     : Pop
Дата записи                              : 1994
Дата пометки                             : UTC 2014-05-27 11:02:07
Программа кодирования                    : X Lossless Decoder 20140504, QuickTime 7.7.1
Обложка                                  : Yes
Примечание                               : ExactAudioCopy v0.99pb4
iTunes_CDDB_1                            : 78097C09+182263+9+155+20425+43010+60200+73643+97138+115425+135418+154410
iTunes_CDDB_TrackNumber                  : 8

Аудио
Идентификатор                            : 1
Формат                                   : ALAC
Идентификатор кодека                     : alac
Идентификатор кодека/Информация          : Apple Lossless Audio Codec
Продолжительность                        : 4 м. 13 с.
Duration_LastFrame                       : -57 мс.
Вид битрейта                             : Переменный
Битрейт                                  : 894 Кбит/сек
Каналы                                   : 2 канала
Частота                                  : 44,1 КГц
Битовая глубина                          : 16 бит
Размер потока                            : 27,0 Мбайт (98%)
Язык                                     : English
Дата пометки                             : UTC 2014-05-27 11:02:07

Общее
Полное имя                               : /Users/Denis/Library/Containers/net.mediaarea.mediainfo.mac/Data/Music/iTunes/iTunes Media/Music/Мираж/Звёзды нас ждут/09 Волшебный мир.m4a
Формат                                   : MPEG-4
Профиль формата                          : Apple audio with iTunes info
Идентификатор кодека                     : M4A
Размер файла                             : 40,3 Мбайт
Продолжительность                        : 6 м. 11 с.
Режим общего битрейта                    : Переменный
Общий поток                              : 910 Кбит/сек
Альбом                                   : Звёзды нас ждут
Альбом/Исполнитель                       : Мираж
Трек                                     : Волшебный мир
Трек/Положение                           : 9
Трек/Всего                               : 9
Исполнитель                              : Мираж
Жанр                                     : Pop
Дата записи                              : 1994
Дата пометки                             : UTC 2014-05-27 11:02:11
Программа кодирования                    : X Lossless Decoder 20140504, QuickTime 7.7.1
Обложка                                  : Yes
Примечание                               : ExactAudioCopy v0.99pb4
iTunes_CDDB_1                            : 78097C09+182263+9+155+20425+43010+60200+73643+97138+115425+135418+154410
iTunes_CDDB_TrackNumber                  : 9

Аудио
Идентификатор                            : 1
Формат                                   : ALAC
Идентификатор кодека                     : alac
Идентификатор кодека/Информация          : Apple Lossless Audio Codec
Продолжительность                        : 6 м. 11 с.
Duration_LastFrame                       : -53 мс.
Вид битрейта                             : Переменный
Битрейт                                  : 900 Кбит/сек
Каналы                                   : 2 канала
Частота                                  : 44,1 КГц
Битовая глубина                          : 16 бит
Размер потока                            : 39,8 Мбайт (99%)
Язык                                     : English
Дата пометки                             : UTC 2014-05-27 11:02:11
Код:

-----------------------

DON'T MODIFY THIS FILE

-----------------------

PERFORMER: auCDtect Task Manager, ver. 1.6.0 RC1 build 1.6.0.1
Copyright (c) 2008-2010 y-soft. All rights reserved
http://y-soft.org

ANALYZER: auCDtect: CD records authenticity detector, version 0.8.2
Copyright (c) 2004 Oleg Berngardt. All rights reserved.
Copyright (c) 2004 Alexander Djourik. All rights reserved.

FILE: 09 Волшебный мир.m4a
  Size: 42235779 Hash: F6840E1DBA03FC9B6C4E8D94AB7295CA Accuracy: -m0
  Conclusion: CDDA 100%
  Signature: F65F5FFD432D630DBFC3281C55EF063137453252
FILE: 08 Электричество.m4a
  Size: 28758070 Hash: 4876FF8B937977420C93EEA92DBD139D Accuracy: -m0
  Conclusion: CDDA 100%
  Signature: ACF4A6A626CBFBB269A903556D8B9BA97745CC74
FILE: 07 Эта ночь.m4a
  Size: 29864356 Hash: 48878E3C5E95C7A682DB8E64439CC0B4 Accuracy: -m0
  Conclusion: CDDA 100%
  Signature: EF377C4A43909F30D785AC232546703BBCDF031D
FILE: 06 Видео.m4a
  Size: 28140493 Hash: B7388C09A81885C4752EB2998DB1E6F7 Accuracy: -m0
  Conclusion: CDDA 100%
  Signature: 8D0F0D19114C3A7F9B72668FBCF41F5CF93D77BC
FILE: 05 Около полуночи.m4a
  Size: 32522085 Hash: 13CEF7F1CE68843DA973A3B46142AAEB Accuracy: -m0
  Conclusion: CDDA 100%
  Signature: 3463AB44BB6A2743081F3C2E890573E67B93FBDD
FILE: 04 Я не хочу.m4a
  Size: 20888879 Hash: C06998CD2D709D7B893E556A657759CD Accuracy: -m0
  Conclusion: CDDA 100%
  Signature: 216ED00EB50DA608C2715D1FE057DD46DAF29AA7
FILE: 03 Безумный мир.m4a
  Size: 27185191 Hash: 85A24D48F97F1CB30674B5CA31A813C7 Accuracy: -m0
  Conclusion: CDDA 100%
  Signature: B9389076C9841E44B710FC6B80AEC71D514A0185
FILE: 02 Звёзды нас ждут.m4a
  Size: 34872455 Hash: 6CDE68898486C6CC696D885BAA8EB21B Accuracy: -m0
  Conclusion: CDDA 100%
  Signature: 3C3BEA655DF4FAC4767115F9DF8FE49D2F591853
FILE: 01 Солнечное лето.m4a
  Size: 30862308 Hash: 13137E0A616EAFF6A2F26484C5121C54 Accuracy: -m0
  Conclusion: CDDA 100%
  Signature: E44A7A0993A710F77FA487D3DE81E8BEEE5F32D7
Время раздачи: с 20:00 до 03:00 постоянно / часто 24/7 - До первых 5 скачавших
[NNM-Club.me]_Mirazh (1994) Zvezdyi nas zhdut.torrent
 Торрент: Платиновая раздача  Зарегистрирован
 
Скачать


Примагнититься
 Зарегистрирован:   27 Май 2014 17:07:47
 Размер:   263 MB  (
 Рейтинг:   4.5 (Голосов: 40)
 Поблагодарили:   154
 Проверка:   Оформление проверено модератором 27 Май 2014 17:24:49
Как cкачать  ·  Как раздать  ·  Правильно оформить  ·  Поднять ратио!  
Cecidit ®
Стаж: 7 лет 8 мес.
Сообщений: 129
Ratio: 39.772
Поблагодарили: 8806
100%
Откуда: Москва, МО Щелково
russia.gif
Так же есть переиздание от J. S. P. 1999 года. Пока не сравнивал есть ли хоть какое-то отличие, если есть выложу.
Cantrab
Стаж: 9 лет 10 мес.
Сообщений: 17
Ratio: 38.69
100%
australia.gif
Спасибо!
Показать сообщения:   
Начать новую тему   Ответить на тему    Торрент-трекер NNM-Club -> Аудио и Видео -> Музыка Lossless (ALAC) Часовой пояс: GMT + 3
Страница 1 из 1