Классический форум-трекер
canvas not supported
Нас вместе: 4 165 225

Ария - Легенды русского рока (выпуск 1) (Compilation) (1997) [ALAC|Tracks]<Heavy Metal>


 
 
RSS
Начать новую тему   Ответить на тему    Торрент-трекер NNM-Club -> Аудио и Видео -> Музыка Lossless (ALAC)
Автор Сообщение
Cecidit ®
Стаж: 7 лет 8 мес.
Сообщений: 129
Ratio: 39.772
Поблагодарили: 8803
100%
Откуда: Москва, МО Щелково
russia.gif
Ария - Легенды русского рока (выпуск 1) (Compilation) (1997)
Год: 1997
Жанр: Heavy Metal
Продолжительность: 01:14:00

Кодек: ALAC
Битрейт: Lossless
Тип раздачи: Tracks
Обложки: Вшиты
Кодирование: XLD + QuickTime + iTunes

«Легенды русского рока» — серия ретроспективных коллекционных альбомов-сборников групп русского рока, выпускаемая с 1996 года лейблом Moroz Records. Серия была задумана продюсерами Константином Преображенским и Василием Гавриловым. Для каждой группы или исполнителя был подготовлен отдельный альбом в серийном оформлении, разработанным Василием Гавриловым. Это первый выпуск группы АРИЯ, второй выпуск этой серии с АРИЕЙ был в 2003 году.

Треклист:
01. Волонтёр
02. Тореро
03. Воля И Разум
04. Дай Руку Мне
05. Герой Асфальта
06. Улица Роз
07. Бой Продолжается
08. Игра С Огнём
09. Прощай, Норфолк!
10. Антихрист
11. Кровь За Кровь
12. Возьми Моё Сердце
13. Король Дороги
Код:

Общее
Полное имя                               : /Users/Denis/Library/Containers/net.mediaarea.mediainfo.mac/Data/Music/iTunes/iTunes Media/Music/Ария/Легенды русского рока (Выпуск 1) (Compilation)/01 Волонтёр.m4a
Формат                                   : MPEG-4
Профиль формата                          : Apple audio with iTunes info
Идентификатор кодека                     : M4A
Размер файла                             : 41,0 Мбайт
Продолжительность                        : 6 м. 8 с.
Режим общего битрейта                    : Переменный
Общий поток                              : 931 Кбит/сек
Альбом                                   : Легенды русского рока (Выпуск 1) (Compilation)
Альбом/Исполнитель                       : Ария
Трек                                     : Волонтёр
Трек/Положение                           : 1
Трек/Всего                               : 13
Исполнитель                              : Ария
Жанр                                     : Heavy Metal
Дата записи                              : 1997
Дата пометки                             : UTC 2014-05-31 11:04:53
Программа кодирования                    : X Lossless Decoder 20140504, QuickTime 7.7.1
Обложка                                  : Yes
Примечание                               : ExactAudioCopy v0.99pb3
iTunes_CDDB_1                            : DB11580D+333215+13+160+27828+52876+73301+96434+119244+146019+173635+214364+238173+260969+295705+314108
iTunes_CDDB_TrackNumber                  : 1

Аудио
Идентификатор                            : 1
Формат                                   : ALAC
Идентификатор кодека                     : alac
Идентификатор кодека/Информация          : Apple Lossless Audio Codec
Продолжительность                        : 6 м. 8 с.
Duration_LastFrame                       : -12 мс.
Вид битрейта                             : Переменный
Битрейт                                  : 922 Кбит/сек
Каналы                                   : 2 канала
Частота                                  : 44,1 КГц
Битовая глубина                          : 16 бит
Размер потока                            : 40,5 Мбайт (99%)
Язык                                     : English
Дата пометки                             : UTC 2014-05-31 11:04:53

Общее
Полное имя                               : /Users/Denis/Library/Containers/net.mediaarea.mediainfo.mac/Data/Music/iTunes/iTunes Media/Music/Ария/Легенды русского рока (Выпуск 1) (Compilation)/02 Тореро.m4a
Формат                                   : MPEG-4
Профиль формата                          : Apple audio with iTunes info
Идентификатор кодека                     : M4A
Размер файла                             : 37,7 Мбайт
Продолжительность                        : 5 м. 33 с.
Режим общего битрейта                    : Переменный
Общий поток                              : 948 Кбит/сек
Альбом                                   : Легенды русского рока (Выпуск 1) (Compilation)
Альбом/Исполнитель                       : Ария
Трек                                     : Тореро
Трек/Положение                           : 2
Трек/Всего                               : 13
Исполнитель                              : Ария
Жанр                                     : Heavy Metal
Дата записи                              : 1997
Дата пометки                             : UTC 2014-05-31 11:04:54
Программа кодирования                    : X Lossless Decoder 20140504, QuickTime 7.7.1
Обложка                                  : Yes
Примечание                               : ExactAudioCopy v0.99pb3
iTunes_CDDB_1                            : DB11580D+333215+13+160+27828+52876+73301+96434+119244+146019+173635+214364+238173+260969+295705+314108
iTunes_CDDB_TrackNumber                  : 2

Аудио
Идентификатор                            : 1
Формат                                   : ALAC
Идентификатор кодека                     : alac
Идентификатор кодека/Информация          : Apple Lossless Audio Codec
Продолжительность                        : 5 м. 33 с.
Duration_LastFrame                       : -22 мс.
Вид битрейта                             : Переменный
Битрейт                                  : 937 Кбит/сек
Каналы                                   : 2 канала
Частота                                  : 44,1 КГц
Битовая глубина                          : 16 бит
Размер потока                            : 37,3 Мбайт (99%)
Язык                                     : English
Дата пометки                             : UTC 2014-05-31 11:04:54

Общее
Полное имя                               : /Users/Denis/Library/Containers/net.mediaarea.mediainfo.mac/Data/Music/iTunes/iTunes Media/Music/Ария/Легенды русского рока (Выпуск 1) (Compilation)/05 Герой асфальта.m4a
Формат                                   : MPEG-4
Профиль формата                          : Apple audio with iTunes info
Идентификатор кодека                     : M4A
Размер файла                             : 35,2 Мбайт
Продолжительность                        : 5 м. 4 с.
Режим общего битрейта                    : Переменный
Общий поток                              : 970 Кбит/сек
Альбом                                   : Легенды русского рока (Выпуск 1) (Compilation)
Альбом/Исполнитель                       : Ария
Трек                                     : Герой асфальта
Трек/Положение                           : 5
Трек/Всего                               : 13
Исполнитель                              : Ария
Жанр                                     : Heavy Metal
Дата записи                              : 1997
Дата кодирования                         : UTC 2009-05-10 16:22:39
Дата пометки                             : UTC 2014-05-31 11:04:54
Программа кодирования                    : X Lossless Decoder 20140504, QuickTime 7.7.1
Обложка                                  : Yes
Примечание                               : ExactAudioCopy v0.99pb3
iTunes_CDDB_1                            : DB11580D+333215+13+160+27828+52876+73301+96434+119244+146019+173635+214364+238173+260969+295705+314108
iTunes_CDDB_TrackNumber                  : 5

Аудио
Идентификатор                            : 1
Формат                                   : ALAC
Идентификатор кодека                     : alac
Идентификатор кодека/Информация          : Apple Lossless Audio Codec
Продолжительность                        : 5 м. 4 с.
Duration_LastFrame                       : -48 мс.
Вид битрейта                             : Переменный
Битрейт                                  : 958 Кбит/сек
Каналы                                   : 2 канала
Частота                                  : 44,1 КГц
Битовая глубина                          : 16 бит
Размер потока                            : 34,8 Мбайт (99%)
Язык                                     : English
Дата кодирования                         : UTC 2009-05-10 16:22:39
Дата пометки                             : UTC 2014-05-31 11:04:54

Общее
Полное имя                               : /Users/Denis/Library/Containers/net.mediaarea.mediainfo.mac/Data/Music/iTunes/iTunes Media/Music/Ария/Легенды русского рока (Выпуск 1) (Compilation)/06 Улица роз.m4a
Формат                                   : MPEG-4
Профиль формата                          : Apple audio with iTunes info
Идентификатор кодека                     : M4A
Размер файла                             : 44,2 Мбайт
Продолжительность                        : 5 м. 57 с.
Режим общего битрейта                    : Переменный
Общий поток                              : 1039 Кбит/сек
Альбом                                   : Легенды русского рока (Выпуск 1) (Compilation)
Альбом/Исполнитель                       : Ария
Трек                                     : Улица роз
Трек/Положение                           : 6
Трек/Всего                               : 13
Исполнитель                              : Ария
Жанр                                     : Heavy Metal
Дата записи                              : 1997
Дата кодирования                         : UTC 2014-09-03 11:45:19
Дата пометки                             : UTC 2014-05-31 11:04:54
Программа кодирования                    : X Lossless Decoder 20140504, QuickTime 7.7.1
Обложка                                  : Yes
Примечание                               : ExactAudioCopy v0.99pb3
iTunes_CDDB_1                            : DB11580D+333215+13+160+27828+52876+73301+96434+119244+146019+173635+214364+238173+260969+295705+314108
iTunes_CDDB_TrackNumber                  : 6

Аудио
Идентификатор                            : 1
Формат                                   : ALAC
Идентификатор кодека                     : alac
Идентификатор кодека/Информация          : Apple Lossless Audio Codec
Продолжительность                        : 5 м. 57 с.
Duration_LastFrame                       : -30 мс.
Вид битрейта                             : Переменный
Битрейт                                  : 1029 Кбит/сек
Каналы                                   : 2 канала
Частота                                  : 44,1 КГц
Битовая глубина                          : 16 бит
Размер потока                            : 43,8 Мбайт (99%)
Язык                                     : English
Дата кодирования                         : UTC 2014-09-03 11:45:19
Дата пометки                             : UTC 2014-05-31 11:04:54

Общее
Полное имя                               : /Users/Denis/Library/Containers/net.mediaarea.mediainfo.mac/Data/Music/iTunes/iTunes Media/Music/Ария/Легенды русского рока (Выпуск 1) (Compilation)/07 Бой продолжается.m4a
Формат                                   : MPEG-4
Профиль формата                          : Apple audio with iTunes info
Идентификатор кодека                     : M4A
Размер файла                             : 42,6 Мбайт
Продолжительность                        : 6 м. 8 с.
Режим общего битрейта                    : Переменный
Общий поток                              : 971 Кбит/сек
Альбом                                   : Легенды русского рока (Выпуск 1) (Compilation)
Альбом/Исполнитель                       : Ария
Трек                                     : Бой продолжается
Трек/Положение                           : 7
Трек/Всего                               : 13
Исполнитель                              : Ария
Жанр                                     : Heavy Metal
Дата записи                              : 1997
Дата пометки                             : UTC 2014-05-31 11:04:54
Программа кодирования                    : X Lossless Decoder 20140504, QuickTime 7.7.1
Обложка                                  : Yes
Примечание                               : ExactAudioCopy v0.99pb3
iTunes_CDDB_1                            : DB11580D+333215+13+160+27828+52876+73301+96434+119244+146019+173635+214364+238173+260969+295705+314108
iTunes_CDDB_TrackNumber                  : 7

Аудио
Идентификатор                            : 1
Формат                                   : ALAC
Идентификатор кодека                     : alac
Идентификатор кодека/Информация          : Apple Lossless Audio Codec
Продолжительность                        : 6 м. 8 с.
Duration_LastFrame                       : -55 мс.
Вид битрейта                             : Переменный
Битрейт                                  : 961 Кбит/сек
Каналы                                   : 2 канала
Частота                                  : 44,1 КГц
Битовая глубина                          : 16 бит
Размер потока                            : 42,2 Мбайт (99%)
Язык                                     : English
Дата пометки                             : UTC 2014-05-31 11:04:54

Общее
Полное имя                               : /Users/Denis/Library/Containers/net.mediaarea.mediainfo.mac/Data/Music/iTunes/iTunes Media/Music/Ария/Легенды русского рока (Выпуск 1) (Compilation)/08 Игра с огнём.m4a
Формат                                   : MPEG-4
Профиль формата                          : Apple audio with iTunes info
Идентификатор кодека                     : M4A
Размер файла                             : 65,6 Мбайт
Продолжительность                        : 9 м. 3 с.
Режим общего битрейта                    : Переменный
Общий поток                              : 1013 Кбит/сек
Альбом                                   : Легенды русского рока (Выпуск 1) (Compilation)
Альбом/Исполнитель                       : Ария
Трек                                     : Игра с огнём
Трек/Положение                           : 8
Трек/Всего                               : 13
Исполнитель                              : Ария
Жанр                                     : Heavy Metal
Дата записи                              : 1997
Дата пометки                             : UTC 2014-05-31 11:04:54
Программа кодирования                    : X Lossless Decoder 20140504, QuickTime 7.7.1
Обложка                                  : Yes
Примечание                               : ExactAudioCopy v0.99pb3
iTunes_CDDB_1                            : DB11580D+333215+13+160+27828+52876+73301+96434+119244+146019+173635+214364+238173+260969+295705+314108
iTunes_CDDB_TrackNumber                  : 8

Аудио
Идентификатор                            : 1
Формат                                   : ALAC
Идентификатор кодека                     : alac
Идентификатор кодека/Информация          : Apple Lossless Audio Codec
Продолжительность                        : 9 м. 3 с.
Duration_LastFrame                       : -15 мс.
Вид битрейта                             : Переменный
Битрейт                                  : 1006 Кбит/сек
Каналы                                   : 2 канала
Частота                                  : 44,1 КГц
Битовая глубина                          : 16 бит
Размер потока                            : 65,1 Мбайт (99%)
Язык                                     : English
Дата пометки                             : UTC 2014-05-31 11:04:54

Общее
Полное имя                               : /Users/Denis/Library/Containers/net.mediaarea.mediainfo.mac/Data/Music/iTunes/iTunes Media/Music/Ария/Легенды русского рока (Выпуск 1) (Compilation)/09 Прощай, Норфолк!.m4a
Формат                                   : MPEG-4
Профиль формата                          : Apple audio with iTunes info
Идентификатор кодека                     : M4A
Размер файла                             : 40,0 Мбайт
Продолжительность                        : 5 м. 17 с.
Режим общего битрейта                    : Переменный
Общий поток                              : 1057 Кбит/сек
Альбом                                   : Легенды русского рока (Выпуск 1) (Compilation)
Альбом/Исполнитель                       : Ария
Трек                                     : Прощай, Норфолк!
Трек/Положение                           : 9
Трек/Всего                               : 13
Исполнитель                              : Ария
Жанр                                     : Heavy Metal
Дата записи                              : 1997
Дата пометки                             : UTC 2014-05-31 11:04:54
Программа кодирования                    : X Lossless Decoder 20140504, QuickTime 7.7.1
Обложка                                  : Yes
Примечание                               : ExactAudioCopy v0.99pb3
iTunes_CDDB_1                            : DB11580D+333215+13+160+27828+52876+73301+96434+119244+146019+173635+214364+238173+260969+295705+314108
iTunes_CDDB_TrackNumber                  : 9

Аудио
Идентификатор                            : 1
Формат                                   : ALAC
Идентификатор кодека                     : alac
Идентификатор кодека/Информация          : Apple Lossless Audio Codec
Продолжительность                        : 5 м. 17 с.
Duration_LastFrame                       : -10 мс.
Вид битрейта                             : Переменный
Битрейт                                  : 1045 Кбит/сек
Каналы                                   : 2 канала
Частота                                  : 44,1 КГц
Битовая глубина                          : 16 бит
Размер потока                            : 39,6 Мбайт (99%)
Язык                                     : English
Дата пометки                             : UTC 2014-05-31 11:04:54

Общее
Полное имя                               : /Users/Denis/Library/Containers/net.mediaarea.mediainfo.mac/Data/Music/iTunes/iTunes Media/Music/Ария/Легенды русского рока (Выпуск 1) (Compilation)/10 Антихрист.m4a
Формат                                   : MPEG-4
Профиль формата                          : Apple audio with iTunes info
Идентификатор кодека                     : M4A
Размер файла                             : 35,9 Мбайт
Продолжительность                        : 5 м. 3 с.
Режим общего битрейта                    : Переменный
Общий поток                              : 990 Кбит/сек
Альбом                                   : Легенды русского рока (Выпуск 1) (Compilation)
Альбом/Исполнитель                       : Ария
Трек                                     : Антихрист
Трек/Положение                           : 10
Трек/Всего                               : 13
Исполнитель                              : Ария
Жанр                                     : Heavy Metal
Дата записи                              : 1997
Дата кодирования                         : UTC 1983-04-23 14:01:51
Дата пометки                             : UTC 2014-05-31 11:04:54
Программа кодирования                    : X Lossless Decoder 20140504, QuickTime 7.7.1
Обложка                                  : Yes
Примечание                               : ExactAudioCopy v0.99pb3
iTunes_CDDB_1                            : DB11580D+333215+13+160+27828+52876+73301+96434+119244+146019+173635+214364+238173+260969+295705+314108
iTunes_CDDB_TrackNumber                  : 10

Аудио
Идентификатор                            : 1
Формат                                   : ALAC
Идентификатор кодека                     : alac
Идентификатор кодека/Информация          : Apple Lossless Audio Codec
Продолжительность                        : 5 м. 3 с.
Duration_LastFrame                       : -49 мс.
Вид битрейта                             : Переменный
Битрейт                                  : 978 Кбит/сек
Каналы                                   : 2 канала
Частота                                  : 44,1 КГц
Битовая глубина                          : 16 бит
Размер потока                            : 35,4 Мбайт (99%)
Язык                                     : English
Дата кодирования                         : UTC 1983-04-23 14:01:51
Дата пометки                             : UTC 2014-05-31 11:04:54

Общее
Полное имя                               : /Users/Denis/Library/Containers/net.mediaarea.mediainfo.mac/Data/Music/iTunes/iTunes Media/Music/Ария/Легенды русского рока (Выпуск 1) (Compilation)/11 Кровь за кровь.m4a
Формат                                   : MPEG-4
Профиль формата                          : Apple audio with iTunes info
Идентификатор кодека                     : M4A
Размер файла                             : 55,3 Мбайт
Продолжительность                        : 7 м. 43 с.
Режим общего битрейта                    : Переменный
Общий поток                              : 1002 Кбит/сек
Альбом                                   : Легенды русского рока (Выпуск 1) (Compilation)
Альбом/Исполнитель                       : Ария
Трек                                     : Кровь за кровь
Трек/Положение                           : 11
Трек/Всего                               : 13
Исполнитель                              : Ария
Жанр                                     : Heavy Metal
Дата записи                              : 1997
Дата кодирования                         : UTC 1992-11-16 20:06:39
Дата пометки                             : UTC 2014-05-31 11:04:54
Программа кодирования                    : X Lossless Decoder 20140504, QuickTime 7.7.1
Обложка                                  : Yes
Примечание                               : ExactAudioCopy v0.99pb3
iTunes_CDDB_1                            : DB11580D+333215+13+160+27828+52876+73301+96434+119244+146019+173635+214364+238173+260969+295705+314108
iTunes_CDDB_TrackNumber                  : 11

Аудио
Идентификатор                            : 1
Формат                                   : ALAC
Идентификатор кодека                     : alac
Идентификатор кодека/Информация          : Apple Lossless Audio Codec
Продолжительность                        : 7 м. 43 с.
Duration_LastFrame                       : -45 мс.
Вид битрейта                             : Переменный
Битрейт                                  : 994 Кбит/сек
Каналы                                   : 2 канала
Частота                                  : 44,1 КГц
Битовая глубина                          : 16 бит
Размер потока                            : 54,9 Мбайт (99%)
Язык                                     : English
Дата кодирования                         : UTC 1992-11-16 20:06:39
Дата пометки                             : UTC 2014-05-31 11:04:54

Общее
Полное имя                               : /Users/Denis/Library/Containers/net.mediaarea.mediainfo.mac/Data/Music/iTunes/iTunes Media/Music/Ария/Легенды русского рока (Выпуск 1) (Compilation)/12 Возьми моё сердце.m4a
Формат                                   : MPEG-4
Профиль формата                          : Apple audio with iTunes info
Идентификатор кодека                     : M4A
Размер файла                             : 29,8 Мбайт
Продолжительность                        : 4 м. 5 с.
Режим общего битрейта                    : Переменный
Общий поток                              : 1018 Кбит/сек
Альбом                                   : Легенды русского рока (Выпуск 1) (Compilation)
Альбом/Исполнитель                       : Ария
Трек                                     : Возьми моё сердце
Трек/Положение                           : 12
Трек/Всего                               : 13
Исполнитель                              : Ария
Жанр                                     : Heavy Metal
Дата записи                              : 1997
Дата кодирования                         : UTC 2000-04-27 08:50:23
Дата пометки                             : UTC 2014-05-31 11:04:54
Программа кодирования                    : X Lossless Decoder 20140504, QuickTime 7.7.1
Обложка                                  : Yes
Примечание                               : ExactAudioCopy v0.99pb3
iTunes_CDDB_1                            : DB11580D+333215+13+160+27828+52876+73301+96434+119244+146019+173635+214364+238173+260969+295705+314108
iTunes_CDDB_TrackNumber                  : 12

Аудио
Идентификатор                            : 1
Формат                                   : ALAC
Идентификатор кодека                     : alac
Идентификатор кодека/Информация          : Apple Lossless Audio Codec
Продолжительность                        : 4 м. 5 с.
Duration_LastFrame                       : -15 мс.
Вид битрейта                             : Переменный
Битрейт                                  : 1004 Кбит/сек
Каналы                                   : 2 канала
Частота                                  : 44,1 КГц
Битовая глубина                          : 16 бит
Размер потока                            : 29,4 Мбайт (99%)
Язык                                     : English
Дата кодирования                         : UTC 2000-04-27 08:50:23
Дата пометки                             : UTC 2014-05-31 11:04:54

Общее
Полное имя                               : /Users/Denis/Library/Containers/net.mediaarea.mediainfo.mac/Data/Music/iTunes/iTunes Media/Music/Ария/Легенды русского рока (Выпуск 1) (Compilation)/13 Король дороги.m4a
Формат                                   : MPEG-4
Профиль формата                          : Apple audio with iTunes info
Идентификатор кодека                     : M4A
Размер файла                             : 32,5 Мбайт
Продолжительность                        : 4 м. 14 с.
Режим общего битрейта                    : Переменный
Общий поток                              : 1068 Кбит/сек
Альбом                                   : Легенды русского рока (Выпуск 1) (Compilation)
Альбом/Исполнитель                       : Ария
Трек                                     : Король дороги
Трек/Положение                           : 13
Трек/Всего                               : 13
Исполнитель                              : Ария
Жанр                                     : Heavy Metal
Дата записи                              : 1997
Дата кодирования                         : UTC 2013-01-29 16:56:47
Дата пометки                             : UTC 2014-05-31 11:04:54
Программа кодирования                    : X Lossless Decoder 20140504, QuickTime 7.7.1
Обложка                                  : Yes
Примечание                               : ExactAudioCopy v0.99pb3
iTunes_CDDB_1                            : DB11580D+333215+13+160+27828+52876+73301+96434+119244+146019+173635+214364+238173+260969+295705+314108
iTunes_CDDB_TrackNumber                  : 13

Аудио
Идентификатор                            : 1
Формат                                   : ALAC
Идентификатор кодека                     : alac
Идентификатор кодека/Информация          : Apple Lossless Audio Codec
Продолжительность                        : 4 м. 14 с.
Duration_LastFrame                       : -9 мс.
Вид битрейта                             : Переменный
Битрейт                                  : 1055 Кбит/сек
Каналы                                   : 2 канала
Частота                                  : 44,1 КГц
Битовая глубина                          : 16 бит
Размер потока                            : 32,0 Мбайт (99%)
Язык                                     : English
Дата кодирования                         : UTC 2013-01-29 16:56:47
Дата пометки                             : UTC 2014-05-31 11:04:54
Код:

-----------------------

DON'T MODIFY THIS FILE

-----------------------

PERFORMER: auCDtect Task Manager, ver. 1.6.0 RC1 build 1.6.0.1
Copyright (c) 2008-2010 y-soft. All rights reserved
http://y-soft.org

ANALYZER: auCDtect: CD records authenticity detector, version 0.8.2
Copyright (c) 2004 Oleg Berngardt. All rights reserved.
Copyright (c) 2004 Alexander Djourik. All rights reserved.

FILE: 13 Король дороги.m4a
  Size: 34026390 Hash: 9EDBF631F176494D770E9DB508101D82 Accuracy: -m8
  Conclusion: CDDA 100%
  Signature: B2A4DD8873CC597018DD156E782267D02743F464
FILE: 12 Возьми моё сердце.m4a
  Size: 31233797 Hash: 9AC219DD96F45971E0BA7FCA025F6E91 Accuracy: -m8
  Conclusion: CDDA 100%
  Signature: 4689494E5E059F5225458F1745A415C6E1F346A2
FILE: 11 Кровь за кровь.m4a
  Size: 58005204 Hash: 1F67ACB6CF4AE167778D0BDEBAE8D6E6 Accuracy: -m8
  Conclusion: CDDA 100%
  Signature: 9F714D2D5FA8856703BD9DE29B57996F6E078390
FILE: 10 Антихрист.m4a
  Size: 37603653 Hash: 4BA497A3CB33B6D8D25676FF9F689842 Accuracy: -m8
  Conclusion: CDDA 100%
  Signature: AF5C5F6EBE23444E31FC1ED08935245526C3C0C3
FILE: 09 Прощай, Норфолк!.m4a
  Size: 41939673 Hash: DBAB013CA2D1CE45E0D9B15907515C20 Accuracy: -m8
  Conclusion: CDDA 100%
  Signature: 976C93A19EB28BE8A154A6F721B88A3AD4F77442
FILE: 08 Игра с огнём.m4a
  Size: 68746077 Hash: 5C0ABAB8A677A8389F1D9A1ED9BE9580 Accuracy: -m8
  Conclusion: CDDA 100%
  Signature: B18D1E248514C6E10919FBB90E2CD91784403147
FILE: 07 Бой продолжается.m4a
  Size: 44676986 Hash: 9D2523CBDC85C85537D3655D06849468 Accuracy: -m8
  Conclusion: CDDA 100%
  Signature: E3A948C33075EBE4A38648DF533AE5E43EDE3B60
FILE: 06 Улица роз.m4a
  Size: 46370789 Hash: 7147D06CDBE3ABEA3B0854D366904028 Accuracy: -m8
  Conclusion: CDDA 100%
  Signature: E321B88341978F821BFB7A2F0D5397512025B56B
FILE: 05 Герой асфальта.m4a
  Size: 36873522 Hash: 0480F6BAB4E5DF5EBF0EE26B39EDECB5 Accuracy: -m8
  Conclusion: CDDA 100%
  Signature: 070F4232CAAFDFD2A33AA5602643F715344F1E5A
FILE: 04 Дай руку мне.m4a
  Size: 40515592 Hash: 2C4838D6D4EFAF1DE6E5E18E1E0CB590 Accuracy: -m8
  Conclusion: CDDA 100%
  Signature: C1F8FCE42F55B7B204B94E09BAD603A4E63BC42A
FILE: 03 Воля и разум.m4a
  Size: 36620066 Hash: 9D169700123821FB52D42FBD72B5A66D Accuracy: -m8
  Conclusion: CDDA 100%
  Signature: 168F43B70D670AF6A5DEC55C104D76576830DBF1
FILE: 02 Тореро.m4a
  Size: 39562925 Hash: 84DC2628609237285EB6F54C0DFD85DC Accuracy: -m8
  Conclusion: CDDA 100%
  Signature: A3B0D8AB43C45215592EB898F985703E06E39623
FILE: 01 Волонтёр.m4a
  Size: 42950865 Hash: 5BFA5E8DD73922DDE38BCB7E8FAD5085 Accuracy: -m8
  Conclusion: CDDA 100%
  Signature: 7E17E9DBE105D318DD4F801BA94D12CC072A55D5
Все альбомы (номерные, концертные, синглы трибьюты и сборники) группы АРИЯ в ALAC

Время раздачи: с 20:00 до 03:00 постоянно / часто 24/7
[NNM-Club.me]_Ariya (1997) Legendyi russkogo roka 1.torrent
 Торрент: Платиновая раздача  Зарегистрирован
 
Скачать


Примагнититься
 Зарегистрирован:   01 Июн 2014 14:17:44
 Размер:   533 MB  (
 Рейтинг:   4.2 (Голосов: 37)
 Поблагодарили:   75
 Проверка:   Оформление проверено модератором 01 Июн 2014 17:20:38
Как cкачать  ·  Как раздать  ·  Правильно оформить  ·  Поднять ратио!  
al982
Стаж: 10 лет 9 мес.
Сообщений: 18
Ratio: 2.029
4.17%
Спасибо за раздачу. Вот кто-нибудь только стал бы раздать ? )
Показать сообщения:   
Начать новую тему   Ответить на тему    Торрент-трекер NNM-Club -> Аудио и Видео -> Музыка Lossless (ALAC) Часовой пояс: GMT + 3
Страница 1 из 1