Классический форум-трекер
canvas not supported
Нас вместе: 4 166 484

Ария - Лучшие песни (Compilation) (1999) [ALAC|Tracks]<Heavy Metal>


 
 
RSS
Начать новую тему   Ответить на тему    Торрент-трекер NNM-Club -> Аудио и Видео -> Музыка Lossless (ALAC)
Автор Сообщение
Cecidit ®
Стаж: 7 лет 8 мес.
Сообщений: 129
Ratio: 39.772
Поблагодарили: 8806
100%
Откуда: Москва, МО Щелково
russia.gif
Ария - Лучшие песни (Compilation) (1999)
Год: 1999
Жанр: Heavy Metal
Продолжительность: 01:56:37

Кодек: ALAC
Битрейт: Lossless
Тип раздачи: Tracks
Обложки: Вшиты
Кодирование: XLD + QuickTime + iTunes

Очередной из официальных сборников группы на 2 CD для коллекции.
Ремастеринг 1999 года - Андрей Субботин, студия Saturday Mastering
Продюсер - Владимир Холстинин
Художник - Василий Гаврилов
Дизайн - Павел Семенов

1999 АРИЯ
Published - 1999 Moroz Recodrs

Треклист:
Прoдoлжительность: 00:59:14
Треклист:

01. Что Вы Сделали С Вашей Мечтой?
02. Герой Асфальта
03. Раскачаем Этот Мир
04. Воля И Разум
05. Бивни Чёрных Скал
06. Улица Роз
07. Баллада О Древнерусском Воине
08. Это Рок
09. Встань, Страх Преодолей
10. Игра С Огнём
Продoлжительность: 00:57:22
Трeклист:

01. Прощай, Норфолк!
02. Грязь
03. Возьми Моё Сердце
04. Отшельник
05. Кровь За Кровь
06. Дух Войны
07. Ангельская Пыль
08. Дезертир
09. Обман
10. Ночь Короче Дня
Код:

Общее
Полное имя                               : /Users/Denis/Library/Containers/net.mediaarea.mediainfo.mac/Data/Music/iTunes/iTunes Media/Music/Ария/Лучшие песни (Compilation)/1-01 Что вы сделали с вашей мечтой.m4a
Формат                                   : MPEG-4
Профиль формата                          : Apple audio with iTunes info
Идентификатор кодека                     : M4A
Размер файла                             : 37,3 Мбайт
Продолжительность                        : 5 м. 19 с.
Режим общего битрейта                    : Переменный
Общий поток                              : 980 Кбит/сек
Альбом                                   : Лучшие песни (Compilation)
Альбом/Исполнитель                       : Ария
Часть/Положение                          : 1
Часть/Всего                              : 2
Трек                                     : Что вы сделали с вашей мечтой
Трек/Положение                           : 1
Трек/Всего                               : 10
Исполнитель                              : Ария
Жанр                                     : Heavy Metal
Дата записи                              : 1999
Дата пометки                             : UTC 2014-05-31 16:35:32
Программа кодирования                    : X Lossless Decoder 20140504, QuickTime 7.7.1
Обложка                                  : Yes
Примечание                               : ExactAudioCopy v0.99pb3
iTunes_CDDB_1                            : 7E0DE20A+266767+10+160+24127+46526+73337+93903+115640+142296+180641+207163+226220
iTunes_CDDB_TrackNumber                  : 1

Аудио
Идентификатор                            : 1
Формат                                   : ALAC
Идентификатор кодека                     : alac
Идентификатор кодека/Информация          : Apple Lossless Audio Codec
Продолжительность                        : 5 м. 19 с.
Duration_LastFrame                       : -39 мс.
Вид битрейта                             : Переменный
Битрейт                                  : 967 Кбит/сек
Каналы                                   : 2 канала
Частота                                  : 44,1 КГц
Битовая глубина                          : 16 бит
Размер потока                            : 36,8 Мбайт (99%)
Язык                                     : English
Дата пометки                             : UTC 2014-05-31 16:35:32

Общее
Полное имя                               : /Users/Denis/Library/Containers/net.mediaarea.mediainfo.mac/Data/Music/iTunes/iTunes Media/Music/Ария/Лучшие песни (Compilation)/1-02 Герой асфальта.m4a
Формат                                   : MPEG-4
Профиль формата                          : Apple audio with iTunes info
Идентификатор кодека                     : M4A
Размер файла                             : 35,2 Мбайт
Продолжительность                        : 4 м. 58 с.
Режим общего битрейта                    : Переменный
Общий поток                              : 988 Кбит/сек
Альбом                                   : Лучшие песни (Compilation)
Альбом/Исполнитель                       : Ария
Часть/Положение                          : 1
Часть/Всего                              : 2
Трек                                     : Герой асфальта
Трек/Положение                           : 2
Трек/Всего                               : 10
Исполнитель                              : Ария
Жанр                                     : Heavy Metal
Дата записи                              : 1999
Дата пометки                             : UTC 2014-05-31 16:35:35
Программа кодирования                    : X Lossless Decoder 20140504, QuickTime 7.7.1
Обложка                                  : Yes
Примечание                               : ExactAudioCopy v0.99pb3
iTunes_CDDB_1                            : 7E0DE20A+266767+10+160+24127+46526+73337+93903+115640+142296+180641+207163+226220
iTunes_CDDB_TrackNumber                  : 2

Аудио
Идентификатор                            : 1
Формат                                   : ALAC
Идентификатор кодека                     : alac
Идентификатор кодека/Информация          : Apple Lossless Audio Codec
Продолжительность                        : 4 м. 58 с.
Duration_LastFrame                       : -48 мс.
Вид битрейта                             : Переменный
Битрейт                                  : 974 Кбит/сек
Каналы                                   : 2 канала
Частота                                  : 44,1 КГц
Битовая глубина                          : 16 бит
Размер потока                            : 34,7 Мбайт (99%)
Язык                                     : English
Дата пометки                             : UTC 2014-05-31 16:35:35

Общее
Полное имя                               : /Users/Denis/Library/Containers/net.mediaarea.mediainfo.mac/Data/Music/iTunes/iTunes Media/Music/Ария/Лучшие песни (Compilation)/1-03 Раскачаем этот мир.m4a
Формат                                   : MPEG-4
Профиль формата                          : Apple audio with iTunes info
Идентификатор кодека                     : M4A
Размер файла                             : 43,8 Мбайт
Продолжительность                        : 5 м. 57 с.
Режим общего битрейта                    : Переменный
Общий поток                              : 1027 Кбит/сек
Альбом                                   : Лучшие песни (Compilation)
Альбом/Исполнитель                       : Ария
Часть/Положение                          : 1
Часть/Всего                              : 2
Трек                                     : Раскачаем этот мир
Трек/Положение                           : 3
Трек/Всего                               : 10
Исполнитель                              : Ария
Жанр                                     : Heavy Metal
Дата записи                              : 1999
Дата пометки                             : UTC 2014-05-31 16:35:38
Программа кодирования                    : X Lossless Decoder 20140504, QuickTime 7.7.1
Обложка                                  : Yes
Примечание                               : ExactAudioCopy v0.99pb3
iTunes_CDDB_1                            : 7E0DE20A+266767+10+160+24127+46526+73337+93903+115640+142296+180641+207163+226220
iTunes_CDDB_TrackNumber                  : 3

Аудио
Идентификатор                            : 1
Формат                                   : ALAC
Идентификатор кодека                     : alac
Идентификатор кодека/Информация          : Apple Lossless Audio Codec
Продолжительность                        : 5 м. 57 с.
Duration_LastFrame                       : -14 мс.
Вид битрейта                             : Переменный
Битрейт                                  : 1016 Кбит/сек
Каналы                                   : 2 канала
Частота                                  : 44,1 КГц
Битовая глубина                          : 16 бит
Размер потока                            : 43,3 Мбайт (99%)
Язык                                     : English
Дата пометки                             : UTC 2014-05-31 16:35:38

Общее
Полное имя                               : /Users/Denis/Library/Containers/net.mediaarea.mediainfo.mac/Data/Music/iTunes/iTunes Media/Music/Ария/Лучшие песни (Compilation)/1-04 Воля и разум.m4a
Формат                                   : MPEG-4
Профиль формата                          : Apple audio with iTunes info
Идентификатор кодека                     : M4A
Размер файла                             : 34,4 Мбайт
Продолжительность                        : 4 м. 34 с.
Режим общего битрейта                    : Переменный
Общий поток                              : 1051 Кбит/сек
Альбом                                   : Лучшие песни (Compilation)
Альбом/Исполнитель                       : Ария
Часть/Положение                          : 1
Часть/Всего                              : 2
Трек                                     : Воля и разум
Трек/Положение                           : 4
Трек/Всего                               : 10
Исполнитель                              : Ария
Жанр                                     : Heavy Metal
Дата записи                              : 1999
Дата пометки                             : UTC 2014-05-31 16:35:41
Программа кодирования                    : X Lossless Decoder 20140504, QuickTime 7.7.1
Обложка                                  : Yes
Примечание                               : ExactAudioCopy v0.99pb3
iTunes_CDDB_1                            : 7E0DE20A+266767+10+160+24127+46526+73337+93903+115640+142296+180641+207163+226220
iTunes_CDDB_TrackNumber                  : 4

Аудио
Идентификатор                            : 1
Формат                                   : ALAC
Идентификатор кодека                     : alac
Идентификатор кодека/Информация          : Apple Lossless Audio Codec
Продолжительность                        : 4 м. 34 с.
Duration_LastFrame                       : -61 мс.
Вид битрейта                             : Переменный
Битрейт                                  : 1037 Кбит/сек
Каналы                                   : 2 канала
Частота                                  : 44,1 КГц
Битовая глубина                          : 16 бит
Размер потока                            : 33,9 Мбайт (99%)
Язык                                     : English
Дата пометки                             : UTC 2014-05-31 16:35:41

Общее
Полное имя                               : /Users/Denis/Library/Containers/net.mediaarea.mediainfo.mac/Data/Music/iTunes/iTunes Media/Music/Ария/Лучшие песни (Compilation)/1-05 Бивни чёрных скал.m4a
Формат                                   : MPEG-4
Профиль формата                          : Apple audio with iTunes info
Идентификатор кодека                     : M4A
Размер файла                             : 34,1 Мбайт
Продолжительность                        : 4 м. 49 с.
Режим общего битрейта                    : Переменный
Общий поток                              : 987 Кбит/сек
Альбом                                   : Лучшие песни (Compilation)
Альбом/Исполнитель                       : Ария
Часть/Положение                          : 1
Часть/Всего                              : 2
Трек                                     : Бивни чёрных скал
Трек/Положение                           : 5
Трек/Всего                               : 10
Исполнитель                              : Ария
Жанр                                     : Heavy Metal
Дата записи                              : 1999
Дата пометки                             : UTC 2014-05-31 16:35:43
Программа кодирования                    : X Lossless Decoder 20140504, QuickTime 7.7.1
Обложка                                  : Yes
Примечание                               : ExactAudioCopy v0.99pb3
iTunes_CDDB_1                            : 7E0DE20A+266767+10+160+24127+46526+73337+93903+115640+142296+180641+207163+226220
iTunes_CDDB_TrackNumber                  : 5

Аудио
Идентификатор                            : 1
Формат                                   : ALAC
Идентификатор кодека                     : alac
Идентификатор кодека/Информация          : Apple Lossless Audio Codec
Продолжительность                        : 4 м. 49 с.
Duration_LastFrame                       : -51 мс.
Вид битрейта                             : Переменный
Битрейт                                  : 973 Кбит/сек
Каналы                                   : 2 канала
Частота                                  : 44,1 КГц
Битовая глубина                          : 16 бит
Размер потока                            : 33,6 Мбайт (99%)
Язык                                     : English
Дата пометки                             : UTC 2014-05-31 16:35:43

Общее
Полное имя                               : /Users/Denis/Library/Containers/net.mediaarea.mediainfo.mac/Data/Music/iTunes/iTunes Media/Music/Ария/Лучшие песни (Compilation)/1-06 Улица роз.m4a
Формат                                   : MPEG-4
Профиль формата                          : Apple audio with iTunes info
Идентификатор кодека                     : M4A
Размер файла                             : 44,4 Мбайт
Продолжительность                        : 5 м. 55 с.
Режим общего битрейта                    : Переменный
Общий поток                              : 1047 Кбит/сек
Альбом                                   : Лучшие песни (Compilation)
Альбом/Исполнитель                       : Ария
Часть/Положение                          : 1
Часть/Всего                              : 2
Трек                                     : Улица роз
Трек/Положение                           : 6
Трек/Всего                               : 10
Исполнитель                              : Ария
Жанр                                     : Heavy Metal
Дата записи                              : 1999
Дата пометки                             : UTC 2014-05-31 16:35:46
Программа кодирования                    : X Lossless Decoder 20140504, QuickTime 7.7.1
Обложка                                  : Yes
Примечание                               : ExactAudioCopy v0.99pb3
iTunes_CDDB_1                            : 7E0DE20A+266767+10+160+24127+46526+73337+93903+115640+142296+180641+207163+226220
iTunes_CDDB_TrackNumber                  : 6

Аудио
Идентификатор                            : 1
Формат                                   : ALAC
Идентификатор кодека                     : alac
Идентификатор кодека/Информация          : Apple Lossless Audio Codec
Продолжительность                        : 5 м. 55 с.
Duration_LastFrame                       : -38 мс.
Вид битрейта                             : Переменный
Битрейт                                  : 1035 Кбит/сек
Каналы                                   : 2 канала
Частота                                  : 44,1 КГц
Битовая глубина                          : 16 бит
Размер потока                            : 43,9 Мбайт (99%)
Язык                                     : English
Дата пометки                             : UTC 2014-05-31 16:35:46

Общее
Полное имя                               : /Users/Denis/Library/Containers/net.mediaarea.mediainfo.mac/Data/Music/iTunes/iTunes Media/Music/Ария/Лучшие песни (Compilation)/1-07 Баллада о древнерусском воине.m4a
Формат                                   : MPEG-4
Профиль формата                          : Apple audio with iTunes info
Идентификатор кодека                     : M4A
Размер файла                             : 61,6 Мбайт
Продолжительность                        : 8 м. 31 с.
Режим общего битрейта                    : Переменный
Общий поток                              : 1011 Кбит/сек
Альбом                                   : Лучшие песни (Compilation)
Альбом/Исполнитель                       : Ария
Часть/Положение                          : 1
Часть/Всего                              : 2
Трек                                     : Баллада о древнерусском воине
Трек/Положение                           : 7
Трек/Всего                               : 10
Исполнитель                              : Ария
Жанр                                     : Heavy Metal
Дата записи                              : 1999
Дата кодирования                         : UTC 1983-06-20 05:34:07
Дата пометки                             : UTC 2014-05-31 16:35:49
Программа кодирования                    : X Lossless Decoder 20140504, QuickTime 7.7.1
Обложка                                  : Yes
Примечание                               : ExactAudioCopy v0.99pb3
iTunes_CDDB_1                            : 7E0DE20A+266767+10+160+24127+46526+73337+93903+115640+142296+180641+207163+226220
iTunes_CDDB_TrackNumber                  : 7

Аудио
Идентификатор                            : 1
Формат                                   : ALAC
Идентификатор кодека                     : alac
Идентификатор кодека/Информация          : Apple Lossless Audio Codec
Продолжительность                        : 8 м. 31 с.
Duration_LastFrame                       : -37 мс.
Вид битрейта                             : Переменный
Битрейт                                  : 1003 Кбит/сек
Каналы                                   : 2 канала
Частота                                  : 44,1 КГц
Битовая глубина                          : 16 бит
Размер потока                            : 61,1 Мбайт (99%)
Язык                                     : English
Дата кодирования                         : UTC 1983-06-20 05:34:07
Дата пометки                             : UTC 2014-05-31 16:35:49

Общее
Полное имя                               : /Users/Denis/Library/Containers/net.mediaarea.mediainfo.mac/Data/Music/iTunes/iTunes Media/Music/Ария/Лучшие песни (Compilation)/1-08 Это рок.m4a
Формат                                   : MPEG-4
Профиль формата                          : Apple audio with iTunes info
Идентификатор кодека                     : M4A
Размер файла                             : 43,3 Мбайт
Продолжительность                        : 5 м. 53 с.
Режим общего битрейта                    : Переменный
Общий поток                              : 1026 Кбит/сек
Альбом                                   : Лучшие песни (Compilation)
Альбом/Исполнитель                       : Ария
Часть/Положение                          : 1
Часть/Всего                              : 2
Трек                                     : Это рок
Трек/Положение                           : 8
Трек/Всего                               : 10
Исполнитель                              : Ария
Жанр                                     : Heavy Metal
Дата записи                              : 1999
Дата кодирования                         : UTC 1982-05-27 20:53:35
Дата пометки                             : UTC 2014-05-31 16:35:54
Программа кодирования                    : X Lossless Decoder 20140504, QuickTime 7.7.1
Обложка                                  : Yes
Примечание                               : ExactAudioCopy v0.99pb3
iTunes_CDDB_1                            : 7E0DE20A+266767+10+160+24127+46526+73337+93903+115640+142296+180641+207163+226220
iTunes_CDDB_TrackNumber                  : 8

Аудио
Идентификатор                            : 1
Формат                                   : ALAC
Идентификатор кодека                     : alac
Идентификатор кодека/Информация          : Apple Lossless Audio Codec
Продолжительность                        : 5 м. 53 с.
Duration_LastFrame                       : -60 мс.
Вид битрейта                             : Переменный
Битрейт                                  : 1014 Кбит/сек
Каналы                                   : 2 канала
Частота                                  : 44,1 КГц
Битовая глубина                          : 16 бит
Размер потока                            : 42,8 Мбайт (99%)
Язык                                     : English
Дата кодирования                         : UTC 1982-05-27 20:53:35
Дата пометки                             : UTC 2014-05-31 16:35:54

Общее
Полное имя                               : /Users/Denis/Library/Containers/net.mediaarea.mediainfo.mac/Data/Music/iTunes/iTunes Media/Music/Ария/Лучшие песни (Compilation)/1-09 Встань, страх преодолей.m4a
Формат                                   : MPEG-4
Профиль формата                          : Apple audio with iTunes info
Идентификатор кодека                     : M4A
Размер файла                             : 31,8 Мбайт
Продолжительность                        : 4 м. 14 с.
Режим общего битрейта                    : Переменный
Общий поток                              : 1050 Кбит/сек
Альбом                                   : Лучшие песни (Compilation)
Альбом/Исполнитель                       : Ария
Часть/Положение                          : 1
Часть/Всего                              : 2
Трек                                     : Встань, страх преодолей
Трек/Положение                           : 9
Трек/Всего                               : 10
Исполнитель                              : Ария
Жанр                                     : Heavy Metal
Дата записи                              : 1999
Дата кодирования                         : UTC 1992-07-03 07:18:39
Дата пометки                             : UTC 2014-05-31 16:35:57
Программа кодирования                    : X Lossless Decoder 20140504, QuickTime 7.7.1
Обложка                                  : Yes
Примечание                               : ExactAudioCopy v0.99pb3
iTunes_CDDB_1                            : 7E0DE20A+266767+10+160+24127+46526+73337+93903+115640+142296+180641+207163+226220
iTunes_CDDB_TrackNumber                  : 9

Аудио
Идентификатор                            : 1
Формат                                   : ALAC
Идентификатор кодека                     : alac
Идентификатор кодека/Информация          : Apple Lossless Audio Codec
Продолжительность                        : 4 м. 14 с.
Duration_LastFrame                       : -26 мс.
Вид битрейта                             : Переменный
Битрейт                                  : 1034 Кбит/сек
Каналы                                   : 2 канала
Частота                                  : 44,1 КГц
Битовая глубина                          : 16 бит
Размер потока                            : 31,3 Мбайт (99%)
Язык                                     : English
Дата кодирования                         : UTC 1992-07-03 07:18:39
Дата пометки                             : UTC 2014-05-31 16:35:57

Общее
Полное имя                               : /Users/Denis/Library/Containers/net.mediaarea.mediainfo.mac/Data/Music/iTunes/iTunes Media/Music/Ария/Лучшие песни (Compilation)/1-10 Игра с огнём.m4a
Формат                                   : MPEG-4
Профиль формата                          : Apple audio with iTunes info
Идентификатор кодека                     : M4A
Размер файла                             : 66,1 Мбайт
Продолжительность                        : 9 м. 0 с.
Режим общего битрейта                    : Переменный
Общий поток                              : 1026 Кбит/сек
Альбом                                   : Лучшие песни (Compilation)
Альбом/Исполнитель                       : Ария
Часть/Положение                          : 1
Часть/Всего                              : 2
Трек                                     : Игра с огнём
Трек/Положение                           : 10
Трек/Всего                               : 10
Исполнитель                              : Ария
Жанр                                     : Heavy Metal
Дата записи                              : 1999
Дата кодирования                         : UTC 2001-01-04 04:42:55
Дата пометки                             : UTC 2014-05-31 16:36:00
Программа кодирования                    : X Lossless Decoder 20140504, QuickTime 7.7.1
Обложка                                  : Yes
Примечание                               : ExactAudioCopy v0.99pb3
iTunes_CDDB_1                            : 7E0DE20A+266767+10+160+24127+46526+73337+93903+115640+142296+180641+207163+226220
iTunes_CDDB_TrackNumber                  : 10

Аудио
Идентификатор                            : 1
Формат                                   : ALAC
Идентификатор кодека                     : alac
Идентификатор кодека/Информация          : Apple Lossless Audio Codec
Продолжительность                        : 9 м. 0 с.
Duration_LastFrame                       : -27 мс.
Вид битрейта                             : Переменный
Битрейт                                  : 1018 Кбит/сек
Каналы                                   : 2 канала
Частота                                  : 44,1 КГц
Битовая глубина                          : 16 бит
Размер потока                            : 65,6 Мбайт (99%)
Язык                                     : English
Дата кодирования                         : UTC 2001-01-04 04:42:55
Дата пометки                             : UTC 2014-05-31 16:36:00

Общее
Полное имя                               : /Users/Denis/Library/Containers/net.mediaarea.mediainfo.mac/Data/Music/iTunes/iTunes Media/Music/Ария/Лучшие песни (Compilation)/2-01 Прощай, Норфолк!.m4a
Формат                                   : MPEG-4
Профиль формата                          : Apple audio with iTunes info
Идентификатор кодека                     : M4A
Размер файла                             : 39,9 Мбайт
Продолжительность                        : 5 м. 17 с.
Режим общего битрейта                    : Переменный
Общий поток                              : 1053 Кбит/сек
Альбом                                   : Лучшие песни (Compilation)
Альбом/Исполнитель                       : Ария
Часть/Положение                          : 2
Часть/Всего                              : 2
Трек                                     : Прощай, Норфолк!
Трек/Положение                           : 1
Трек/Всего                               : 10
Исполнитель                              : Ария
Жанр                                     : Heavy Metal
Дата записи                              : 1999
Дата пометки                             : UTC 2014-05-31 16:36:05
Программа кодирования                    : X Lossless Decoder 20140504, QuickTime 7.7.1
Обложка                                  : Yes
Примечание                               : ExactAudioCopy v0.99pb3
iTunes_CDDB_1                            : 750D720A+258353+10+160+24005+45236+63642+88889+123492+145741+172772+201983+225764
iTunes_CDDB_TrackNumber                  : 1

Аудио
Идентификатор                            : 1
Формат                                   : ALAC
Идентификатор кодека                     : alac
Идентификатор кодека/Информация          : Apple Lossless Audio Codec
Продолжительность                        : 5 м. 17 с.
Duration_LastFrame                       : -87 мс.
Вид битрейта                             : Переменный
Битрейт                                  : 1040 Кбит/сек
Каналы                                   : 2 канала
Частота                                  : 44,1 КГц
Битовая глубина                          : 16 бит
Размер потока                            : 39,4 Мбайт (99%)
Язык                                     : English
Дата пометки                             : UTC 2014-05-31 16:36:05

Общее
Полное имя                               : /Users/Denis/Library/Containers/net.mediaarea.mediainfo.mac/Data/Music/iTunes/iTunes Media/Music/Ария/Лучшие песни (Compilation)/2-02 Грязь.m4a
Формат                                   : MPEG-4
Профиль формата                          : Apple audio with iTunes info
Идентификатор кодека                     : M4A
Размер файла                             : 35,5 Мбайт
Продолжительность                        : 4 м. 43 с.
Режим общего битрейта                    : Переменный
Общий поток                              : 1053 Кбит/сек
Альбом                                   : Лучшие песни (Compilation)
Альбом/Исполнитель                       : Ария
Часть/Положение                          : 2
Часть/Всего                              : 2
Трек                                     : Грязь
Трек/Положение                           : 2
Трек/Всего                               : 10
Исполнитель                              : Ария
Жанр                                     : Heavy Metal
Дата записи                              : 1999
Дата пометки                             : UTC 2014-05-31 16:36:09
Программа кодирования                    : X Lossless Decoder 20140504, QuickTime 7.7.1
Обложка                                  : Yes
Примечание                               : ExactAudioCopy v0.99pb3
iTunes_CDDB_1                            : 750D720A+258353+10+160+24005+45236+63642+88889+123492+145741+172772+201983+225764
iTunes_CDDB_TrackNumber                  : 2

Аудио
Идентификатор                            : 1
Формат                                   : ALAC
Идентификатор кодека                     : alac
Идентификатор кодека/Информация          : Apple Lossless Audio Codec
Продолжительность                        : 4 м. 43 с.
Duration_LastFrame                       : -18 мс.
Вид битрейта                             : Переменный
Битрейт                                  : 1038 Кбит/сек
Каналы                                   : 2 канала
Частота                                  : 44,1 КГц
Битовая глубина                          : 16 бит
Размер потока                            : 35,0 Мбайт (99%)
Язык                                     : English
Дата пометки                             : UTC 2014-05-31 16:36:09

Общее
Полное имя                               : /Users/Denis/Library/Containers/net.mediaarea.mediainfo.mac/Data/Music/iTunes/iTunes Media/Music/Ария/Лучшие песни (Compilation)/2-03 Возьми моё сердце.m4a
Формат                                   : MPEG-4
Профиль формата                          : Apple audio with iTunes info
Идентификатор кодека                     : M4A
Размер файла                             : 29,7 Мбайт
Продолжительность                        : 4 м. 5 с.
Режим общего битрейта                    : Переменный
Общий поток                              : 1014 Кбит/сек
Альбом                                   : Лучшие песни (Compilation)
Альбом/Исполнитель                       : Ария
Часть/Положение                          : 2
Часть/Всего                              : 2
Трек                                     : Возьми моё сердце
Трек/Положение                           : 3
Трек/Всего                               : 10
Исполнитель                              : Ария
Жанр                                     : Heavy Metal
Дата записи                              : 1999
Дата пометки                             : UTC 2014-05-31 16:36:12
Программа кодирования                    : X Lossless Decoder 20140504, QuickTime 7.7.1
Обложка                                  : Yes
Примечание                               : ExactAudioCopy v0.99pb3
iTunes_CDDB_1                            : 750D720A+258353+10+160+24005+45236+63642+88889+123492+145741+172772+201983+225764
iTunes_CDDB_TrackNumber                  : 3

Аудио
Идентификатор                            : 1
Формат                                   : ALAC
Идентификатор кодека                     : alac
Идентификатор кодека/Информация          : Apple Lossless Audio Codec
Продолжительность                        : 4 м. 5 с.
Duration_LastFrame                       : -68 мс.
Вид битрейта                             : Переменный
Битрейт                                  : 998 Кбит/сек
Каналы                                   : 2 канала
Частота                                  : 44,1 КГц
Битовая глубина                          : 16 бит
Размер потока                            : 29,2 Мбайт (98%)
Язык                                     : English
Дата пометки                             : UTC 2014-05-31 16:36:12

Общее
Полное имя                               : /Users/Denis/Library/Containers/net.mediaarea.mediainfo.mac/Data/Music/iTunes/iTunes Media/Music/Ария/Лучшие песни (Compilation)/2-04 Отшельник.m4a
Формат                                   : MPEG-4
Профиль формата                          : Apple audio with iTunes info
Идентификатор кодека                     : M4A
Размер файла                             : 41,8 Мбайт
Продолжительность                        : 5 м. 36 с.
Режим общего битрейта                    : Переменный
Общий поток                              : 1042 Кбит/сек
Альбом                                   : Лучшие песни (Compilation)
Альбом/Исполнитель                       : Ария
Часть/Положение                          : 2
Часть/Всего                              : 2
Трек                                     : Отшельник
Трек/Положение                           : 4
Трек/Всего                               : 10
Исполнитель                              : Ария
Жанр                                     : Heavy Metal
Дата записи                              : 1999
Дата пометки                             : UTC 2014-05-31 16:36:16
Программа кодирования                    : X Lossless Decoder 20140504, QuickTime 7.7.1
Обложка                                  : Yes
Примечание                               : ExactAudioCopy v0.99pb3
iTunes_CDDB_1                            : 750D720A+258353+10+160+24005+45236+63642+88889+123492+145741+172772+201983+225764
iTunes_CDDB_TrackNumber                  : 4

Аудио
Идентификатор                            : 1
Формат                                   : ALAC
Идентификатор кодека                     : alac
Идентификатор кодека/Информация          : Apple Lossless Audio Codec
Продолжительность                        : 5 м. 36 с.
Duration_LastFrame                       : -63 мс.
Вид битрейта                             : Переменный
Битрейт                                  : 1029 Кбит/сек
Каналы                                   : 2 канала
Частота                                  : 44,1 КГц
Битовая глубина                          : 16 бит
Размер потока                            : 41,3 Мбайт (99%)
Язык                                     : English
Дата пометки                             : UTC 2014-05-31 16:36:16

Общее
Полное имя                               : /Users/Denis/Library/Containers/net.mediaarea.mediainfo.mac/Data/Music/iTunes/iTunes Media/Music/Ария/Лучшие песни (Compilation)/2-05 Кровь за кровь.m4a
Формат                                   : MPEG-4
Профиль формата                          : Apple audio with iTunes info
Идентификатор кодека                     : M4A
Размер файла                             : 55,3 Мбайт
Продолжительность                        : 7 м. 41 с.
Режим общего битрейта                    : Переменный
Общий поток                              : 1006 Кбит/сек
Альбом                                   : Лучшие песни (Compilation)
Альбом/Исполнитель                       : Ария
Часть/Положение                          : 2
Часть/Всего                              : 2
Трек                                     : Кровь за кровь
Трек/Положение                           : 5
Трек/Всего                               : 10
Исполнитель                              : Ария
Жанр                                     : Heavy Metal
Дата записи                              : 1999
Дата кодирования                         : UTC 1973-05-14 13:21:19
Дата пометки                             : UTC 2014-05-31 16:36:19
Программа кодирования                    : X Lossless Decoder 20140504, QuickTime 7.7.1
Обложка                                  : Yes
Примечание                               : ExactAudioCopy v0.99pb3
iTunes_CDDB_1                            : 750D720A+258353+10+160+24005+45236+63642+88889+123492+145741+172772+201983+225764
iTunes_CDDB_TrackNumber                  : 5

Аудио
Идентификатор                            : 1
Формат                                   : ALAC
Идентификатор кодека                     : alac
Идентификатор кодека/Информация          : Apple Lossless Audio Codec
Продолжительность                        : 7 м. 41 с.
Duration_LastFrame                       : -54 мс.
Вид битрейта                             : Переменный
Битрейт                                  : 997 Кбит/сек
Каналы                                   : 2 канала
Частота                                  : 44,1 КГц
Битовая глубина                          : 16 бит
Размер потока                            : 54,8 Мбайт (99%)
Язык                                     : English
Дата кодирования                         : UTC 1973-05-14 13:21:19
Дата пометки                             : UTC 2014-05-31 16:36:19

Общее
Полное имя                               : /Users/Denis/Library/Containers/net.mediaarea.mediainfo.mac/Data/Music/iTunes/iTunes Media/Music/Ария/Лучшие песни (Compilation)/2-06 Дух войны.m4a
Формат                                   : MPEG-4
Профиль формата                          : Apple audio with iTunes info
Идентификатор кодека                     : M4A
Размер файла                             : 37,9 Мбайт
Продолжительность                        : 4 м. 56 с.
Режим общего битрейта                    : Переменный
Общий поток                              : 1073 Кбит/сек
Альбом                                   : Лучшие песни (Compilation)
Альбом/Исполнитель                       : Ария
Часть/Положение                          : 2
Часть/Всего                              : 2
Трек                                     : Дух войны
Трек/Положение                           : 6
Трек/Всего                               : 10
Исполнитель                              : Ария
Жанр                                     : Heavy Metal
Дата записи                              : 1999
Дата кодирования                         : UTC 1974-06-06 22:01:51
Дата пометки                             : UTC 2014-05-31 16:36:23
Программа кодирования                    : X Lossless Decoder 20140504, QuickTime 7.7.1
Обложка                                  : Yes
Примечание                               : ExactAudioCopy v0.99pb3
iTunes_CDDB_1                            : 750D720A+258353+10+160+24005+45236+63642+88889+123492+145741+172772+201983+225764
iTunes_CDDB_TrackNumber                  : 6

Аудио
Идентификатор                            : 1
Формат                                   : ALAC
Идентификатор кодека                     : alac
Идентификатор кодека/Информация          : Apple Lossless Audio Codec
Продолжительность                        : 4 м. 56 с.
Duration_LastFrame                       : -5 мс.
Вид битрейта                             : Переменный
Битрейт                                  : 1059 Кбит/сек
Каналы                                   : 2 канала
Частота                                  : 44,1 КГц
Битовая глубина                          : 16 бит
Размер потока                            : 37,5 Мбайт (99%)
Язык                                     : English
Дата кодирования                         : UTC 1974-06-06 22:01:51
Дата пометки                             : UTC 2014-05-31 16:36:23

Общее
Полное имя                               : /Users/Denis/Library/Containers/net.mediaarea.mediainfo.mac/Data/Music/iTunes/iTunes Media/Music/Ария/Лучшие песни (Compilation)/2-07 Ангельская пыль.m4a
Формат                                   : MPEG-4
Профиль формата                          : Apple audio with iTunes info
Идентификатор кодека                     : M4A
Размер файла                             : 44,6 Мбайт
Продолжительность                        : 6 м. 0 с.
Режим общего битрейта                    : Переменный
Общий поток                              : 1037 Кбит/сек
Альбом                                   : Лучшие песни (Compilation)
Альбом/Исполнитель                       : Ария
Часть/Положение                          : 2
Часть/Всего                              : 2
Трек                                     : Ангельская пыль
Трек/Положение                           : 7
Трек/Всего                               : 10
Исполнитель                              : Ария
Жанр                                     : Heavy Metal
Дата записи                              : 1999
Дата кодирования                         : UTC 1994-08-19 18:51:59
Дата пометки                             : UTC 2014-05-31 16:36:26
Программа кодирования                    : X Lossless Decoder 20140504, QuickTime 7.7.1
Обложка                                  : Yes
Примечание                               : ExactAudioCopy v0.99pb3
iTunes_CDDB_1                            : 750D720A+258353+10+160+24005+45236+63642+88889+123492+145741+172772+201983+225764
iTunes_CDDB_TrackNumber                  : 7

Аудио
Идентификатор                            : 1
Формат                                   : ALAC
Идентификатор кодека                     : alac
Идентификатор кодека/Информация          : Apple Lossless Audio Codec
Продолжительность                        : 6 м. 0 с.
Duration_LastFrame                       : -53 мс.
Вид битрейта                             : Переменный
Битрейт                                  : 1026 Кбит/сек
Каналы                                   : 2 канала
Частота                                  : 44,1 КГц
Битовая глубина                          : 16 бит
Размер потока                            : 44,1 Мбайт (99%)
Язык                                     : English
Дата кодирования                         : UTC 1994-08-19 18:51:59
Дата пометки                             : UTC 2014-05-31 16:36:26

Общее
Полное имя                               : /Users/Denis/Library/Containers/net.mediaarea.mediainfo.mac/Data/Music/iTunes/iTunes Media/Music/Ария/Лучшие песни (Compilation)/2-08 Дезертир.m4a
Формат                                   : MPEG-4
Профиль формата                          : Apple audio with iTunes info
Идентификатор кодека                     : M4A
Размер файла                             : 46,9 Мбайт
Продолжительность                        : 6 м. 29 с.
Режим общего битрейта                    : Переменный
Общий поток                              : 1010 Кбит/сек
Альбом                                   : Лучшие песни (Compilation)
Альбом/Исполнитель                       : Ария
Часть/Положение                          : 2
Часть/Всего                              : 2
Трек                                     : Дезертир
Трек/Положение                           : 8
Трек/Всего                               : 10
Исполнитель                              : Ария
Жанр                                     : Heavy Metal
Дата записи                              : 1999
Дата кодирования                         : UTC 1997-10-27 20:53:35
Дата пометки                             : UTC 2014-05-31 16:36:30
Программа кодирования                    : X Lossless Decoder 20140504, QuickTime 7.7.1
Обложка                                  : Yes
Примечание                               : ExactAudioCopy v0.99pb3
iTunes_CDDB_1                            : 750D720A+258353+10+160+24005+45236+63642+88889+123492+145741+172772+201983+225764
iTunes_CDDB_TrackNumber                  : 8

Аудио
Идентификатор                            : 1
Формат                                   : ALAC
Идентификатор кодека                     : alac
Идентификатор кодека/Информация          : Apple Lossless Audio Codec
Продолжительность                        : 6 м. 29 с.
Duration_LastFrame                       : -58 мс.
Вид битрейта                             : Переменный
Битрейт                                  : 999 Кбит/сек
Каналы                                   : 2 канала
Частота                                  : 44,1 КГц
Битовая глубина                          : 16 бит
Размер потока                            : 46,4 Мбайт (99%)
Язык                                     : English
Дата кодирования                         : UTC 1997-10-27 20:53:35
Дата пометки                             : UTC 2014-05-31 16:36:30

Общее
Полное имя                               : /Users/Denis/Library/Containers/net.mediaarea.mediainfo.mac/Data/Music/iTunes/iTunes Media/Music/Ария/Лучшие песни (Compilation)/2-09 Обман.m4a
Формат                                   : MPEG-4
Профиль формата                          : Apple audio with iTunes info
Идентификатор кодека                     : M4A
Размер файла                             : 38,4 Мбайт
Продолжительность                        : 5 м. 17 с.
Режим общего битрейта                    : Переменный
Общий поток                              : 1015 Кбит/сек
Альбом                                   : Лучшие песни (Compilation)
Альбом/Исполнитель                       : Ария
Часть/Положение                          : 2
Часть/Всего                              : 2
Трек                                     : Обман
Трек/Положение                           : 9
Трек/Всего                               : 10
Исполнитель                              : Ария
Жанр                                     : Heavy Metal
Дата записи                              : 1999
Дата кодирования                         : UTC 2017-06-29 13:23:27
Дата пометки                             : UTC 2014-05-31 16:36:34
Программа кодирования                    : X Lossless Decoder 20140504, QuickTime 7.7.1
Обложка                                  : Yes
Примечание                               : ExactAudioCopy v0.99pb3
iTunes_CDDB_1                            : 750D720A+258353+10+160+24005+45236+63642+88889+123492+145741+172772+201983+225764
iTunes_CDDB_TrackNumber                  : 9

Аудио
Идентификатор                            : 1
Формат                                   : ALAC
Идентификатор кодека                     : alac
Идентификатор кодека/Информация          : Apple Lossless Audio Codec
Продолжительность                        : 5 м. 17 с.
Duration_LastFrame                       : -12 мс.
Вид битрейта                             : Переменный
Битрейт                                  : 1002 Кбит/сек
Каналы                                   : 2 канала
Частота                                  : 44,1 КГц
Битовая глубина                          : 16 бит
Размер потока                            : 37,9 Мбайт (99%)
Язык                                     : English
Дата кодирования                         : UTC 2017-06-29 13:23:27
Дата пометки                             : UTC 2014-05-31 16:36:34

Общее
Полное имя                               : /Users/Denis/Library/Containers/net.mediaarea.mediainfo.mac/Data/Music/iTunes/iTunes Media/Music/Ария/Лучшие песни (Compilation)/2-10 Ночь короче дня.m4a
Формат                                   : MPEG-4
Профиль формата                          : Apple audio with iTunes info
Идентификатор кодека                     : M4A
Размер файла                             : 54,8 Мбайт
Продолжительность                        : 7 м. 14 с.
Режим общего битрейта                    : Переменный
Общий поток                              : 1058 Кбит/сек
Альбом                                   : Лучшие песни (Compilation)
Альбом/Исполнитель                       : Ария
Часть/Положение                          : 2
Часть/Всего                              : 2
Трек                                     : Ночь короче дня
Трек/Положение                           : 10
Трек/Всего                               : 10
Исполнитель                              : Ария
Жанр                                     : Heavy Metal
Дата записи                              : 1999
Дата кодирования                         : UTC 2024-12-08 02:07:11
Дата пометки                             : UTC 2014-05-31 16:36:37
Программа кодирования                    : X Lossless Decoder 20140504, QuickTime 7.7.1
Обложка                                  : Yes
Примечание                               : ExactAudioCopy v0.99pb3
iTunes_CDDB_1                            : 750D720A+258353+10+160+24005+45236+63642+88889+123492+145741+172772+201983+225764
iTunes_CDDB_TrackNumber                  : 10

Аудио
Идентификатор                            : 1
Формат                                   : ALAC
Идентификатор кодека                     : alac
Идентификатор кодека/Информация          : Apple Lossless Audio Codec
Продолжительность                        : 7 м. 14 с.
Duration_LastFrame                       : -65 мс.
Вид битрейта                             : Переменный
Битрейт                                  : 1049 Кбит/сек
Каналы                                   : 2 канала
Частота                                  : 44,1 КГц
Битовая глубина                          : 16 бит
Размер потока                            : 54,3 Мбайт (99%)
Язык                                     : English
Дата кодирования                         : UTC 2024-12-08 02:07:11
Дата пометки                             : UTC 2014-05-31 16:36:37
Код:

-----------------------

DON'T MODIFY THIS FILE

-----------------------

PERFORMER: auCDtect Task Manager, ver. 1.6.0 RC1 build 1.6.0.1
Copyright (c) 2008-2010 y-soft. All rights reserved
http://y-soft.org

ANALYZER: auCDtect: CD records authenticity detector, version 0.8.2
Copyright (c) 2004 Oleg Berngardt. All rights reserved.
Copyright (c) 2004 Alexander Djourik. All rights reserved.

FILE: 2-10 Ночь короче дня.m4a
  Size: 57478011 Hash: 58621EC167D9ECC7EE399753197CEDCC Accuracy: -m8
  Conclusion: CDDA 100%
  Signature: 334611A727824F7DE44F6AF496A7659442D2DF2D
FILE: 2-09 Обман.m4a
  Size: 40215467 Hash: 7A53D8E55A729C762E66175F0A1387F5 Accuracy: -m8
  Conclusion: CDDA 100%
  Signature: C4129037158070D6694DB9D3B068C8326628CAB5
FILE: 2-08 Дезертир.m4a
  Size: 49170713 Hash: 9685C2186B3E05E2FFD82DE8ED87D513 Accuracy: -m8
  Conclusion: CDDA 100%
  Signature: 34ABCE01C61FBBA215574C14277E99CB2FE58F3D
FILE: 2-07 Ангельская пыль.m4a
  Size: 46736353 Hash: A41D1B5873FF17B88C0AA651EE1802EC Accuracy: -m8
  Conclusion: CDDA 100%
  Signature: 9B6B0060700E799B4C6B8DE09752ED3E79E3F575
FILE: 2-06 Дух войны.m4a
  Size: 39782011 Hash: E05B7F682A9479322FEF563CF7A7683D Accuracy: -m8
  Conclusion: CDDA 100%
  Signature: 7A6E109BAAC5285ACDE6DFB9B126B0B0AC82A634
FILE: 2-05 Кровь за кровь.m4a
  Size: 58017891 Hash: 6E226C09F510AF3AB18AC3558271F7DD Accuracy: -m8
  Conclusion: CDDA 100%
  Signature: 8E6AC673323BA1634CE03E6358D80B1E2E961299
FILE: 2-04 Отшельник.m4a
  Size: 43826378 Hash: 053831EBED83F298CE9EA01C6E48C5DC Accuracy: -m8
  Conclusion: CDDA 100%
  Signature: 571B9A41A845D67F3A73D38C6A349846E76C1E62
FILE: 2-03 Возьми моё сердце.m4a
  Size: 31108407 Hash: D56596EB9D0F244261F65725624DCFB6 Accuracy: -m8
  Conclusion: CDDA 100%
  Signature: 9C18F2887D0D2A418C6E590564841D856AAE8990
FILE: 2-02 Грязь.m4a
  Size: 37245192 Hash: 27AAC6F3212EA30D33A88844E5E6180E Accuracy: -m8
  Conclusion: CDDA 100%
  Signature: 5AFC2129FB448AA12A25766690DEA9A57144D633
FILE: 2-01 Прощай, Норфолк!.m4a
  Size: 41837845 Hash: D16247448161716E2F9754013848F774 Accuracy: -m0
  Conclusion: CDDA 100%
  Signature: 33FEA6418F9957B182FEAEEFBF9E7CB5E4CFEF18
FILE: 1-10 Игра с огнём.m4a
  Size: 69307470 Hash: 5E5DA1F98E4B1A4D07425FE17DB4EC18 Accuracy: -m8
  Conclusion: CDDA 100%
  Signature: 4622977C5088CF4A4840FA1D20130CD9F3A93DE1
FILE: 1-09 Встань, страх преодолей.m4a
  Size: 33350690 Hash: AD8E74B42020689496F8297B94008D4C Accuracy: -m8
  Conclusion: CDDA 100%
  Signature: 3B8B072AB9F72FDDD4EA2D8EB4C9E33AB0CCFC95
FILE: 1-08 Это рок.m4a
  Size: 45359890 Hash: 0A689E14B943C453D759D60A785E4D56 Accuracy: -m8
  Conclusion: CDDA 100%
  Signature: 76BDCDDE0FCE777D24FF596ACD7B89619C0C6759
FILE: 1-07 Баллада о древнерусском воине.m4a
  Size: 64632742 Hash: 2C3372295DF192C01F037EB540C45F19 Accuracy: -m8
  Conclusion: CDDA 100%
  Signature: 1B7F033EC842747B6A71C4A74F3A797E162DAC27
FILE: 1-06 Улица роз.m4a
  Size: 46509315 Hash: B5DDCE0A8D5516F55630CD8514940F54 Accuracy: -m8
  Conclusion: CDDA 100%
  Signature: E8CAB7707D6816E613372E03AC44934C46311C67
FILE: 1-05 Бивни чёрных скал.m4a
  Size: 35745548 Hash: 819B2449104C45DDEDD4290C6340D507 Accuracy: -m8
  Conclusion: CDDA 100%
  Signature: 886C65E6C8BA100C2FA3AFAB6034CDC6F30FDDC3
FILE: 1-04 Воля и разум.m4a
  Size: 36034777 Hash: 544DBCEED366C68681ECEE202D3DBCA5 Accuracy: -m8
  Conclusion: CDDA 100%
  Signature: EAFF454EF48CF8D7DB1F4596877BAD3E547601A2
FILE: 1-03 Раскачаем этот мир.m4a
  Size: 45912314 Hash: 49EF81ABA40124A502AB346CDA53ED5B Accuracy: -m8
  Conclusion: CDDA 100%
  Signature: A59A784598E646D5F5C5F20291DF93C4FB53639F
FILE: 1-02 Герой асфальта.m4a
  Size: 36867065 Hash: EA79C5AD6781C9AA9A8ECF08FA39AECF Accuracy: -m8
  Conclusion: CDDA 100%
  Signature: 9CA914230B01788630777896B71A98E81E43743A
FILE: 1-01 Что вы сделали с вашей мечтой.m4a
  Size: 39141659 Hash: 2C2FB2DD45AFEE11F3FC9068398DC9F3 Accuracy: -m8
  Conclusion: CDDA 100%
  Signature: EEB1166EDFCCE93B3797676B24595773E402ADA2
Все альбомы (номерные, концертные, синглы трибьюты и сборники) группы АРИЯ в ALAC

Время раздачи: с 20:00 до 03:00 постоянно / часто 24/7
[NNM-Club.me]_Ariya (1999) Luchshie pesni.torrent
 Торрент: Платиновая раздача  Зарегистрирован
 
Скачать


Примагнититься
 Зарегистрирован:   01 Июн 2014 21:02:49
 Размер:   857 MB  (
 Рейтинг:   4.6 (Голосов: 47)
 Поблагодарили:   148
 Проверка:   Оформление проверено модератором 01 Июн 2014 22:09:18
Как cкачать  ·  Как раздать  ·  Правильно оформить  ·  Поднять ратио!  
VOLONT86
Стаж: 6 лет
Сообщений: 6
Ratio: 15.066
100%
дайте скорости!
Показать сообщения:   
Начать новую тему   Ответить на тему    Торрент-трекер NNM-Club -> Аудио и Видео -> Музыка Lossless (ALAC) Часовой пояс: GMT + 3
Страница 1 из 1