Классический форум-трекер
canvas not supported
Нас вместе: 4 172 587

Гран-КуражЪ - Лед и пламя (Single) (2013) [ALAC|Tracks]<Heavy Power Metal>


 
 
RSS
Начать новую тему   Ответить на тему    Торрент-трекер NNM-Club -> Аудио и Видео -> Музыка Lossless (ALAC)
Автор Сообщение
Cecidit ®
Стаж: 7 лет 10 мес.
Сообщений: 129
Ratio: 39.772
Поблагодарили: 8816
100%
Откуда: Москва, МО Щелково
russia.gif
Гран-КуражЪ - Лед и пламя (Single) (2013)
Год: 2013
Жанр: Heavy Power Metal
Продолжительность: 00:11:01

Кодек: ALAC
Битрейт: Lossless
Тип раздачи: Tracks
Обложки: Вшиты
Кодирование: XLD + QuickTime + iTunes

Новый сингл и новый вокалист группы "Гран-КуражЪ".
Новым вокалистом группы "Гран-КуражЪ" стал Евгений Колчин. Сингл "Лёд и пламя" - первый релиз нового состава группы!

Состав:
Евгений Колчин - вокал
Михаил Бугаев - гитара, клавиши
Юрий Бобырёв - гитара
Павел Селеменев - бас-гитара
Алексей Путилин - барабаны

Треклист:
01. Лёд И Пламя
02. Не Обещай
03. Сон
Код:

Общее
Полное имя                               : /Users/Denis/Library/Containers/net.mediaarea.mediainfo.mac/Data/Music/iTunes/iTunes Media/Music/Гран-Куражъ/Лёд и пламя (Single)/01 Лёд и пламя.m4a
Формат                                   : MPEG-4
Профиль формата                          : Apple audio with iTunes info
Идентификатор кодека                     : M4A
Размер файла                             : 26,5 Мбайт
Продолжительность                        : 3 м. 29 с.
Режим общего битрейта                    : Переменный
Общий поток                              : 1062 Кбит/сек
Альбом                                   : Лёд и пламя (Single)
Альбом/Исполнитель                       : Гран-Куражъ
Трек                                     : Лёд и пламя
Трек/Положение                           : 1
Трек/Всего                               : 3
Исполнитель                              : Гран-Куражъ
Композитор                               : М. Бугаев
Жанр                                     : Heavy Power Metal
Дата записи                              : 2013
Дата пометки                             : UTC 2014-06-01 21:13:28
Программа кодирования                    : X Lossless Decoder 20140504, QuickTime 7.7.1
Обложка                                  : Yes

Аудио
Идентификатор                            : 1
Формат                                   : ALAC
Идентификатор кодека                     : alac
Идентификатор кодека/Информация          : Apple Lossless Audio Codec
Продолжительность                        : 3 м. 29 с.
Duration_LastFrame                       : -58 мс.
Вид битрейта                             : Переменный
Битрейт                                  : 1040 Кбит/сек
Каналы                                   : 2 канала
Частота                                  : 44,1 КГц
Битовая глубина                          : 16 бит
Размер потока                            : 25,9 Мбайт (98%)
Язык                                     : English
Дата пометки                             : UTC 2014-06-01 21:13:28

Общее
Полное имя                               : /Users/Denis/Library/Containers/net.mediaarea.mediainfo.mac/Data/Music/iTunes/iTunes Media/Music/Гран-Куражъ/Лёд и пламя (Single)/02 Не обещай.m4a
Формат                                   : MPEG-4
Профиль формата                          : Apple audio with iTunes info
Идентификатор кодека                     : M4A
Размер файла                             : 27,0 Мбайт
Продолжительность                        : 3 м. 30 с.
Режим общего битрейта                    : Переменный
Общий поток                              : 1076 Кбит/сек
Альбом                                   : Лёд и пламя (Single)
Альбом/Исполнитель                       : Гран-Куражъ
Трек                                     : Не обещай
Трек/Положение                           : 2
Трек/Всего                               : 3
Исполнитель                              : Гран-Куражъ
Композитор                               : М. Бугаев
Жанр                                     : Heavy Power Metal
Дата записи                              : 2013
Дата пометки                             : UTC 2014-06-01 21:13:33
Программа кодирования                    : X Lossless Decoder 20140504, QuickTime 7.7.1
Обложка                                  : Yes

Аудио
Идентификатор                            : 1
Формат                                   : ALAC
Идентификатор кодека                     : alac
Идентификатор кодека/Информация          : Apple Lossless Audio Codec
Продолжительность                        : 3 м. 30 с.
Duration_LastFrame                       : -91 мс.
Вид битрейта                             : Переменный
Битрейт                                  : 1054 Кбит/сек
Каналы                                   : 2 канала
Частота                                  : 44,1 КГц
Битовая глубина                          : 16 бит
Размер потока                            : 26,5 Мбайт (98%)
Язык                                     : English
Дата пометки                             : UTC 2014-06-01 21:13:33

Общее
Полное имя                               : /Users/Denis/Library/Containers/net.mediaarea.mediainfo.mac/Data/Music/iTunes/iTunes Media/Music/Гран-Куражъ/Лёд и пламя (Single)/03 Сон.m4a
Формат                                   : MPEG-4
Профиль формата                          : Apple audio with iTunes info
Идентификатор кодека                     : M4A
Размер файла                             : 31,4 Мбайт
Продолжительность                        : 4 м. 2 с.
Режим общего битрейта                    : Переменный
Общий поток                              : 1087 Кбит/сек
Альбом                                   : Лёд и пламя (Single)
Альбом/Исполнитель                       : Гран-Куражъ
Трек                                     : Сон
Трек/Положение                           : 3
Трек/Всего                               : 3
Исполнитель                              : Гран-Куражъ
Композитор                               : М. Бугаев/Е. Игнатова, М. Бугаев
Жанр                                     : Heavy Power Metal
Дата записи                              : 2013
Дата кодирования                         : UTC 1978-06-17 10:47:43
Дата пометки                             : UTC 2014-06-01 21:13:36
Программа кодирования                    : X Lossless Decoder 20140504, QuickTime 7.7.1
Обложка                                  : Yes

Аудио
Идентификатор                            : 1
Формат                                   : ALAC
Идентификатор кодека                     : alac
Идентификатор кодека/Информация          : Apple Lossless Audio Codec
Продолжительность                        : 4 м. 2 с.
Duration_LastFrame                       : -45 мс.
Вид битрейта                             : Переменный
Битрейт                                  : 1068 Кбит/сек
Каналы                                   : 2 канала
Частота                                  : 44,1 КГц
Битовая глубина                          : 16 бит
Размер потока                            : 30,8 Мбайт (98%)
Язык                                     : English
Дата кодирования                         : UTC 1978-06-17 10:47:43
Дата пометки                             : UTC 2014-06-01 21:13:36
Код:

-----------------------

DON'T MODIFY THIS FILE

-----------------------

PERFORMER: auCDtect Task Manager, ver. 1.6.0 RC1 build 1.6.0.1
Copyright (c) 2008-2010 y-soft. All rights reserved
http://y-soft.org

ANALYZER: auCDtect: CD records authenticity detector, version 0.8.2
Copyright (c) 2004 Oleg Berngardt. All rights reserved.
Copyright (c) 2004 Alexander Djourik. All rights reserved.

FILE: 03 Сон.m4a
  Size: 32877987 Hash: F7A0DE382E4E96392DD33AFFB980CD46 Accuracy: -m8
  Conclusion: CDDA 100%
  Signature: 9D106E5AF97BEEB472F4CE03E1F37ABDB33588E7
FILE: 02 Не обещай.m4a
  Size: 28326658 Hash: 223AC42E23E9C7C09E48D0871B184D64 Accuracy: -m8
  Conclusion: CDDA 100%
  Signature: 27BE18C6578EF256DEE1DA712C4C37DA3ACD92E6
FILE: 01 Лёд и пламя.m4a
  Size: 27764440 Hash: B539D3BFDDA6DF32D77A3F342C8E48E3 Accuracy: -m8
  Conclusion: CDDA 100%
  Signature: AE32B055ED1F78D20DEC722B3F9BC27519AC61F7
Все номерные альбомы, концертные альбомы, синглы группы Гран-КуражЪ в ALAC

Время раздачи: с 20:00 до 03:00 постоянно / часто 24/7
[NNM-Club.me]_Gran-Kurazh' (2013) Led i plamya.torrent
 Торрент: Платиновая раздача  Зарегистрирован
 
Скачать


Примагнититься
 Зарегистрирован:   02 Июн 2014 20:13:16
 Размер:   84.8 MB  (
 Рейтинг:   4.2 (Голосов: 20)
 Поблагодарили:   38
 Проверка:   Оформление проверено модератором 03 Июн 2014 00:25:37
Как cкачать  ·  Как раздать  ·  Правильно оформить  ·  Поднять ратио!  
Показать сообщения:   
Начать новую тему   Ответить на тему    Торрент-трекер NNM-Club -> Аудио и Видео -> Музыка Lossless (ALAC) Часовой пояс: GMT + 3
Страница 1 из 1