Классический форум-трекер
canvas not supported
Нас вместе: 4 233 636

Отчаянный / Desperado (1995) BDRip [1080p]


 
 
RSS
Начать новую тему   Ответить на тему    Торрент-трекер NNM-Club -> Зарубежное кино -> Зарубежные Фильмы (HD, FHD)
Автор Сообщение
FILVOVAN ®
Релизер. Uploader 200+
 
Стаж: 16 лет 10 мес.
Сообщений: 4409
Ratio: 715.772
Раздал: 255.4 TB
Поблагодарили: 400604
100%
nnm-club.gif
Отчаянный / Desperado (1995) BDRip
Год выпуска: 1995
Жанр: Боевик, Триллер, Криминал
Производство: США / Columbia Pictures Corporation, Los Hooligans Productions

Описание фильма:
Он — бесстрашный герой, ведущий охоту на короля преступного мира. Но — исполнить приговор невозможно. Но — вновь на карту поставлена жизнь любимой, и начинается жестокое противостояние одиночки и армии вооруженных до зубов головорезов.

Режиссер: Роберт Родригес
Актеры: Антонио Бандерас, Сальма Хайек, Жоаким ди Алмейда, Чич Марин, Стив Бушеми, Карлос Гомес, Квентин Тарантино, Тито Ларрива, Энджел Авилес, Дэнни Трехо, Абрахам Вердуско, Карлос Гальярдо, Альберт Мишель мл., Дэвид Альварадо, Анджела Ланца, Майк Морофф, Роберт Аревало

Продолжительность: 01:44:30
Качество видео: BDRip
Перевод: Многоголосый закадровый, Одноголосый закадровый, Двуголосый закадровый
Язык субтитров: Русский, Английский
Вид субтитров: Вшитые отключаемые



Видеокодек: MPEG-4 AVC/H.264
Битрейт видео: ~11,6 Mbps
Размер кадра: 1920 x 1038
Аудио 1: Русский, AC3 5.1, 640 kbps, 48 kHz (MVO, BD CEE)
Аудио 2: Русский, AC3 5.1, 384 kbps, 48 kHz (MVO, FDV)
Аудио 3: Русский, AC3 2.0, 192 kbps, 48 kHz (MVO, OPT)
Аудио 4: Русский, AC3 5.1, 448 kbps, 48 kHz (AVO, Д.Пучков (Гоблин)
Аудио 5: Русский, AC3 5.1, 448 kbps, 48 kHz (AVO, Ю.Живов)
Аудио 6: Русский, AC3 5.1, 448 kbps, 48 kHz (AVO, С.Визгунов)
Аудио 7: Русский, AC3 5.1, 448 kbps, 48 kHz (AVO, А.Гаврилов)
Аудио 8: Украинский, AC3 5.1, 448 kbps, 48 kHz (DVO, Новый канал)
Аудио 9: Английский, AC3 5.1, 640 kbps, 48 kHz (Оригинал)
Сэмпл: Ссылка
Премия канала «MTV», 1996 год
Номинации (1):
Лучший поцелуй (Антонио Бандерас, Сальма Хайек)

Сатурн, 1996 год
Номинации (1):
Лучшая актриса второго плана (Сальма Хайек)
• Рауль Джулия был утвержден на роль Бучо, но ему пришлось покинуть проект из-за осложнений со здоровьем.
• Карлос Галлардо, исполнивший главную роль в «Музыканте» (1992), сыграл Кампу.
• Персонажа Стива Бушеми зовут Бушеми, потому что данная роль была специально написана для Стива.
• Когда Музыкант заходит в больницу, то можно заметить знак, на котором в красном перечеркнутом круге находится пистолет с глушителем.
• Бар, где разговаривают Стив Бушеми и Чич Марин, — это реально существующий бар, который называется «Corona Club». Бар намного чище и больше, чем в фильме. Также на его стенах висят многочисленные фотографии актеров и съёмочной группы «Отчаянного».
• Дженнифер Лопез пробовалась на роль Каролины.
• Антонио Бандерас самостоятельно играл на гитаре во всех сценах, где это требовалось от его персонажа.
• Пистолет, крепящийся на промежности, который так внимательно рассматривает Каролина, — это точно такой же пистолет, который активно использовал Секс-машина (Том Савини) в фильме Роберта Родригеза «От заката до рассвета» (1996).
• «Отчаянный» стал единственным фильмом в трилогии о Музыканте, где курит главный герой, что противоречит его же заявлению в первой картине: «Я не курю, потому что мой голос — это моя жизнь».
• Изначально фильм должен был называться «The Gunman» (El Pistolero). Однако название было изменено по требованию студии. В Мексике фильм вышел под названием «El Pistolero».
• Роберт Родригез написал рок-версию песни «Malaguea Salerosa». Её можно услышать на финальных титрах «Убить Билла часть 2» (2004).
• Согласно комментарию на DVD Роберта Родригеза, когда снимали постельную сцену между Антонио Бандерасом и Сальмой Хайек, посмотреть такое зрелище, пришла вся съёмочная группа в полном составе.
• Изначально в фильме отсутствовал персонаж Квентина Тарантино, но когда он выразил желание поучаствовать в фильме, Родригез сразу же предложил ему роль.
• Сцены с участием Стива Бушеми и Чича Марина снимались в очень напряженном графике, т. к. Стив мог присутствовать на съёмках только семь дней, а Чич — шесть.
• Из-за небольшого бюджета практически все трюки в фильме исполняли два каскадера.
• В сцене, где Бучо говорит своим людям: «Если вы видите незнакомого человека — убейте его. Что здесь сложного?» — в руках он держит пистолет Desert Eagle. 50AE.
• Диего Сандовал, помощник режиссера, сыграл бухгалтера в сцене перестрелки в баре.
• Роберт Родригес дал своим сёстрам, Анджеле Ланца и Патрисии Вонне, небольшие роли в фильме.
• Ближе к концовке фильма мы узнаем, что настоящее имя Бучо — Сезар. Бучо называет Музыканта «Хуан» (Juan), а потом добавляет «manito». Это — сокращение от «hermanito», что означает «младший брат».
Криминальный боевик

Хотя во время съёмок этот фильм назывался «Марьячи 2», фактически он стал не сиквелом, а голливудским римейком «Марьячи», который был осуществлён с более значительным бюджетом в размере $7 млн. Добавив пару сюжетных линий, связанных с любимой девушкой безымянного бродячего музыканта (её имя — Каролина) и влиятельным мексиканским гангстером-наркодельцом Бучо, который оказался, на самом-то деле, вовсе не чужим для Эль Марьячи (но подробности об этом лучше утаить), Роберт Родригес постарался превратить экранное действо в весьма эффектное и достаточно стильное зрелище с безостановочной пальбой и умопомрачительными погонями. И поневоле должен был пожертвовать элементами притчи ради крутого боевика с латиноамериканской спецификой.

Смена названия на «Десперадо» (что по-испански означает «Отчаянный») как раз свидетельствует о переориентации 27-летнего режиссёра, допущенного в Голливуд, на явно занимательное и развлекательное кино, где тон задаёт исключительно внешняя энергетика авантюрного повествования, а кинематографическая манера лишается скрытых нюансов и подспудных настроений. Впрочем, сделано это Родригесом лихо и не без блеска, а в ряде сцен, прежде всего — с участием «приглашённого гостя» Квентина Тарантино, играющего одного из посетителей заштатного бара, он добивается искромётного остроумия.

Но всё равно трудно отделаться от впечатления, что молодой постановщик изо всех сил стремился понравиться не только избранной публике ценителей искусства, а как можно более широкому кругу обычных зрителей, что ему, в принципе, удалось. Ведь и эта, и последующие работы Роберта Родригеса («От заката до рассвета», «Факультет», трилогия «Дети шпионов», наконец, «Однажды в Мексике», новая история про Марьячи) имели нарастающий успех в американском прокате. И отчаянный прорыв к высотам кассовых сборов был достойно вознаграждён.
Общее
Уникальный идентификатор : 216714214440190601471611577164990652003 (0xA309A3B60A710EA7A2135E83549E1E63)
Полное имя : D:\Films\Desperado.1995.BDRip.1080р.mkv
Формат : Matroska
Версия формата : Version 2
Размер файла : 11,5 Гбайт
Продолжительность : 1 ч. 44 м.
Общий поток : 15,7 Мбит/сек
Дата кодирования : UTC 2014-06-04 13:33:11
Программа кодирования : mkvmerge v5.2.0 ('I can't explain') built on Dec 18 2011 18:12:03
Библиотека кодирования : libebml v1.2.3 + libmatroska v1.3.0

Видео
Идентификатор : 1
Формат : AVC
Формат/Информация : Advanced Video Codec
Профиль формата : High@L4.1
Параметр CABAC формата : Да
Параметр ReFrames формата : 4 кадра
Идентификатор кодека : V_MPEG4/ISO/AVC
Продолжительность : 1 ч. 44 м.
Битрейт : 11,6 Мбит/сек
Ширина : 1920 пикселей
Высота : 1038 пикселей
Соотношение сторон : 1,85:1
Режим частоты кадров : Постоянный
Частота кадров : 23,976 кадра/сек
Цветовое пространство : YUV
Субдискретизация насыщенности : 4:2:0
Битовая глубина : 8 бит
Тип развёртки : Прогрессивная
Бит/(Пиксели*Кадры) : 0.244
Размер потока : 8,27 Гбайт (72%)
Библиотека кодирования : x264 core 142 r2409 d6b4e63
Настройки программы : cabac=1 / ref=4 / deblock=1:-3:-3 / analyse=0x3:0x133 / me=umh / subme=11 / psy=1 / psy_rd=1.00:0.00 / mixed_ref=1 / me_range=48 / chroma_me=1 / trellis=2 / 8x8dct=1 / cqm=0 / deadzone=21,11 / fast_pskip=0 / chroma_qp_offset=-2 / threads=12 / lookahead_threads=2 / sliced_threads=0 / nr=0 / decimate=1 / interlaced=0 / bluray_compat=0 / constrained_intra=0 / bframes=8 / b_pyramid=2 / b_adapt=2 / b_bias=0 / direct=3 / weightb=1 / open_gop=0 / weightp=2 / keyint=240 / keyint_min=23 / scenecut=40 / intra_refresh=0 / rc_lookahead=60 / rc=2pass / mbtree=0 / bitrate=11644 / ratetol=1.0 / qcomp=0.60 / qpmin=0 / qpmax=69 / qpstep=4 / cplxblur=20.0 / qblur=0.5 / vbv_maxrate=50000 / vbv_bufsize=62500 / nal_hrd=none / filler=0 / ip_ratio=1.40 / pb_ratio=1.30 / aq=1:0.80
Язык : English
Default : Да
Forced : Нет

Аудио #1
Идентификатор : 2
Формат : AC-3
Формат/Информация : Audio Coding 3
Расширение режима : CM (complete main)
Параметр Endianness формата : Big
Идентификатор кодека : A_AC3
Продолжительность : 1 ч. 44 м.
Вид битрейта : Постоянный
Битрейт : 640 Кбит/сек
Каналы : 6 каналов
Расположение каналов : Front: L C R, Side: L R, LFE
Частота : 48,0 КГц
Битовая глубина : 16 бит
Метод сжатия : С потерями
Размер потока : 478 Мбайт (4%)
Заголовок : MVO BD CEE
Язык : Russian
Default : Да
Forced : Нет

Аудио #2
Идентификатор : 3
Формат : AC-3
Формат/Информация : Audio Coding 3
Расширение режима : CM (complete main)
Параметр Endianness формата : Big
Идентификатор кодека : A_AC3
Продолжительность : 1 ч. 44 м.
Вид битрейта : Постоянный
Битрейт : 384 Кбит/сек
Каналы : 5 каналов
Расположение каналов : Front: L C R, Side: L R
Частота : 48,0 КГц
Битовая глубина : 16 бит
Метод сжатия : С потерями
Размер потока : 287 Мбайт (2%)
Заголовок : MVO, FDV
Язык : Russian
Default : Нет
Forced : Нет

Аудио #3
Идентификатор : 4
Формат : AC-3
Формат/Информация : Audio Coding 3
Расширение режима : CM (complete main)
Параметр Endianness формата : Big
Идентификатор кодека : A_AC3
Продолжительность : 1 ч. 44 м.
Вид битрейта : Постоянный
Битрейт : 192 Кбит/сек
Каналы : 2 канала
Расположение каналов : Front: L R
Частота : 48,0 КГц
Битовая глубина : 16 бит
Метод сжатия : С потерями
Размер потока : 144 Мбайт (1%)
Заголовок : MVO, OPT
Язык : Russian
Default : Нет
Forced : Нет

Аудио #4
Идентификатор : 5
Формат : AC-3
Формат/Информация : Audio Coding 3
Расширение режима : CM (complete main)
Параметр Endianness формата : Big
Идентификатор кодека : A_AC3
Продолжительность : 1 ч. 44 м.
Вид битрейта : Постоянный
Битрейт : 448 Кбит/сек
Каналы : 6 каналов
Расположение каналов : Front: L C R, Side: L R, LFE
Частота : 48,0 КГц
Битовая глубина : 16 бит
Метод сжатия : С потерями
Размер потока : 335 Мбайт (3%)
Заголовок : AVO, Дмитрий Пучков «Гоблин»
Язык : Russian
Default : Нет
Forced : Нет

Аудио #5
Идентификатор : 6
Формат : AC-3
Формат/Информация : Audio Coding 3
Расширение режима : CM (complete main)
Параметр Endianness формата : Big
Идентификатор кодека : A_AC3
Продолжительность : 1 ч. 44 м.
Вид битрейта : Постоянный
Битрейт : 448 Кбит/сек
Каналы : 6 каналов
Расположение каналов : Front: L C R, Side: L R, LFE
Частота : 48,0 КГц
Битовая глубина : 16 бит
Метод сжатия : С потерями
Размер потока : 335 Мбайт (3%)
Заголовок : AVO, Ю. Живов
Язык : Russian
Default : Нет
Forced : Нет

Аудио #6
Идентификатор : 7
Формат : AC-3
Формат/Информация : Audio Coding 3
Расширение режима : CM (complete main)
Параметр Endianness формата : Big
Идентификатор кодека : A_AC3
Продолжительность : 1 ч. 44 м.
Вид битрейта : Постоянный
Битрейт : 448 Кбит/сек
Каналы : 6 каналов
Расположение каналов : Front: L C R, Side: L R, LFE
Частота : 48,0 КГц
Битовая глубина : 16 бит
Метод сжатия : С потерями
Размер потока : 335 Мбайт (3%)
Заголовок : AVO, С. Визгунов
Язык : Russian
Default : Нет
Forced : Нет

Аудио #7
Идентификатор : 8
Формат : AC-3
Формат/Информация : Audio Coding 3
Расширение режима : CM (complete main)
Параметр Endianness формата : Big
Идентификатор кодека : A_AC3
Продолжительность : 1 ч. 44 м.
Вид битрейта : Постоянный
Битрейт : 448 Кбит/сек
Каналы : 6 каналов
Расположение каналов : Front: L C R, Side: L R, LFE
Частота : 48,0 КГц
Битовая глубина : 16 бит
Метод сжатия : С потерями
Размер потока : 335 Мбайт (3%)
Заголовок : AVO, А. Гаврилов
Язык : Russian
Default : Нет
Forced : Нет

Аудио #8
Идентификатор : 9
Формат : AC-3
Формат/Информация : Audio Coding 3
Расширение режима : CM (complete main)
Параметр Endianness формата : Big
Идентификатор кодека : A_AC3
Продолжительность : 1 ч. 44 м.
Вид битрейта : Постоянный
Битрейт : 448 Кбит/сек
Каналы : 6 каналов
Расположение каналов : Front: L C R, Side: L R, LFE
Частота : 48,0 КГц
Битовая глубина : 16 бит
Метод сжатия : С потерями
Размер потока : 335 Мбайт (3%)
Заголовок : DVO, Новый канал
Язык : Ukrainian
Default : Нет
Forced : Нет

Аудио #9
Идентификатор : 10
Формат : AC-3
Формат/Информация : Audio Coding 3
Расширение режима : CM (complete main)
Параметр Endianness формата : Big
Идентификатор кодека : A_AC3
Продолжительность : 1 ч. 44 м.
Вид битрейта : Постоянный
Битрейт : 640 Кбит/сек
Каналы : 6 каналов
Расположение каналов : Front: L C R, Side: L R, LFE
Частота : 48,0 КГц
Битовая глубина : 16 бит
Метод сжатия : С потерями
Размер потока : 478 Мбайт (4%)
Заголовок : Original
Язык : English
Default : Нет
Forced : Нет

Текст #1
Идентификатор : 11
Формат : UTF-8
Идентификатор кодека : S_TEXT/UTF8
Идентификатор кодека/Информация : UTF-8 Plain Text
Заголовок : R5
Язык : Russian
Default : Нет
Forced : Нет

Текст #2
Идентификатор : 12
Формат : UTF-8
Идентификатор кодека : S_TEXT/UTF8
Идентификатор кодека/Информация : UTF-8 Plain Text
Заголовок : Пучков
Язык : Russian
Default : Нет
Forced : Нет

Текст #3
Идентификатор : 13
Формат : UTF-8
Идентификатор кодека : S_TEXT/UTF8
Идентификатор кодека/Информация : UTF-8 Plain Text
Язык : English
Default : Нет
Forced : Нет

Меню
00:00:00.000 : :00:00:00.000
00:11:03.913 : :00:11:03.913
00:15:41.149 : :00:15:41.149
00:18:59.930 : :00:18:59.930
00:29:20.842 : :00:29:20.842
00:41:33.491 : :00:41:33.491
00:45:30.353 : :00:45:30.353
00:48:26.946 : :00:48:26.946
00:51:59.366 : :00:51:59.366
00:56:18.083 : :00:56:18.083
01:03:51.786 : :01:03:51.786
01:12:59.292 : :01:12:59.292
01:17:30.062 : :01:17:30.062
01:24:51.837 : :01:24:51.837
01:32:33.131 : :01:32:33.131
01:38:15.139 : :01:38:15.139

Скриншоты:



Время раздачи: С 8:00 до 22:00 до 5 скачавших
[NNM-Club.me]_Desperado.1995.BDRip.1080r.mkv.torrent
 Торрент: Платиновая раздача  Зарегистрирован
 
Скачать


Примагнититься
 Зарегистрирован:   04 Июн 2014 06:12:23
 Размер:   11.5 GB  (
 Рейтинг:   4.9 (Голосов: 92)
 Поблагодарили:   320
 Проверка:   Оформление проверено модератором 04 Июн 2014 09:12:20
Как cкачать  ·  Как раздать  ·  Правильно оформить  ·  Поднять ратио!  
Показать сообщения:   
Начать новую тему   Ответить на тему    Торрент-трекер NNM-Club -> Зарубежное кино -> Зарубежные Фильмы (HD, FHD) Часовой пояс: GMT + 3
Страница 1 из 1