Классический форум-трекер
canvas not supported
Нас вместе: 4 205 953

Prokofiev - Ivan the Terrible (V. Polyansky & Russian State Symphony Orchestra) (2003) 2CD [FLAC|Lossless]<Classical, Orchestral, Symphonic, Modern, Cantata, Oratorio>


 
 
RSS
Начать новую тему   Ответить на тему    Торрент-трекер NNM-Club -> Классика -> Оркестровая (Lossless)
Автор Сообщение
halgen ®
Стаж: 12 лет 5 мес.
Сообщений: 673
Ratio: 214.895
Поблагодарили: 25016
100%
russia.gif
Prokofiev - Ivan the Terrible (Valeri Polyansky & Russian State Symphony Orchestra) (2003) 2CDs
Год: 2003
Жанр: Classical, Orchestral, Symphonic, 20th Century Period, Modern, Cantata, Oratorio, Film Score
Лейбл: Chandos Records
Номер по каталогу: 10153
Продолжительность: 01:57:57
Кодек: FLAC
Битрейт: Lossless
Тип рипа: image+.cue
Прoдолжительность: 01:06:24

Треклист:
Ivan the Terrible, Op. 116
Part I; Scene 1. Prologue
01. Overture (02:39)
02. Death of Glinskaya (01:06)
03. Young Ivan's March (01:43)
04. The Ocean - The Sea (03:19)
05. Shuisky and the keepers of the hounds (01:34)
06. Death of Glinskaya (01:05)
Scene 2. The Coronation
07. Kyrie eleison (01:11)
08. Sofroniev Cherubic Hymn (05:42)
09. May he live forever ! (02:52)
Scene 3. The Wedding
10. Glorification (03:04)
11. The Swan (01:08)
12. The Simpleton (01:02)
13. Riot (01:08)
Scene 4. The Conquest of Kazan
14. Entrance of the Tartars (00:14)
15. Cannon are brought to Kazan (02:08)
16. Kurbsky's trumpets (00:27)
17. Ivan's tent (01:06)
18. Tartar steppes (01:43)
19. The Artilleryman (00:48)
20. The Tartars (01:17)
21. Kurbsky's trumpets (00:29)
22. Attack (01:03)
23. Malyuta's jealousy (00:42)
24. Kazan has fallen (00:57)
Scene 5. Ivan's illness
25. O, my soul (01:38)
26. O, Lord most gracious (00:53)
27. O, my soul (01:20)
28. Ivan's appeal to the Boyars (04:10)
Scene 6. The Death of Anastasia
29. Anastasia's illness (03:44)
30. Anastasia is poisened (02:25)
31. Eternal remembrance (01:22)
32. Rest with the saints (01:20)
33. Thou alone (01:52)
34. Ivan at Anastasia's coffin (01:17)
Scene 7. The Oath of the Oprichniks
35. Oath of the Oprichniks (06:08)
36. Come back ! (01:50)
Код:

Exact Audio Copy V1.0 beta 3 from 29. August 2011

EAC extraction logfile from 28. April 2014, 20:39

Valeri Polyansky / Prokofiev - Ivan the Terrible - Valeri Polyansky (Disc 1)

Used drive  : TSSTcorpCDDVDW SH-222BB   Adapter: 2  ID: 1

Read mode               : Secure
Utilize accurate stream : Yes
Defeat audio cache      : Yes
Make use of C2 pointers : No

Read offset correction                      : 6
Overread into Lead-In and Lead-Out          : No
Fill up missing offset samples with silence : Yes
Delete leading and trailing silent blocks   : No
Null samples used in CRC calculations       : Yes
Used interface                              : Native Win32 interface for Win NT & 2000

Used output format              : User Defined Encoder
Selected bitrate                : 896 kBit/s
Quality                         : High
Add ID3 tag                     : No
Command line compressor         : C:\Program Files\Exact Audio Copy\FLAC\FLAC.EXE
Additional command line options : -8 -V -T "TITLE=%title%" -T "ARTIST=%artist%" -T "ALBUMARTIST=%albumartist%" -T "ALBUM=%albumtitle%" -T "DATE=%year%" -T "TRACKNUMBER=%tracknr%" -T "TRACKTOTAL=%numtracks%" -T "GENRE=%genre%" -T "COMMENT=%comment%" -T "PERFORMER=%albuminterpret%" -T "COMPOSER=%composer%" %source% -o %dest%

TOC of the extracted CD

     Track |   Start  |  Length  | Start sector | End sector
    ---------------------------------------------------------
        1  |  0:00.00 |  2:38.48 |         0    |    11897
        2  |  2:38.48 |  1:06.20 |     11898    |    16867
        3  |  3:44.68 |  1:42.45 |     16868    |    24562
        4  |  5:27.38 |  3:18.65 |     24563    |    39477
        5  |  8:46.28 |  1:34.15 |     39478    |    46542
        6  | 10:20.43 |  1:05.25 |     46543    |    51442
        7  | 11:25.68 |  1:10.70 |     51443    |    56762
        8  | 12:36.63 |  5:41.40 |     56763    |    82377
        9  | 18:18.28 |  2:51.55 |     82378    |    95257
       10  | 21:10.08 |  3:03.40 |     95258    |   109022
       11  | 24:13.48 |  1:08.20 |    109023    |   114142
       12  | 25:21.68 |  1:02.35 |    114143    |   118827
       13  | 26:24.28 |  1:08.20 |    118828    |   123947
       14  | 27:32.48 |  0:14.25 |    123948    |   125022
       15  | 27:46.73 |  2:07.60 |    125023    |   134607
       16  | 29:54.58 |  0:27.05 |    134608    |   136637
       17  | 30:21.63 |  1:06.20 |    136638    |   141607
       18  | 31:28.08 |  1:42.55 |    141608    |   149312
       19  | 33:10.63 |  0:48.15 |    149313    |   152927
       20  | 33:59.03 |  1:16.55 |    152928    |   158682
       21  | 35:15.58 |  0:28.45 |    158683    |   160827
       22  | 35:44.28 |  1:02.65 |    160828    |   165542
       23  | 36:47.18 |  0:42.15 |    165543    |   168707
       24  | 37:29.33 |  0:56.55 |    168708    |   172962
       25  | 38:26.13 |  1:38.10 |    172963    |   180322
       26  | 40:04.23 |  0:52.45 |    180323    |   184267
       27  | 40:56.68 |  1:20.15 |    184268    |   190282
       28  | 42:17.08 |  4:10.20 |    190283    |   209052
       29  | 46:27.28 |  3:43.60 |    209053    |   225837
       30  | 50:11.13 |  2:25.00 |    225838    |   236712
       31  | 52:36.13 |  1:21.55 |    236713    |   242842
       32  | 53:57.68 |  1:19.60 |    242843    |   248827
       33  | 55:17.53 |  1:52.20 |    248828    |   257247
       34  | 57:09.73 |  1:16.50 |    257248    |   262997
       35  | 58:26.48 |  6:07.55 |    262998    |   290577
       36  | 64:34.28 |  1:49.47 |    290578    |   298799

Range status and errors

Selected range

     Filename E:\4000\[4021] Prokofiev – Ivan the Terrible – Valeri Polyansky\cd1\Prokofiev - Ivan the Terrible - Valeri Polyansky (Disc 1).wav

     Peak level 97.6 %
     Extraction speed 6.9 X
     Range quality 99.9 %
     Test CRC 5C73DDDC
     Copy CRC 5C73DDDC
     Copy OK

No errors occurred

AccurateRip summary

Track  1  not present in database
Track  2  not present in database
Track  3  not present in database
Track  4  not present in database
Track  5  not present in database
Track  6  not present in database
Track  7  not present in database
Track  8  not present in database
Track  9  not present in database
Track 10  not present in database
Track 11  not present in database
Track 12  not present in database
Track 13  not present in database
Track 14  not present in database
Track 15  not present in database
Track 16  not present in database
Track 17  not present in database
Track 18  not present in database
Track 19  not present in database
Track 20  not present in database
Track 21  not present in database
Track 22  not present in database
Track 23  not present in database
Track 24  not present in database
Track 25  not present in database
Track 26  not present in database
Track 27  not present in database
Track 28  not present in database
Track 29  not present in database
Track 30  not present in database
Track 31  not present in database
Track 32  not present in database
Track 33  not present in database
Track 34  not present in database
Track 35  not present in database
Track 36  not present in database

None of the tracks are present in the AccurateRip database

End of status report

==== Log checksum FAE350B46C2CA85961AFA08E63F42465E241302B0D67DDDE9CFFAAAD6B72B2EF ====
Код:

-----------------------

DON'T MODIFY THIS FILE

-----------------------

PERFORMER: auCDtect Task Manager, ver. 1.5.1RC6 build 1.5.1.7
Copyright (c) 2008-2010 y-soft. All rights reserved
http://y-soft.org

ANALYZER: auCDtect: CD records authenticity detector, version 0.8.2
Copyright (c) 2004 Oleg Berngardt. All rights reserved.
Copyright (c) 2004 Alexander Djourik. All rights reserved.

FILE: Prokofiev - Ivan the Terrible - Valeri Polyansky (Disc 1).flac
  Size: 277408489 Hash: 5D5E591F8BBB6B2408C1078DEC02CF76 Accuracy: -m0
  Conclusion: CDDA 99%
  Signature: FD02758EDBF78ED5E4FFA7A41EB4DB143D9277FB
Прoдолжительность: 00:51:33

Треклист:
Part II
01. Ouverture (01:32)
Scene 8. At the Polish Court
02. Fanfares (00:32)
03. Polonaise (01:48)
04. Fanfares (00:35)
Scene 9. Lamentation for the executed Boyars
05. Do not sob (F. Ivanov) (03:13)
06. It were better for you, Judas (01:55)
07. Shuisky and the keepers of the hounds (01:34)
Scene 10. The Fiery Furnace (liturgical drama)
08. Wondrous is God (D. Bortnyansky) (00:53)
09. Song of the boys (03:16)
10. Song of the beaver (03:01)
Scene 11. The Tsar's banquet and The Cathedral
11. Chaotic dance and Orderly dance of the Oprichniks (01:43)
12. Song of the Oprichniks (02:03)
13. O, my soul (liturgical chant) (01:21)
14. Song of the Oprichniks (without choir) (00:48)
15. Chorus of the Oprichniks (without choir) (03:55)
16. Vladimir's murder (00:22)
17. Entrance of Ivan (00:54)
18. Finale (01:38)
19. Ballad of an Unknown Boy, Op. 93 (20:30)
Код:
Exact Audio Copy V1.0 beta 3 from 29. August 2011

EAC extraction logfile from 28. April 2014, 20:59

Valeri Polyansky / Prokofiev - Ivan the Terrible - Valeri Polyansky (Disc 2)

Used drive  : TSSTcorpCDDVDW SH-222BB   Adapter: 2  ID: 1

Read mode               : Secure
Utilize accurate stream : Yes
Defeat audio cache      : Yes
Make use of C2 pointers : No

Read offset correction                      : 6
Overread into Lead-In and Lead-Out          : No
Fill up missing offset samples with silence : Yes
Delete leading and trailing silent blocks   : No
Null samples used in CRC calculations       : Yes
Used interface                              : Native Win32 interface for Win NT & 2000

Used output format              : User Defined Encoder
Selected bitrate                : 896 kBit/s
Quality                         : High
Add ID3 tag                     : No
Command line compressor         : C:\Program Files\Exact Audio Copy\FLAC\FLAC.EXE
Additional command line options : -8 -V -T "TITLE=%title%" -T "ARTIST=%artist%" -T "ALBUMARTIST=%albumartist%" -T "ALBUM=%albumtitle%" -T "DATE=%year%" -T "TRACKNUMBER=%tracknr%" -T "TRACKTOTAL=%numtracks%" -T "GENRE=%genre%" -T "COMMENT=%comment%" -T "PERFORMER=%albuminterpret%" -T "COMPOSER=%composer%" %source% -o %dest%

TOC of the extracted CD

     Track |   Start  |  Length  | Start sector | End sector
    ---------------------------------------------------------
        1  |  0:00.00 |  1:31.53 |         0    |     6877
        2  |  1:31.53 |  0:32.10 |      6878    |     9287
        3  |  2:03.63 |  1:47.40 |      9288    |    17352
        4  |  3:51.28 |  0:34.40 |     17353    |    19942
        5  |  4:25.68 |  3:12.60 |     19943    |    34402
        6  |  7:38.53 |  1:55.35 |     34403    |    43062
        7  |  9:34.13 |  1:34.20 |     43063    |    50132
        8  | 11:08.33 |  0:53.35 |     50133    |    54142
        9  | 12:01.68 |  3:15.45 |     54143    |    68812
       10  | 15:17.38 |  3:01.25 |     68813    |    82412
       11  | 18:18.63 |  1:43.00 |     82413    |    90137
       12  | 20:01.63 |  2:03.15 |     90138    |    99377
       13  | 22:05.03 |  1:20.55 |     99378    |   105432
       14  | 23:25.58 |  0:47.65 |    105433    |   109022
       15  | 24:13.48 |  3:54.50 |    109023    |   126622
       16  | 28:08.23 |  0:22.15 |    126623    |   128287
       17  | 28:30.38 |  0:54.05 |    128288    |   132342
       18  | 29:24.43 |  1:38.30 |    132343    |   139722
       19  | 31:02.73 | 20:30.02 |    139723    |   231974

Range status and errors

Selected range

     Filename E:\4000\[4021] Prokofiev – Ivan the Terrible – Valeri Polyansky\cd2\Prokofiev - Ivan the Terrible - Valeri Polyansky (Disc 2).wav

     Peak level 100.0 %
     Extraction speed 6.5 X
     Range quality 100.0 %
     Test CRC 8847E979
     Copy CRC 8847E979
     Copy OK

No errors occurred

AccurateRip summary

Track  1  not present in database
Track  2  not present in database
Track  3  not present in database
Track  4  not present in database
Track  5  not present in database
Track  6  not present in database
Track  7  not present in database
Track  8  not present in database
Track  9  not present in database
Track 10  not present in database
Track 11  not present in database
Track 12  not present in database
Track 13  not present in database
Track 14  not present in database
Track 15  not present in database
Track 16  not present in database
Track 17  not present in database
Track 18  not present in database
Track 19  not present in database

None of the tracks are present in the AccurateRip database

End of status report

==== Log checksum 344CABB89DEEF26BE1FF9834B124B3D11E3B4426170694DC03A02F3095F1AB3A ====
Код:
-----------------------

DON'T MODIFY THIS FILE

-----------------------

PERFORMER: auCDtect Task Manager, ver. 1.5.1RC6 build 1.5.1.7
Copyright (c) 2008-2010 y-soft. All rights reserved
http://y-soft.org

ANALYZER: auCDtect: CD records authenticity detector, version 0.8.2
Copyright (c) 2004 Oleg Berngardt. All rights reserved.
Copyright (c) 2004 Alexander Djourik. All rights reserved.

FILE: Prokofiev - Ivan the Terrible - Valeri Polyansky (Disc 2).flac
  Size: 220450167 Hash: D7A2EA0E68484151914AD934F967A16A Accuracy: -m0
  Conclusion: CDDA 99%
  Signature: 8867C67F75DF98B55A9B146BBDE3D2CEF8566CAA
Composer: Sergey Sergeyevich Prokofiev (1891-1953)
Conductor: Valeri Polyansky
Performers:
Alexander Tsylinko - bass
Victoria Smolnikova - mezzo-soprano
Vladimir Sytnik - tenor
Elena Kozneva - mezzo-soprano
Tatiana Zheranzhe - alto
Sergey Toptygin - baritone
Ludmila Kuznetsova - mezzo-soprano
Mikhail Makhove - bass
Ensemble: Russian State Symphony Cappella, Russian State Symphony Orchestra

Recorded in: Grand Hall of Moscow Conservatory 10-14 January 2003
Время раздачи: 19:00-24:00 msk


Поглощение/вытеснение
Только с согласия релизера

DesideriuM
[NNM-Club.me]_Prokofiev – Ivan the Terrible.torrent
 Торрент: Платиновая раздача  Зарегистрирован
 
Скачать


Примагнититься
 Зарегистрирован:   30 Июн 2014 22:34:39
 Размер:   479 MB  (
 Рейтинг:    (Голосов: 9)
 Поблагодарили:   49
 Проверка:   Оформление проверено модератором 01 Июл 2014 23:26:23
Как cкачать  ·  Как раздать  ·  Правильно оформить  ·  Поднять ратио!  
Показать сообщения:   
Начать новую тему   Ответить на тему    Торрент-трекер NNM-Club -> Классика -> Оркестровая (Lossless) Часовой пояс: GMT + 3
Страница 1 из 1