Классический форум-трекер
canvas not supported
Нас вместе: 4 235 016

Генезис / Genesis (2004) BDRip [576p] iPad


 
 
RSS
Начать новую тему   Ответить на тему    Торрент-трекер NNM-Club -> Аудио и Видео -> Зарубежное видео для устройств Apple
Автор Сообщение
kosatka ®
RG Apple
Модератор Видео. Почётный релизёр Uploader 1000+
Стаж: 15 лет
Сообщений: 7061
Ratio: 118K
Раздал: 1.4737 PB
Поблагодарили: 615064
100%
russia.gif
Генезис / Genesis (2004) BDRip [576p] iPad
-

Год выпуска: 2004
Страна: Франция, Италия
Жанр: документальный
Продолжительность: 01:20:53

Перевод: Студийный (одноголосый закадровый)
Оригинальная аудиодорожка: Есть
Cубтитры: Русские
Режиссёр: Мари Перену
Сценарий: Клод Нуридзани, Мари Перену
Продюсер: Кристин Гозлан, Ален Сард
Оператор: Патрис Обертель, Вильям Любчански, Клод Нуридзани
Композитор: Бруно Куле
Художник: Жан-Баптист Пуаро, Эстер Марти Куят
Монтаж: Полин Касали, Мари-Жозеф Йойотт
В ролях: Сотиги Куяте

Бюджет: €9 150 000
Сборы в США: $16 413
Сборы в России: $55 000

Мировая премьера: 27 сентября 2004
Премьера (РФ): 27 января 2005, «Союз»

Релиз на DVD: 17 февраля 2005, «Союз-Видео»



Описание: Созданный в стилистике «Микрокосмоса» и «Птиц», «Генезис» гораздо более амбициозный проект, рассказывающий о происхождении Вселенной и жизни на нашей планете: флоры, фауны и человеческой расы. На создание фильма ушло почти 10 лет.
Качество исходника: Blu-Ray
Качество: BDRip
Тип: SD (576p)
Контейнер: M4V
Видео: H.264, 1024x560, 1.85:1, 3 500 Kbps, 23.976 fps

Аудио 1: Русский/Студийный (одноголосый закадровый) , AAC / 2.0 / 160 Kbps / 48.0 KHz
Аудио 2: Французский/Оригинальная дорожка , AAC / 2.0 / 159 Kbps / 48.0 KHz

Язык субтитров: Русский
Вид субтитров: Вшитые (полные, отключаемые)
Код:

Sort Name: Genesis
XID: Apple:vendor_id:2004-85018
contentID: 85018
Screenwriters: Клод Нуридзани, Мари Перену
Producers: Кристин Гозлан, Ален Сард
Director: Клод Нуридзани, Мари Перену
Cast: Сотиги Куяте
Rating: 0
Long Description: Созданный в стилистике "Микрокосмоса" и "Птиц", "Генезис" гораздо более амбициозный проект, рассказывающий о происхождении Вселенной и жизни на нашей планете: флоры, фауны и человеческой расы. На создание фильма ушло почти 10 лет.
Description: Созданный в стилистике "Микрокосмоса" и "Птиц", "Генезис" гораздо более амбициозный проект, рассказывающий о происхождении Вселенной и жизни на нашей планете: флоры, фауны и человеческой расы. На создание фильма ушло почти 10 лет.
Release Date: 2004-09-27T08:00:00Z
Genre: Documentary
Artist: Claude Nuridzani, Mari Perena
Name: Genesis

Код:

General
Complete name                            : /Users/imac/HandBrake/Genesis.(SD).(pk).m4v
Format                                   : MPEG-4
Codec ID                                 : M4V
File size                                : 2.15 GiB
Duration                                 : 1h 20mn
Overall bit rate mode                    : Variable
Overall bit rate                         : 3 825 Kbps
Movie name                               : Genesis
Performer                                : Claude Nuridzani, Mari Perena
Genre                                    : Documentary
Recorded date                            : UTC 2004-09-27 08:00:00
Encoded date                             : UTC 2014-07-04 11:45:07
Tagged date                              : UTC 2014-07-04 11:53:50
Cover                                    : Yes
sonm                                     : Genesis
desc                                     : Созданный в стилистике "Микрокосмоса" и "Птиц", "Генезис" гораздо более амбициозный проект, рассказывающий о происхождении Вселенной и жизни на нашей планете: флоры, фауны и человеческой расы. На создание фильма ушло почти 10 лет.
ldes                                     : Созданный в стилистике "Микрокосмоса" и "Птиц", "Генезис" гораздо более амбициозный проект, рассказывающий о происхождении Вселенной и жизни на нашей планете: флоры, фауны и человеческой расы. На создание фильма ушло почти 10 лет.
stik                                     : 9
rtng                                     : 0
cnID                                     : 85018
xid                                      : Apple:vendor_id:2004-85018
iTunEXTC                                 : mpaa|Unrated|???|
iTunMOVI                                 : <?xml version=\"1.0\" encoding=\"UTF-8\"?> / <!DOCTYPE plist PUBLIC \"-//Apple//DTD PLIST 1.0//EN\" \"http://www.apple.com/DTDs/PropertyList-1.0.dtd\"> / <plist version=\"1.0\"> / <dict> /   <key>cast</key> /   <array> /     <dict> /       <key>name</key> /       <string>Сотиги Куяте</string> /     </dict> /   </array> /   <key>directors</key> /   <array> /     <dict> /       <key>name</key> /       <string>Клод Нуридзани</string> /     </dict> /     <dict> /       <key>name</key> /       <string>Мари Перену</string> /     </dict> /   </array> /   <key>producers</key> /   <array> /     <dict> /       <key>name</key> /       <string>Кристин Гозлан</string> /     </dict> /     <dict> /       <key>name</key> /       <string>Ален Сард</string> /     </dict> /   </array> /   <key>screenwriters</key> /   <array> /     <dict> /       <key>name</key> /       <string>Клод Нуридзани</string> /     </dict> /     <dict> /       <key>name</key> /       <string>Мари Перену</string> /     </dict> /   </array> / </dict> / </plist>

Video #1
ID                                       : 1
Format                                   : AVC
Format/Info                              : Advanced Video Codec
Format profile                           : High@L3.2
Format settings, CABAC                   : Yes
Format settings, ReFrames                : 9 frames
Codec ID                                 : avc1
Codec ID/Info                            : Advanced Video Coding
Duration                                 : 1h 20mn
Bit rate mode                            : Variable
Bit rate                                 : 3 500 Kbps
Width                                    : 1 024 pixels
Height                                   : 560 pixels
Display aspect ratio                     : 1.85:1
Frame rate mode                          : Variable
Frame rate                               : 23.976 fps
Minimum frame rate                       : 23.974 fps
Maximum frame rate                       : 23.981 fps
Color space                              : YUV
Chroma subsampling                       : 4:2:0
Bit depth                                : 8 bits
Scan type                                : Progressive
Bits/(Pixel*Frame)                       : 0.255
Stream size                              : 1.96 GiB (91%)
Writing library                          : x264 core 130 r2273 b3065e6
Encoding settings                        : cabac=1 / ref=9 / deblock=1:0:0 / analyse=0x3:0x113 / me=umh / subme=9 / psy=1 / psy_rd=1.00:0.00 / mixed_ref=1 / me_range=32 / chroma_me=1 / trellis=1 / 8x8dct=1 / cqm=0 / deadzone=21,11 / fast_pskip=1 / chroma_qp_offset=-2 / threads=12 / lookahead_threads=1 / sliced_threads=0 / nr=0 / decimate=1 / interlaced=0 / bluray_compat=0 / constrained_intra=0 / bframes=6 / b_pyramid=2 / b_adapt=2 / b_bias=0 / direct=1 / weightb=1 / open_gop=0 / weightp=2 / keyint=240 / keyint_min=24 / scenecut=40 / intra_refresh=0 / rc_lookahead=40 / rc=2pass / mbtree=1 / bitrate=3500 / ratetol=1.0 / qcomp=0.60 / qpmin=0 / qpmax=69 / qpstep=4 / cplxblur=20.0 / qblur=0.5 / ip_ratio=1.40 / aq=1:1.00
Language                                 : French
Encoded date                             : UTC 2014-07-04 11:45:07
Tagged date                              : UTC 2014-07-04 11:45:59
Color primaries                          : BT.709-5, BT.1361, IEC 61966-2-4, SMPTE RP177
Transfer characteristics                 : BT.709-5, BT.1361
Matrix coefficients                      : BT.709-5, BT.1361, IEC 61966-2-4 709, SMPTE RP177

Video #2
ID                                       : 6
Format                                   : JPEG
Codec ID                                 : jpeg
Duration                                 : 1h 20mn
Bit rate mode                            : Variable
Bit rate                                 : 2 042 bps
Width                                    : 640 pixels
Height                                   : 350 pixels
Display aspect ratio                     : 1.85:1
Frame rate mode                          : Variable
Frame rate                               : 0.004 fps
Minimum frame rate                       : 0.002 fps
Maximum frame rate                       : 0.012 fps
Color space                              : YUV
Chroma subsampling                       : 4:2:0
Bit depth                                : 8 bits
Compression mode                         : Lossy
Bits/(Pixel*Frame)                       : 2.279
Stream size                              : 1.10 MiB (0%)
Language                                 : French
Encoded date                             : UTC 2014-07-04 11:45:07
Tagged date                              : UTC 2014-07-04 11:45:50

Audio #1
ID                                       : 2
Format                                   : AAC
Format/Info                              : Advanced Audio Codec
Format profile                           : LC
Codec ID                                 : 40
Duration                                 : 1h 20mn
Bit rate mode                            : Variable
Bit rate                                 : 160 Kbps
Maximum bit rate                         : 235 Kbps
Channel(s)                               : 2 channels
Channel positions                        : Front: L R
Sampling rate                            : 48.0 KHz
Compression mode                         : Lossy
Stream size                              : 91.8 MiB (4%)
Language                                 : Russian
Encoded date                             : UTC 2014-07-04 11:45:07
Tagged date                              : UTC 2014-07-04 11:45:59

Audio #2
ID                                       : 3
Format                                   : AAC
Format/Info                              : Advanced Audio Codec
Format profile                           : LC
Codec ID                                 : 40
Duration                                 : 1h 20mn
Bit rate mode                            : Variable
Bit rate                                 : 159 Kbps
Maximum bit rate                         : 231 Kbps
Channel(s)                               : 2 channels
Channel positions                        : Front: L R
Sampling rate                            : 48.0 KHz
Compression mode                         : Lossy
Stream size                              : 91.3 MiB (4%)
Language                                 : French
Encoded date                             : UTC 2014-07-04 11:45:07
Tagged date                              : UTC 2014-07-04 11:45:59

Text #1
ID                                       : 4
Format                                   : Timed text
Muxing mode                              : sbtl
Codec ID                                 : tx3g
Duration                                 : 1h 17mn
Bit rate mode                            : Variable
Bit rate                                 : 31 bps
Stream size                              : 17.7 KiB (0%)
Language                                 : Russian
Encoded date                             : UTC 2014-07-04 11:45:07
Tagged date                              : UTC 2014-07-04 11:45:07

Text #2
ID                                       : 7
Format                                   : Apple text
Codec ID                                 : text
Duration                                 : 1h 20mn
Bit rate mode                            : Variable
Bit rate                                 : 1 bps
Stream size                              : 423 Bytes (0%)
Language                                 : French
Encoded date                             : UTC 2014-07-04 11:45:59
Tagged date                              : UTC 2014-07-04 11:45:59

Menu
00:00:00.000                             : Chapter 1
00:07:54.515                             : Chapter 2
00:10:35.175                             : Chapter 3
00:14:42.046                             : Chapter 4
00:16:54.511                             : Chapter 5
00:18:23.349                             : Chapter 6
00:23:49.383                             : Chapter 7
00:32:05.503                             : Chapter 8
00:34:39.281                             : Chapter 9
00:39:23.481                             : Chapter 10
00:44:37.044                             : Chapter 11
00:47:46.274                             : Chapter 12
00:49:11.942                             : Chapter 13
00:54:30.218                             : Chapter 14
00:59:26.263                             : Chapter 15
01:05:22.493                             : Chapter 16
01:10:24.711                             : Chapter 17
01:14:04.972                             : Chapter 18

Код:

x264 [info]: frame I:694   Avg QP:18.42  size:105613  PSNR Mean Y:44.75 U:48.71 V:49.47 Avg:45.73 Global:45.06
x264 [info]: frame P:27201 Avg QP:21.34  size: 36317  PSNR Mean Y:42.07 U:46.58 V:47.45 Avg:43.13 Global:42.32
x264 [info]: frame B:87758 Avg QP:24.58  size: 11940  PSNR Mean Y:40.32 U:46.14 V:47.14 Avg:41.54 Global:40.72
x264 [info]: consecutive B-frames:  3.1%  3.5%  7.2% 25.3% 18.5% 33.0%  9.4%
x264 [info]: mb I  I16..4: 11.3% 66.8% 21.9%
x264 [info]: mb P  I16..4:  1.3% 11.4%  2.6%  P16..4: 33.3% 23.1% 16.0%  0.0%  0.0%    skip:12.4%
x264 [info]: mb B  I16..4:  0.1%  2.3%  0.7%  B16..8: 37.7% 10.3%  3.9%  direct: 5.5%  skip:39.4%  L0:44.2% L1:43.5% BI:12.4%
x264 [info]: 8x8 transform intra:73.9% inter:66.0%
x264 [info]: coded y,uvDC,uvAC intra: 91.8% 72.6% 37.7% inter: 32.6% 25.8% 3.0%
x264 [info]: i16 v,h,dc,p: 52% 21%  7% 19%
x264 [info]: i8 v,h,dc,ddl,ddr,vr,hd,vl,hu:  4%  9%  3% 11% 18% 13% 18% 10% 15%
x264 [info]: i4 v,h,dc,ddl,ddr,vr,hd,vl,hu:  5%  8%  2%  9% 16% 13% 18% 11% 18%
x264 [info]: i8c dc,h,v,p: 37% 33% 15% 16%
x264 [info]: Weighted P-Frames: Y:10.1% UV:3.1%
x264 [info]: ref P L0: 42.1% 13.5% 17.9%  6.7%  6.2%  4.1%  4.3%  2.2%  2.6%  0.5%  0.0%
x264 [info]: ref B L0: 70.3% 12.8%  6.2%  3.7%  2.6%  2.4%  1.3%  0.5%
x264 [info]: ref B L1: 93.0%  7.0%
x264 [info]: SSIM Mean Y:0.9655538 (14.629db)
x264 [info]: PSNR Mean Y:40.758 U:46.261 V:47.226 Avg:41.943 Global:41.062 kb/s:3497.75

Скриншоты:



Релиз подготовлен для просмотра на Apple TV, iPad, iPhone, iPod Touch.
Для просмотра данного релиза на компьютере с ОС Windows рекомендуется использовать VLC media player
[NNM-Club.me]_Genesis.(SD).(pk).m4v.torrent
 Торрент: Платиновая раздача  Зарегистрирован
 
Скачать


Примагнититься
 Зарегистрирован:   04 Июл 2014 15:12:20
 Размер:   2.15 GB  (
 Рейтинг:   5 (Голосов: 23)
 Поблагодарили:   116
 Проверка:   Оформление проверено модератором 04 Июл 2014 19:17:44
******************************************

Пожертвовать Релизеру на печеньку

******************************************
Как cкачать  ·  Как раздать  ·  Правильно оформить  ·  Поднять ратио!  
xpycmak
Стаж: 13 лет 3 мес.
Сообщений: 14
Ratio: 7.764
90.3%
kosatka
Здравствуйте!
Помогите скачать,
Генезис / Genesis (2004) BDRip [576p] iPad
Показать сообщения:   
Начать новую тему   Ответить на тему    Торрент-трекер NNM-Club -> Аудио и Видео -> Зарубежное видео для устройств Apple Часовой пояс: GMT + 3
Страница 1 из 1