Классический форум-трекер
canvas not supported
Нас вместе: 4 178 210

Фантоцци 2000 – Клонирование / Fantozzi 2000 - La clonazione (1999) DVDRip


 
 
RSS
Начать новую тему   Ответить на тему    Торрент-трекер NNM-Club -> Архив торрентов -> Архив Классики и Старого кино
Автор Сообщение
piranya2 ®
Стаж: 14 лет 2 мес.
Сообщений: 1131
Ratio: 38.059
Поблагодарили: 6809
100%
Откуда: Уагадугу
burkinafaso.gif
Фантоцци 2000 – Клонирование / Fantozzi 2000 - La clonazione (1999) DVDRip
Год выпуска: 1999
Жанр: Комедия
Выпущено: Италия / C.G.G. Group Fin. Ma. Vi. S.r.l. & Italian International Film

Описание фильма:
Руководство Мега-Фирмы обеспокоено тем, что сотрудники совершенно выбились из-под контроля. Вдруг они вспоминают про самого услужливого и исполнительно работника — бухгалтера Уго Фантоцци. Они решают пригласить его снова на работу, но вот беда — он умер несколько лет назад. Но руководство компании это не останавливает. С помощью новейших технологий, используя волосы покойного бухгалтера, ученые создают клона, ничем не отличающегося от покойника. Фантоцци узнает свою жену, своего директора и со следующего же дня ревностно принимается исполнять свои служебные, обязанности. Но судьба готовит ему ряд за другим несколько сюрпризов — отдых в закрытом приюте для детей миллионеров, длительная эпопея с лотерейным билетом, чуть было не стоившая бухгалтеру семейного счастья, проблемы с внезапно приехавшей погостить к бабушке с дедушкой дорогой, но довольно таки взрослой внучкой, неожиданное приглашение на новогодний банкет к графине и даже встреча с инопланетянином...

Режиссер: Доменико Саверни
Актеры: Паоло Вилладжо, Милена Вукотич, Анна Маццамауро, Паоло Паолони, Доди Конти, Стефано Машьярелли, Мирта Пепе, Ирма Капече Минутоло, Альдо Ралли, Эвелина Гори

Продолжительность: 01:33:48
Качество видео: DVDRip
Перевод: Одноголосый закадровый
Автор перевода / Релиз группа: Феникс

Дата мировой премьеры: 23 декабря 1999
Ограничения: 16+

Видео: XviD, 544 x 320, ~901 Кбит/с
Аудио#1: MP3, 2 ch, 128 Кбит/с (Русский)
Аудио#2: MP3, 2 ch, 128 Кбит/с (Итальянский)
Код:
General
Complete name                    : D:\Fantozzi 2000\Fantozzi_2000_nnm-club.info.avi
Format                           : AVI
Format/Info                      : Audio Video Interleave
File size                        : 786 MiB
Duration                         : 1h 33mn
Overall bit rate                 : 1 172 Kbps
Writing application              : VirtualDubModRus 1.5.10.2 (build 2540/release)
Writing library                  : VirtualDubMod build 2540/release

Video
ID                               : 0
Format                           : MPEG-4 Visual
Format profile                   : Advanced Simple@L5
Format settings, BVOP            : 2
Format settings, QPel            : Yes
Format settings, GMC             : No warppoints
Format settings, Matrix          : Default (H.263)
Codec ID                         : XVID
Codec ID/Hint                    : XviD
Duration                         : 1h 33mn
Bit rate                         : 901 Kbps
Width                            : 544 pixels
Height                           : 320 pixels
Display aspect ratio             : 16:9
Frame rate                       : 25.000 fps
Color space                      : YUV
Chroma subsampling               : 4:2:0
Bit depth                        : 8 bits
Scan type                        : Progressive
Compression mode                 : Lossy
Bits/(Pixel*Frame)               : 0.207
Stream size                      : 605 MiB (77%)
Writing library                  : XviD 1.1.2 (UTC 2006-11-01)

Audio #1
ID                               : 1
Format                           : MPEG Audio
Format version                   : Version 1
Format profile                   : Layer 3
Mode                             : Joint stereo
Mode extension                   : MS Stereo
Codec ID                         : 55
Codec ID/Hint                    : MP3
Duration                         : 1h 33mn
Bit rate mode                    : Constant
Bit rate                         : 128 Kbps
Channel(s)                       : 2 channels
Sampling rate                    : 44.1 KHz
Compression mode                 : Lossy
Stream size                      : 85.9 MiB (11%)
Alignment                        : Split accross interleaves
Interleave, duration             : 40 ms (1.00 video frame)
Interleave, preload duration     : 500 ms

Audio #2
ID                               : 2
Format                           : MPEG Audio
Format version                   : Version 1
Format profile                   : Layer 3
Mode                             : Joint stereo
Codec ID                         : 55
Codec ID/Hint                    : MP3
Duration                         : 1h 33mn
Bit rate mode                    : Constant
Bit rate                         : 128 Kbps
Channel(s)                       : 2 channels
Sampling rate                    : 44.1 KHz
Compression mode                 : Lossy
Delay relative to video          : 18ms
Stream size                      : 85.9 MiB (11%)
Alignment                        : Split accross interleaves
Interleave, duration             : 40 ms (1.00 video frame)
Interleave, preload duration     : 500 ms
Скриншоты:

Фантоцци 2000 – Клонирование на NNM-Club
Fantozzi_2000_nnm-club.info.avi.torrent
 Торрент: Платиновая раздача  Зарегистрирован
 
Скачать


 Зарегистрирован:   09 Май 2008 12:32:47
 Размер:   786 MB  (
 Рейтинг:   4.7 (Голосов: 24)
 Поблагодарили:   69
 Проверка:   Оформление проверено модератором 09 Май 2008 12:46:06
Как cкачать  ·  Как раздать  ·  Правильно оформить  ·  Поднять ратио!  
Топик был перенесен из форума Зарубежная Классика (HD*Rip/LQ, DVDRip, SATRip, VHSRip) в форум Архив Видео

Причина переноса: Последний раз раздающий был замечен более 6 месяцев назад.

Исправил релиз - напиши ЛС FREEDONOR, дав ссылку на релиз.
Если нет ответа 24 часа - нажми на кнопку "Обратить внимание модераторов".
Топик был перенесен из форума Архив Видео в форум Архив Классики и Старого кино / Артхаус



Исправил релиз - напиши ЛС Kalex, дав ссылку на релиз.
Если нет ответа 24 часа - нажми на кнопку "Обратить внимание модераторов".
Показать сообщения:   
Начать новую тему   Ответить на тему    Торрент-трекер NNM-Club -> Архив торрентов -> Архив Классики и Старого кино Часовой пояс: GMT + 3
Страница 1 из 1