Классический форум-трекер
canvas not supported
Нас вместе: 4 210 997

Гарри Поттер и философский камень / Harry Potter and the Sorcerer's Stone (2001) HDRip [H.264] [Ultimate Cut]


 
 
RSS
Начать новую тему   Ответить на тему    Торрент-трекер NNM-Club -> Зарубежное кино -> Зарубежные Фильмы (SD)
Автор Сообщение
BBS12345 ®
Стаж: 10 лет 9 мес.
Сообщений: 3524
Ratio: 385.516
Поблагодарили: 101580
100%
Гарри Поттер и философский камень / Harry Potter and the Sorcerer's Stone (2001) HDRip [H.264]
[Максимальная версия / Ultimate Cut]

Год выпуска: 2001
Производство: Великобритания, США / 1492 Pictures, Heyday Films, Warner Bros. Pictures
Жанр: Приключения, Семейный, Фэнтези
Перевод: Дублированный
Субтитры: Отсутствуют

Дата мировой премьеры: 4 ноября 2001
Дата российской премьеры: 21 марта 2002, «Каро-Премьер»
Дата выхода DVD релиза: 23 июня 2009, «Юниверсал Пикчерс Рус»

Режиссер: Крис Коламбус
Продюсер: Дэвид Хейман, Тодд Арноу, Майкл Барнатан
Актеры: Дэниэл Рэдклифф, Руперт Гринт, Эмма Уотсон, Ричард Харрис, Алан Рикман, Мэгги Смит, Робби Колтрейн, Том Фелтон, Мэттью Льюис, Иэн Харт

Описание фильма:
Жизнь десятилетнего Гарри Поттера нельзя назвать сладкой: его родители умерли, едва ему исполнился год, а от дяди и тётки, взявших сироту на воспитание, достаются лишь тычки да подзатыльники. Но в одиннадцатый день рождения Гарри всё меняется. Странный гость, неожиданно появившийся на пороге, приносит письмо, из которого мальчик узнаёт, что на самом деле он чистокровный волшебник и принят в Хогвартс — школу магии. А уже через пару недель Гарри будет мчаться в поезде Хогвартс-экспресс навстречу новой жизни, где его ждут невероятные приключения, верные друзья и самое главное — ключ к разгадке тайны смерти его родителей.



Продолжительность: 02:38:51
Качество видео: HDRip

Видео: MPEG-4 AVC/H.264, 1024x424, ~1653 Кбит/сек, 23,976 кадра/сек, 0.159 Пиксели/Кадры
Аудио: AC-3, 192 Кбит/сек, 2 канала (Русский - Дублированный)
Сэмпл: Скачать
Общее
Уникальный идентификатор : 243561106722483828383814694131293177022 (0xB73C29B202FD8515B4EF12F8076F44BE)
Полное имя : Гарри Поттер - 01 ''Философский камень'' (Максимальная версия) (Harry Potter and the Sorcerer's Stone) (Ultimate Cut).mkv
Формат : Matroska
Версия формата : Version 2
Размер файла : 2,05 Гбайт
Продолжительность : 2 ч. 38 м.
Общий поток : 1846 Кбит/сек
Дата кодирования : UTC 2014-09-04 03:12:54
Программа кодирования : mkvmerge v3.4.0 ('Rapunzel') сборка от May 15 2010 09:38:20
Библиотека кодирования : libebml v0.8.0 + libmatroska v0.9.0

Видео
Идентификатор : 1
Формат : AVC
Формат/Информация : Advanced Video Codec
Профиль формата : High@L4.1
Параметр CABAC формата : Да
Параметр ReFrames формата : 11 кадров
Идентификатор кодека : V_MPEG4/ISO/AVC
Продолжительность : 2 ч. 38 м.
Битрейт : 1653 Кбит/сек
Ширина : 1024 пикселя
Высота : 424 пикселя
Соотношение сторон : 2,40:1
Режим частоты кадров : Постоянный
Частота кадров : 23,976 кадра/сек
Цветовое пространство : YUV
Субдискретизация насыщенности : 4:2:0
Битовая глубина : 8 бит
Тип развёртки : Прогрессивная
Бит/(Пиксели*Кадры) : 0.159
Размер потока : 1,79 Гбайт (88%)
Заголовок : Гарри Поттер - 01 ''Философский камень'' (Максимальная версия) (Harry Potter and the Sorcerer's Stone) (Ultimate Cut)
Библиотека кодирования : x264 core 142 r2431 ac76440
Настройки программы : cabac=1 / ref=11 / deblock=1:-1:-1 / analyse=0x3:0x133 / me=umh / subme=11 / psy=1 / psy_rd=1.00:0.15 / mixed_ref=1 / me_range=64 / chroma_me=1 / trellis=2 / 8x8dct=1 / cqm=0 / deadzone=21,11 / fast_pskip=0 / chroma_qp_offset=-3 / threads=3 / lookahead_threads=1 / sliced_threads=0 / nr=0 / decimate=0 / interlaced=0 / bluray_compat=0 / constrained_intra=0 / bframes=16 / b_pyramid=2 / b_adapt=2 / b_bias=0 / direct=3 / weightb=1 / open_gop=0 / weightp=2 / keyint=240 / keyint_min=23 / scenecut=40 / intra_refresh=0 / rc_lookahead=60 / rc=2pass / mbtree=0 / bitrate=1653 / ratetol=1.0 / qcomp=0.60 / qpmin=0 / qpmax=69 / qpstep=4 / cplxblur=20.0 / qblur=0.5 / vbv_maxrate=50000 / vbv_bufsize=62500 / nal_hrd=none / filler=0 / ip_ratio=1.40 / pb_ratio=1.30 / aq=1:1.00
Язык : English
Default : Да
Forced : Нет

Аудио
Идентификатор : 2
Формат : AC-3
Формат/Информация : Audio Coding 3
Расширение режима : CM (complete main)
Параметр Endianness формата : Big
Идентификатор кодека : A_AC3
Продолжительность : 2 ч. 38 м.
Вид битрейта : Постоянный
Битрейт : 192 Кбит/сек
Каналы : 2 канала
Расположение каналов : Front: L R
Частота : 48,0 КГц
Битовая глубина : 16 бит
Метод сжатия : С потерями
Размер потока : 218 Мбайт (10%)
Заголовок : Дублированный (AC-3, Постоянный, 192 Кбит/сек, 2 канала, 48,0 КГц, 16 бит)
Язык : Russian
Default : Да
Forced : Нет
Скриншоты:


Время раздачи: По возможности 24/7 до первых 10 скачавших (потом могу уйти с раздачи)
 Торрент: Платиновая раздача  Зарегистрирован
 
Скачать


Примагнититься
 Зарегистрирован:   04 Сен 2014 07:18:49
 Размер:   2.05 GB  (
 Рейтинг:   4.8 (Голосов: 226)
 Поблагодарили:   918
 Проверка:   Оформление проверено модератором 04 Сен 2014 07:22:36
Как cкачать  ·  Как раздать  ·  Правильно оформить  ·  Поднять ратио!  
alexanm80
Стаж: 12 лет
Сообщений: 1
Ratio: 16.448
100%
Что в данной версии максимального?
Wolfasik
Стаж: 9 лет 6 мес.
Сообщений: 35
Ratio: 31.317
Раздал: 3.057 TB
100%
Откуда: Все мы родом из детства
ussr.gif
alexanm80 писал(а): Перейти к сообщению
Что в данной версии максимального?

На 5 минут вроде длиннее... А чем отличается [Хочу Знать]
afdrep
Стаж: 11 лет 10 мес.
Сообщений: 2
Ratio: 1.774
0%
ukraine.gif
Слишком тихий звук, нужна делать нормализацию AC3 дорожки.
Glyuk666
Стаж: 11 лет 6 мес.
Сообщений: 17
Ratio: 1.585
100%
Wolfasik писал(а): Перейти к сообщению
alexanm80 писал(а): Перейти к сообщению
Что в данной версии максимального?

На 5 минут вроде длиннее... А чем отличается [Хочу Знать]


Вставлено 7 дополнительных эпизодов:
1.Тётя Петунья «отваривает» новую школьную форму
2.Петунья находит письма из Хогвартса даже в яйцах
3.Гарри и Хагрид в Метро
4.Полный эпизод Зельеварения. В вырезанной сцене Снэйп только объясняет Поттеру о зельях, потом штрафует Гриффиндор на 5 очков.
5.Трио в коридоре. Короткий разговор
6.Рождество. Гарри Депрессует напротив камина в большом зале
7.Трио в большом зале и Невилл, прыгающий из-за порчи, насланной на него Малфоем

_________________
Каждое утро — это время начать жизнь снова. © Пауло Коэльо
creator000
Стаж: 10 лет 1 мес.
Сообщений: 22
Ratio: 3.997
Поблагодарили: 98
0%
Почему написано расширенная версия, если расширенная версия идет 2,41 минуту, а тут обрезано не несколько минут? .Почему написано расширенная версия, если расширенная версия идет 2,41 минуту, а тут обрезано не несколько минут? .
poolemet
Стаж: 11 лет 7 мес.
Сообщений: 61
Ratio: 8.846
31.21%
Откуда: Санкт-Петербург
russia.gif
MAG3131 а у тебя есть остальные фильмы- раздачи Гарри Поттера?

_________________
ура товарищи
Показать сообщения:   
Начать новую тему   Ответить на тему    Торрент-трекер NNM-Club -> Зарубежное кино -> Зарубежные Фильмы (SD) Часовой пояс: GMT + 3
Страница 1 из 1