Классический форум-трекер
canvas not supported
Нас вместе: 4 233 343

Малые родины большого Петербурга (2013-2014) SATRip [H.264] (выпусков 72 из ??)


 
 
RSS
Начать новую тему   Ответить на тему    Торрент-трекер NNM-Club -> Документалистика и Телепередачи -> Отечественная история
Автор Сообщение
smpeal ®
Стаж: 11 лет 9 мес.
Сообщений: 62
Ratio: 99.87
Поблагодарили: 7340
100%
ussr.gif
Малые родины большого Петербурга (2013-2014) SATRip [H.264] (выпусков 72 из ??)
Телекомпания: Санкт-Петербург
Жанр: Документальный

Режиссер: и автор идеи Александр Щербаносов
Текст за кадром читает: Народный артист России Валерий Кухарешин

Описание:
«Малые родины большого Петербурга» - специальный проект телеканала «Санкт-Петербург» об исторических районах города, с их настроением, культурной средой и знаковыми архитектурными объектами.

«Малые родины» – это районы Петербурга, с которых город начинался и которыми продолжается. У каждого петербуржца тоже есть своя «малая родина», это часть города, где он родился или прожил много лет: Лиговка, Купчино, Семенцы, Пески, Озерки, Ржевка-Пороховые, Коломна, Лахта, Гавань и другие.

Историю места и времени вместе с авторами программы рассказывают петербуржцы: старожилы, краеведы, писатели, артисты, художники.

Продолжительность: 72 х 00:14:00
Качество видео: SATRip

Видео: AVC/H.264, 720х540, ~997 Kbps
Аудио: AAC, 2 ch, 128 Kbps
01. Весёлый посёлок (март 2013);
02. Линии Васильевского острова (март 2013);
03. Автово (март 2013);
04. Александро-Невская Лавра (апрель 2013);
05. Комендантский аэродром (апрель 2013);
06. Семенцы (апрель 2013);
07. Щемиловка (май 2013);
08. Соляной городок (май 2013);
09. Гражданка (май 2013);
10. Аптекарский остров (июнь 2013);
11. Ульянка (июнь 2013);
12. Гавань (июнь 2013);
13. Коломяги (июнь 2013);
14. Таврический сад (июль 2013);
15. Сестрорецк (июль 2013);
16. Крестовский остров (август 2013);
17. Рыбацкое (август 2013);
18. Стрельна (август 2013);
19. Парголово (сентябрь 2013);
20. Миллионная улица (сентябрь 2013);
21. Пороховые (сентябрь 2013);
22. Остров Голодай (сентябрь 2013);
23. Дачное (октябрь 2013);
24. Петровский остров (октябрь 2013)
25. Павловск (октябрь 2013);
26. Обводный канал, XIX век (ноябрь 2013);
27. Обводный канал, XX век (ноябрь 2013);
28. Полюстрово (ноябрь 2013);
29. Матисов остров (ноябрь 2013);
30. Измайловские роты (ноябрь 2013);
31. Чёрная речка (декабрь 2013);
32. Купчино (декабрь 2013);
33. Большой проспект Петроградской стороны (декабрь 2013);
34. Пески (декабрь 2013);
35. Ораниенбаум (январь 2014);
36. Нарвская застава (февраль 2014);
37. Лиговка (февраль 2014);
38. Проспекты Васильевского острова (февраль 2014);
39. Апраксин двор (февраль 2014);
40. Красное село (март 2014);
41. Смольный (март 2014);
42. Большая Коломна (март 2014);
43. Колпино (март 2014);
44. Проспект Просвещения (апрель 2014);
45. Колтовская слобода (апрель 2014)
46. Литейная часть (апрель 2014)
47. Большая Охта (май 2014);
48. Невская застава (май 2014);
49. Лахта (май 2014);
50. Выборгская сторона (июнь 2014);
51. Канонерский остров (июнь 2014);
52. Пулково (июнь 2014);
53. Разлив (июль 2014);
54. Зеленогорск (август 2014);
55. Шувалово-Озерки (август 2014);
56. Можайский (август 2014);
57. Лисий нос (сентябрь 2014);
58. Удельная (сентябрь 2014);
59. Сосновая поляна (сентябрь 2014);
60. Елагин остров (октябрь 2014);
61. Малая Охта (октябрь 2014);
62. Пушкин (октябрь 2014);
63. София (октябрь 2014);
64. Каменный остров (октябрь 2014);
65. Набережные Васильевского острова (ноябрь 2014);
66. Кронштадт (ноябрь 2014);
67. Стрелка Васильевского острова (ноябрь 2014);
68. Петергоф (декабрь 2014);
69. Обухово (декабрь 2014);
70. Митрофаниевская дорога (декабрь 2014);
71. Посадская слобода (декабрь 2014);
72. Горячее поле (декабрь 2014);
Общее
Уникальный идентификатор : 222300477574231934030446926200703678956 (0xA73D83BF863BC34A977D96088A39F9EC)
Полное имя : V:\Фильмы\Документальные\Малые родины большого Петербурга (2013-2014) SATRip\56. Можайский (август 2014).mkv
Формат : Matroska
Версия формата : Version 4
Размер файла : 105 Мбайт
Продолжительность : 14 м. 0 с.
Общий поток : 1047 Кбит/сек
Дата кодирования : UTC 2014-09-02 16:33:22
Программа кодирования : mkvmerge v7.1.0 ('Good Love') 64bit built on Jul 27 2014 13:06:55
Библиотека кодирования : libebml v1.3.0 + libmatroska v1.4.1

Видео
Идентификатор : 2
Формат : AVC
Формат/Информация : Advanced Video Codec
Профиль формата : Main@L3
Настройки формата : CABAC / 5 Ref Frames
Параметр CABAC формата : Да
Параметр RefFrames формата : 5 кадров
Идентификатор кодека : V_MPEG4/ISO/AVC
Продолжительность : 14 м. 0 с.
Битрейт : 997 Кбит/сек
Ширина : 720 пикселей
Высота : 540 пикселей
Соотношение сторон : 4:3
Режим частоты кадров : Постоянный
Частота кадров : 25,000 кадров/сек
Стандарт вещания : NTSC
Цветовое пространство : YUV
Субдискретизация насыщенности : 4:2:0
Битовая глубина : 8 бит
Тип развёртки : Прогрессивная
Бит/(Пиксели*Кадры) : 0.103
Размер потока : 99,9 Мбайт (95%)
Язык : Russian
Default : Да
Forced : Нет
Цветовой диапазон : Limited

Аудио
Идентификатор : 1
Формат : AAC LC
Формат/Информация : Advanced Audio Codec Low Complexity
Идентификатор кодека : A_AAC-2
Продолжительность : 14 м. 0 с.
Битрейт : 48,0 Кбит/сек
Каналы : 2 канала
ChannelLayout : L R
Частота : 32,0 КГц
Частота кадров : 31,250 кадров/сек (1024 SPF)
Метод сжатия : С потерями
Размер потока : 4,81 Мбайт (5%)
Язык : Russian
Default : Да
Forced : Нет
Скриншоты:

Все одноименные релизы в Клубе
Время раздачи: По выходным с 12-22, иногда вечером в будние дни
[NNMClub.to]_Malye_Rodiny_Bolshogo_Peterburga_2013-2014_SATRip_mkv.torrent
 Торрент: Платиновая раздача  Зарегистрирован
 
Скачать


Примагнититься
 Зарегистрирован:   14 Окт 2020 10:28:21
 Размер:   7.39 GB  (
 Рейтинг:   4.7 (Голосов: 40)
 Поблагодарили:   122
 Проверка:   Оформление проверено модератором 14 Окт 2020 14:16:21
Как cкачать  ·  Как раздать  ·  Правильно оформить  ·  Поднять ратио!  
Sojourner
Стаж: 17 лет 2 мес.
Сообщений: 3
Ratio: 6.404
16.04%
Шикарный сериал про шикарный город. Огромное спасибо!
gav893
Стаж: 9 лет
Сообщений: 1
38.46%
ждём продолжения
feofan453
Стаж: 13 лет 4 мес.
Сообщений: 10
Ratio: 4.972
34.01%
burma.gif
Огромное спасибо релизеру и всем раздающим, лучший сериал про историю Санкт-Петербурга
caver52
Стаж: 9 лет 9 мес.
Сообщений: 83
Ratio: 0.661
0.85%
никого нет на раздаче :(
smpeal ®
Стаж: 11 лет 9 мес.
Сообщений: 62
Ratio: 99.87
Поблагодарили: 7340
100%
ussr.gif
ТОРРЕНТ ОБНОВЛЁН
1. Выпуски с 1 по 56 отсортированы по дате выхода;
2. Добавлены выпуски 57-72, с списке выделены красным цветом.
vigor60
Стаж: 11 лет 9 мес.
Сообщений: 360
Ratio: 1.59
Раздал: 4.723 TB
100%
ussr.gif
На ТыТруба 100 серий в1080р
Показать сообщения:   
Начать новую тему   Ответить на тему    Торрент-трекер NNM-Club -> Документалистика и Телепередачи -> Отечественная история Часовой пояс: GMT + 3
Страница 1 из 1