Классический форум-трекер
canvas not supported
Нас вместе: 4 233 122

Сделано в Америке / Made in America (1993) DVDRip


 
 
RSS
Начать новую тему   Ответить на тему    Торрент-трекер NNM-Club -> Зарубежное кино -> Зарубежные Фильмы (SD)
Автор Сообщение
smpeal ®
Стаж: 11 лет 9 мес.
Сообщений: 62
Ratio: 99.87
Поблагодарили: 7340
100%
ussr.gif
Сделано в Америке / Made in America (1993) DVDRip
Год выпуска: 1993
Жанр: Комедия

Описание:
Когда Сара Мэтьюз в поисках своего будущего ребенка обратилась в банк спермы, она поставила три условия: донор должен быть здоровым, умным и чернокожим. Через 17 лет ее дочь Зора решила найти своего отца.

Режиссер: Ричард Бенджамин
Актеры: Вупи Голдберг, Тед Дэнсон, Уилл Смит, Ниа Лонг, Пол Родригез, Дженнифер Тилли, Пегги Ри, Клайд Кусацу, Дэвид Бове, Джеффри Джозеф

Продолжительность: 01:50:40
Качество видео: DVDRip
Перевод: Многоголосый закадровый x2

Sample

Дата мировой премьеры: 28 мая 1993
Дата выхода DVD релиза: 29 ноября 2005

Видеокодек: Xvid
Битрейт видео: ~1204 Kbps
Размер кадра: 512х384
Аудио #1: AC3, 192 Kbps, 2 канала - русский многоголосый закадровый (ТНТ);
Аудио #2: AC3, 192 Kbps, 2 канала - русский многоголосый закадровый;
Аудио #3: AC3, 192 Kbps, 2 канала - оригинальный (английский).
Общее
Полное имя : Y:\Фильмы\Зарубежные\Сделано в Америке (1993) DVDRip.avi
Формат : AVI
Формат/Информация : Audio Video Interleave
Размер файла : 1,39 Гбайт
Продолжительность : 1 ч. 50 м.
Общий поток : 1798 Кбит/сек
Программа кодирования : VirtualDubModRus 1.5.10.2 (build 2542/release)
Библиотека кодирования : VirtualDubMod build 2542/release

Видео
Идентификатор : 0
Формат : MPEG-4 Visual
Профиль формата : Advanced Simple@L5
Параметр BVOP формата : 1
Параметр QPel формата : Нет
Параметр GMC формата : Без точки перехода
Параметр матрицы формата : Выборочная
Идентификатор кодека : XVID
Идентификатор кодека/Подсказка : XviD
Продолжительность : 1 ч. 50 м.
Битрейт : 1204 Кбит/сек
Ширина : 512 пикселей
Высота : 384 пикселя
Соотношение сторон : 4:3
Частота кадров : 23,976 кадра/сек
Цветовое пространство : YUV
Субдискретизация насыщенности : 4:2:0
Битовая глубина : 8 бит
Тип развёртки : Прогрессивная
Метод сжатия : С потерями
Бит/(Пиксели*Кадры) : 0.255
Размер потока : 953 Мбайт (67%)
Библиотека кодирования : XviD 1.2.0.dev47 (UTC 2006-11-01)

Аудио #1
Идентификатор : 1
Формат : AC-3
Формат/Информация : Audio Coding 3
Расширение режима : CM (complete main)
Параметр Endianness формата : Big
Идентификатор кодека : 2000
Продолжительность : 1 ч. 50 м.
Вид битрейта : Постоянный
Битрейт : 192 Кбит/сек
Каналы : 2 канала
Расположение каналов : Front: L R
Частота : 48,0 КГц
Битовая глубина : 16 бит
Метод сжатия : С потерями
Задержка видео : 900 мс.
Размер потока : 152 Мбайт (11%)
Выравнивание : Разделение по промежуткам
Продолжительность промежутка : 42 мс. (1,00 видеокадр)
Время предзагрузки промежутка : 500 мс.
Язык : English

Аудио #2
Идентификатор : 2
Формат : AC-3
Формат/Информация : Audio Coding 3
Расширение режима : CM (complete main)
Параметр Endianness формата : Big
Идентификатор кодека : 2000
Продолжительность : 1 ч. 50 м.
Вид битрейта : Постоянный
Битрейт : 192 Кбит/сек
Каналы : 2 канала
Расположение каналов : Front: L R
Частота : 44,1 КГц
Битовая глубина : 16 бит
Метод сжатия : С потерями
Размер потока : 152 Мбайт (11%)
Выравнивание : Разделение по промежуткам
Продолжительность промежутка : 42 мс. (1,00 видеокадр)
Время предзагрузки промежутка : 500 мс.

Аудио #3
Идентификатор : 3
Формат : AC-3
Формат/Информация : Audio Coding 3
Расширение режима : CM (complete main)
Параметр Endianness формата : Big
Идентификатор кодека : 2000
Продолжительность : 1 ч. 50 м.
Вид битрейта : Постоянный
Битрейт : 192 Кбит/сек
Каналы : 2 канала
Расположение каналов : Front: L R
Частота : 44,1 КГц
Битовая глубина : 16 бит
Метод сжатия : С потерями
Размер потока : 152 Мбайт (11%)
Выравнивание : Разделение по промежуткам
Продолжительность промежутка : 42 мс. (1,00 видеокадр)
Время предзагрузки промежутка : 500 мс.
Скриншоты:



Время раздачи: По выходным с 12 до 22, иногда вечером в будние дни
[NNM-Club.me]_Made_in_America_1993_DVDRip.avi.torrent
 Торрент: Платиновая раздача  Зарегистрирован
 
Скачать


Примагнититься
 Зарегистрирован:   09 Сен 2014 21:42:43
 Размер:   1.39 GB  (
 Рейтинг:   4.5 (Голосов: 34)
 Поблагодарили:   160
 Проверка:   Оформление проверено модератором 10 Сен 2014 03:49:33
Как cкачать  ·  Как раздать  ·  Правильно оформить  ·  Поднять ратио!  
genvol
Стаж: 12 лет 10 мес.
Сообщений: 653
Ratio: 0.398
100%
Откуда: Vilnius
lithuania.gif
:цветок: Старый но очень хороший фильм! :поцелуй:
Показать сообщения:   
Начать новую тему   Ответить на тему    Торрент-трекер NNM-Club -> Зарубежное кино -> Зарубежные Фильмы (SD) Часовой пояс: GMT + 3
Страница 1 из 1