Классический форум-трекер
canvas not supported
Нас вместе: 4 113 877

Гарри Поттер и тайная комната / Harry Potter and the Chamber of Secrets (2002) HDRip [H.264] [Ultimate Cut]


 
 
RSS
Начать новую тему   Ответить на тему    Торрент-трекер NNM-Club -> Зарубежное кино -> Зарубежные Фильмы (HD*Rip/LQ, DVDRip, SATRip, VHSRip)
Автор Сообщение
MAG3131 ®
Стаж: 8 лет 3 мес.
Сообщений: 3492
Ratio: 373,835
Поблагодарили: 95436
100%
Откуда: Санкт-Петербург
russia.gif
Гарри Поттер и тайная комната / Harry Potter and the Chamber of Secrets (2002) HDRip [H.264]
[Максимальная версия / Ultimate Cut]

Год выпуска: 2002
Производство: США, Великобритания, Германия / 1492 Pictures, Heyday Films, MIRACLE Productions GmbH & Co. KG, Warner Bros. Pictures
Жанр: Приключения, Семейный, Фэнтези
Перевод: Дублированный
Субтитры: Отсутствуют

Дата мировой премьеры: 3 ноября 2002
Дата российской премьеры: 26 декабря 2002, «Каро-Премьер»
Дата выхода Blu-ray релиза: 20 января 2009, «Юниверсал Пикчерс Рус»
Дата выхода DVD релиза: 23 июня 2009, «Юниверсал Пикчерс Рус»

Режиссер: Крис Коламбус
Продюсер: Дэвид Хейман, Майкл Барнатан, Дэвид Баррон
Актеры: Дэниэл Рэдклифф, Руперт Гринт, Эмма Уотсон, Том Фелтон, Кеннет Брана, Бонни Райт, Алан Рикман, Ричард Харрис, Мэгги Смит, Робби Колтрейн

Описание фильма:
Гарри Поттер переходит на второй курс Школы чародейства и волшебства Хогвартс. Эльф Добби предупреждает Гарри об опасности, которая поджидает его там, и просит больше не возвращаться в школу.
Юный волшебник не следует совету эльфа и становится свидетелем таинственных событий, разворачивающихся в Хогвартсе. Вскоре Гарри и его друзья узнают о существовании Тайной Комнаты и сталкиваются с новыми приключениями, пытаясь победить темные силы.



Продолжительность: 02:54:25
Качество видео: HDRip

Видео: MPEG-4 AVC/H.264, 1024x424, ~1488 Кбит/сек, 23,976 кадра/сек, 0.143 Пиксели/Кадры
Аудио: AC-3, 192 Кбит/сек, 2 канала (Русский - Дублированный с одной вставкой любительского псевдодубляжа ''Martokс'')
Сэмпл: Скачать
Общее
Уникальный идентификатор : 224943684589001839966154511281991326958 (0xA93A93EA60C997E3A969EB5FE79A1CEE)
Полное имя : Гарри Поттер - 02 ''Тайная комната'' (Максимальная версия) (Harry Potter And The Chamber Of Secrets) (Ultimate Cut).mkv
Формат : Matroska
Версия формата : Version 2
Размер файла : 2,05 Гбайт
Продолжительность : 2 ч. 54 м.
Общий поток : 1682 Кбит/сек
Дата кодирования : UTC 2014-09-06 19:01:11
Программа кодирования : mkvmerge v3.4.0 ('Rapunzel') сборка от May 15 2010 09:38:20
Библиотека кодирования : libebml v0.8.0 + libmatroska v0.9.0

Видео
Идентификатор : 1
Формат : AVC
Формат/Информация : Advanced Video Codec
Профиль формата : High@L4.1
Параметр CABAC формата : Да
Параметр ReFrames формата : 11 кадров
Идентификатор кодека : V_MPEG4/ISO/AVC
Продолжительность : 2 ч. 54 м.
Битрейт : 1488 Кбит/сек
Ширина : 1024 пикселя
Высота : 424 пикселя
Соотношение сторон : 2,40:1
Режим частоты кадров : Постоянный
Частота кадров : 23,976 кадра/сек
Цветовое пространство : YUV
Субдискретизация насыщенности : 4:2:0
Битовая глубина : 8 бит
Тип развёртки : Прогрессивная
Бит/(Пиксели*Кадры) : 0.143
Размер потока : 1,77 Гбайт (87%)
Заголовок : Гарри Поттер - 02 ''Тайная комната'' (Максимальная версия) (Harry Potter And The Chamber Of Secrets) (Ultimate Cut)
Библиотека кодирования : x264 core 142 r2431 ac76440
Настройки программы : cabac=1 / ref=11 / deblock=1:-1:-1 / analyse=0x3:0x133 / me=umh / subme=11 / psy=1 / psy_rd=1.00:0.15 / mixed_ref=1 / me_range=64 / chroma_me=1 / trellis=2 / 8x8dct=1 / cqm=0 / deadzone=21,11 / fast_pskip=0 / chroma_qp_offset=-3 / threads=3 / lookahead_threads=1 / sliced_threads=0 / nr=0 / decimate=0 / interlaced=0 / bluray_compat=0 / constrained_intra=0 / bframes=16 / b_pyramid=2 / b_adapt=2 / b_bias=0 / direct=3 / weightb=1 / open_gop=0 / weightp=2 / keyint=240 / keyint_min=23 / scenecut=40 / intra_refresh=0 / rc_lookahead=60 / rc=2pass / mbtree=0 / bitrate=1488 / ratetol=1.0 / qcomp=0.60 / qpmin=0 / qpmax=69 / qpstep=4 / cplxblur=20.0 / qblur=0.5 / vbv_maxrate=50000 / vbv_bufsize=62500 / nal_hrd=none / filler=0 / ip_ratio=1.40 / pb_ratio=1.30 / aq=1:1.00
Язык : English
Default : Да
Forced : Нет

Аудио
Идентификатор : 2
Формат : AC-3
Формат/Информация : Audio Coding 3
Расширение режима : CM (complete main)
Параметр Endianness формата : Big
Идентификатор кодека : A_AC3
Продолжительность : 2 ч. 54 м.
Вид битрейта : Постоянный
Битрейт : 192 Кбит/сек
Каналы : 2 канала
Расположение каналов : Front: L R
Частота : 48,0 КГц
Битовая глубина : 16 бит
Метод сжатия : С потерями
Размер потока : 240 Мбайт (11%)
Заголовок : Дублированный (AC-3, Постоянный, 192 Кбит/сек, 2 канала, 48,0 КГц, 16 бит)
Язык : Russian
Default : Да
Forced : Нет
Скриншоты:


Время раздачи: По возможности 24/7 до первых 10 скачавших (потом могу уйти с раздачи)
[NNM-Club.me]_Garri Potter - 02 ''Taynaya komnata'' (Maksimal'naya versiya) (Harry Potter And The Chamber Of Secrets) (Ultimate Cut).mkv.torrent
 Торрент: Платиновая раздача  Зарегистрирован
 
Скачать


Примагнититься
 Зарегистрирован:   08 Сен 2014 02:52:45
 Размер:   2,05 GB  (
 Рейтинг:   4,8 (Голосов: 188)
 Поблагодарили:   751
 Проверка:   Оформление проверено модератором 08 Сен 2014 03:49:25
Как cкачать  ·  Как раздать  ·  Правильно оформить  ·  Поднять ратио!  
BreathBoy
Стаж: 9 лет 10 мес.
Сообщений: 59
Ratio: 18,629
100%
kazakhstan.gif
А в чем заключается "ультимат"?
Чуточку поподробнее пожалуйста:)
lexer1037
Стаж: 9 лет 10 мес.
Сообщений: 122
Ratio: 22,063
Раздал: 3,578 TB
58.67%
6-7 минут новых сцен понятно, а где какие?
MAG3131 ®
Стаж: 8 лет 3 мес.
Сообщений: 3492
Ratio: 373,835
Поблагодарили: 95436
100%
Откуда: Санкт-Петербург
russia.gif
lexer1037 писал(а): Перейти к сообщению
6-7 минут новых сцен понятно, а где какие?


Честно говоря не считал дополнительные сцены.

_________________
Здесь рипы больше не выкладываю и раздачи не поддерживаю.Вскором времени будет поднята фтп где можно будет по просьбе скачать рипы из моей коллекции. Рипы под заказ делаю только на платной основе.
KINOPOISK
Стаж: 6 лет 6 мес.
Сообщений: 16
Ratio: 7,877
6.2%
russia.gif
Спасибо за режиссерскую версию. А можете сделать режиссерскую версию 1.45 GB для DVD проигрывателя
MAG3131 ®
Стаж: 8 лет 3 мес.
Сообщений: 3492
Ratio: 373,835
Поблагодарили: 95436
100%
Откуда: Санкт-Петербург
russia.gif
KINOPOISK писал(а): Перейти к сообщению
Спасибо за режиссерскую версию. А можете сделать режиссерскую версию 1.45 GB для DVD проигрывателя

В коллекции есть. но размер экрана будет 720*ххх. Если интересует в ЛС.

_________________
Здесь рипы больше не выкладываю и раздачи не поддерживаю.Вскором времени будет поднята фтп где можно будет по просьбе скачать рипы из моей коллекции. Рипы под заказ делаю только на платной основе.
Показать сообщения:   
Начать новую тему   Ответить на тему    Торрент-трекер NNM-Club -> Зарубежное кино -> Зарубежные Фильмы (HD*Rip/LQ, DVDRip, SATRip, VHSRip) Часовой пояс: GMT + 3
Страница 1 из 1