Классический форум-трекер
canvas not supported
Нас вместе: 4 114 430

Гарри Поттер и тайная комната / Harry Potter and the Chamber of Secrets (2002) BDRip [720p] [Ultimate Cut]


 
 
RSS
Начать новую тему   Ответить на тему    Торрент-трекер NNM-Club -> Зарубежное кино -> Зарубежные Фильмы (HD, UHD-LQ)
Автор Сообщение
MAG3131 ®
Стаж: 8 лет 3 мес.
Сообщений: 3492
Ratio: 373,859
Поблагодарили: 95449
100%
Откуда: Санкт-Петербург
russia.gif
Гарри Поттер и тайная комната / Harry Potter and the Chamber of Secrets (2002) BDRip [720p]
[Максимальная версия / Ultimate Cut]

Год выпуска: 2002
Производство: США, Великобритания, Германия / 1492 Pictures, Heyday Films, MIRACLE Productions GmbH & Co. KG, Warner Bros. Pictures
Жанр: Приключения, Семейный, Фэнтези
Перевод: Дублированный
Субтитры: Отсутствуют

Дата мировой премьеры: 3 ноября 2002
Дата российской премьеры: 26 декабря 2002, «Каро-Премьер»
Дата выхода Blu-ray релиза: 20 января 2009, «Юниверсал Пикчерс Рус»
Дата выхода DVD релиза: 23 июня 2009, «Юниверсал Пикчерс Рус»

Режиссер: Крис Коламбус
Продюсер: Дэвид Хейман, Майкл Барнатан, Дэвид Баррон
Актеры: Дэниэл Рэдклифф, Руперт Гринт, Эмма Уотсон, Том Фелтон, Кеннет Брана, Бонни Райт, Алан Рикман, Ричард Харрис, Мэгги Смит, Робби Колтрейн

Описание фильма:
Гарри Поттер переходит на второй курс Школы чародейства и волшебства Хогвартс. Эльф Добби предупреждает Гарри об опасности, которая поджидает его там, и просит больше не возвращаться в школу.
Юный волшебник не следует совету эльфа и становится свидетелем таинственных событий, разворачивающихся в Хогвартсе. Вскоре Гарри и его друзья узнают о существовании Тайной Комнаты и сталкиваются с новыми приключениями, пытаясь победить темные силы.



Автор рипа: cage.nikol

Продолжительность: 02:54:25
Качество видео: BDRip [Profile LQ]

Видео: MPEG-4 AVC/H.264, 1280x534, ~4515 Кбит/сек, 23,976 кадра/сек, 0.276 Пиксели/Кадры
Аудио #1: AC-3, 448 Кбит/сек, 6 каналов (Русский - Дублированный с одной вставкой любительского псевдодубляжа ''Martokс'')
Аудио #2: AC-3, 448 Кбит/сек, 6 каналов (Английский - Оригинал)
Сэмпл: Скачать
Общее
Уникальный идентификатор : 179485833987471698044014230179947818348 (0x8707B6D7944BDF7A83BB1009A9512D6C)
Полное имя : I:\торренты на раздаче\Гарри Поттер - 02 (Harry Potter - 02) (720p).mkv
Формат : Matroska
Версия формата : Version 4 / Version 2
Размер файла : 6,59 Гбайт
Продолжительность : 2 ч. 54 м.
Общий поток : 5412 Кбит/сек
Название фильма : by Martokc
Дата кодирования : UTC 2014-08-16 12:14:05
Программа кодирования : mkvmerge v6.9.1 ('Blue Panther') 32bit built on Apr 18 2014 18:15:44
Библиотека кодирования : libebml v1.3.0 + libmatroska v1.4.1

Видео
Идентификатор : 1
Формат : AVC
Формат/Информация : Advanced Video Codec
Профиль формата : High@L4.1
Параметр CABAC формата : Да
Параметр ReFrames формата : 8 кадров
Идентификатор кодека : V_MPEG4/ISO/AVC
Продолжительность : 2 ч. 54 м.
Битрейт : 4515 Кбит/сек
Ширина : 1280 пикселей
Высота : 534 пикселя
Соотношение сторон : 2,40:1
Режим частоты кадров : Постоянный
Частота кадров : 23,976 кадра/сек
Цветовое пространство : YUV
Субдискретизация насыщенности : 4:2:0
Битовая глубина : 8 бит
Тип развёртки : Прогрессивная
Бит/(Пиксели*Кадры) : 0.276
Размер потока : 5,37 Гбайт (81%)
Заголовок : Harry.Potter.and.the.Chamber.of.Secrets.2002.Extended.Cut.720p.BluRay.X264-CHD
Библиотека кодирования : x264 core 84 r1416kGIT fcf70c2
Настройки программы : cabac=1 / ref=8 / deblock=1:-2:-2 / analyse=0x3:0x133 / me=umh / subme=9 / psy=1 / psy_rd=1.0:0.2 / mixed_ref=0 / me_range=16 / chroma_me=1 / trellis=1 / 8x8dct=1 / cqm=0 / deadzone=21,11 / fast_pskip=0 / chroma_qp_offset=-3 / threads=12 / sliced_threads=0 / nr=0 / decimate=0 / mbaff=0 / constrained_intra=0 / bframes=3 / b_pyramid=0 / b_adapt=2 / b_bias=0 / direct=1 / wpredb=1 / wpredp=2 / keyint=250 / keyint_min=25 / scenecut=40 / intra_refresh=0 / rc_lookahead=50 / rc=2pass / mbtree=1 / bitrate=4515 / ratetol=1.0 / qcomp=0.60 / qpmin=10 / qpmax=51 / qpstep=4 / cplxblur=20.0 / qblur=0.5 / vbv_maxrate=50000 / vbv_bufsize=50000 / ip_ratio=1.40 / aq=1:1.00
Язык : English
Default : Да
Forced : Нет

Аудио #1
Идентификатор : 2
Формат : AC-3
Формат/Информация : Audio Coding 3
Расширение режима : CM (complete main)
Параметр Endianness формата : Big
Идентификатор кодека : A_AC3
Продолжительность : 2 ч. 54 м.
Вид битрейта : Постоянный
Битрейт : 448 Кбит/сек
Каналы : 6 каналов
Расположение каналов : Front: L C R, Side: L R, LFE
Частота : 48,0 КГц
Битовая глубина : 16 бит
Метод сжатия : С потерями
Размер потока : 559 Мбайт (8%)
Заголовок : Дубляж
Язык : Russian
Default : Да
Forced : Нет

Аудио #2
Идентификатор : 3
Формат : AC-3
Формат/Информация : Audio Coding 3
Расширение режима : CM (complete main)
Параметр Endianness формата : Big
Идентификатор кодека : A_AC3
Продолжительность : 2 ч. 54 м.
Вид битрейта : Постоянный
Битрейт : 448 Кбит/сек
Каналы : 6 каналов
Расположение каналов : Front: L C R, Side: L R, LFE
Частота : 48,0 КГц
Битовая глубина : 16 бит
Метод сжатия : С потерями
Размер потока : 559 Мбайт (8%)
Заголовок : Original
Язык : English
Default : Нет
Forced : Нет
Скриншоты:


Время раздачи: По возможности 24/7 до первых 10 скачавших (потом могу уйти с раздачи)
[NNM-Club.me]_Garri Potter - 02 (Harry Potter - 02) (720p).mkv.torrent
 Торрент: Платиновая раздача  Зарегистрирован
 
Скачать


Примагнититься
 Зарегистрирован:   08 Сен 2014 03:17:06
 Размер:   6,59 GB  (
 Рейтинг:   4,7 (Голосов: 94)
 Поблагодарили:   365
 Проверка:   Оформление проверено модератором 08 Сен 2014 03:50:18
Как cкачать  ·  Как раздать  ·  Правильно оформить  ·  Поднять ратио!  
Soap Maker
Стаж: 7 лет 8 мес.
Сообщений: 54
Ratio: 10,821
0%
так вроде же расширенки первых 2 частей выходили в россии официально в нормальном дубляже? у первого фильма он есть например (на расширенные отрывки в том числе, в смысле)
DMcardistry
Стаж: 6 лет 9 мес.
Сообщений: 27
Ratio: 15,235
100%
Soap Maker писал(а): Перейти к сообщению
так вроде же расширенки первых 2 частей выходили в россии официально в нормальном дубляже? у первого фильма он есть например (на расширенные отрывки в том числе, в смысле)

ага и 3ий фильм тоже. На диск с доп материалами на двд точно был перевод на не вошедшие эпизодов.
MAG3131 ®
Стаж: 8 лет 3 мес.
Сообщений: 3492
Ratio: 373,859
Поблагодарили: 95449
100%
Откуда: Санкт-Петербург
russia.gif
В лицензионной версии эту сцену почему-то не перевели, так что перевод сделан любительский на этот кусок.

_________________
Здесь рипы больше не выкладываю и раздачи не поддерживаю.Вскором времени будет поднята фтп где можно будет по просьбе скачать рипы из моей коллекции. Рипы под заказ делаю только на платной основе.
MuzbIkant
Стаж: 9 лет 10 мес.
Сообщений: 12
Ratio: 1,31
100%
Откуда: Минск
belarus.gif
Встаньте на раздачу пожалуйста)
Показать сообщения:   
Начать новую тему   Ответить на тему    Торрент-трекер NNM-Club -> Зарубежное кино -> Зарубежные Фильмы (HD, UHD-LQ) Часовой пояс: GMT + 3
Страница 1 из 1