Классический форум-трекер
canvas not supported
Нас вместе: 4 233 109

Владимир Высоцкий. Где вы, волки?! (Полный) (2005) DVDRip


 
 
RSS
Начать новую тему   Ответить на тему    Торрент-трекер NNM-Club -> Документалистика и Телепередачи -> Посвящение искусству
Автор Сообщение
smpeal ®
Стаж: 11 лет 9 мес.
Сообщений: 62
Ratio: 99.87
Поблагодарили: 7340
100%
ussr.gif
Владимир Высоцкий. Где вы, волки?! (Полный) (2005) DVDRip
Режиссер / Телекомпания: Александр Ковановский / ТО "Ракурс"
Год выпуска: 2005
Жанр: Документальный

Описание:
Это скорее музыкальный, а не документальный фильм. Владимир Высоцкий практически не пел песни не предварив их своеобразным вступлением. А несколько минутных интервью в фильме не делают его документальным, в смысле разговоров. В фильм включены несколько песен ранее не демонстрировавшихся.

Продолжительность: 00:55:12 + 00:18:43
Качество видео: DVDRip

Видеокодек: Xvid
Битрейт видео: ~1799 Kbps
Размер кадра: 576х432
Аудиокодек: AC3
Битрейт аудио: 256 Kbps, 2 канала
01. Интервью в Зеленограде
02. Конец "Охоты на волков", или Охота с вертолетов
03. О фатальных датах и цифрах
04. Песня акына
05. Песенка о переселении душ
06. Утренняя гимнастика
07. Интервью телекомпании WDR
08. Кони привередливые
09. Мы верные, испытанные кони...
10. Очи черные. Погоня
11. Он не вернулся из боя (1975)
12. Когда на смерть идут - поют...
13. Братские могилы
14. Песня о звездах (фрагмент)
15. Он не вернулся из боя (фрагмент, 1980)
16. Спасите наши души
17. Баллада о брошенном корабле (1977)
18. Сколько чудес за туманами кроется...
19. Я из дела ушел
20. Человек за бортом (фонограмма)
21. Я не люблю
22. Баллада о брошенном корабле (фонограмма, 1973)


Общее
Полное имя : Y:\Фильмы\Документальные\Где вы, волки\Где вы, волки (2005) DVDRip.avi
Формат : AVI
Формат/Информация : Audio Video Interleave
Размер файла : 815 Мбайт
Продолжительность : 55 м.
Общий поток : 2065 Кбит/сек
Программа кодирования : VirtualDubMod 1.5.10.2 (build 2540/release)
Библиотека кодирования : VirtualDubMod build 2540/release

Видео
Идентификатор : 0
Формат : MPEG-4 Visual
Профиль формата : Advanced Simple@L5
Параметр BVOP формата : 2
Параметр QPel формата : Нет
Параметр GMC формата : Без точки перехода
Параметр матрицы формата : Default (H.263)
Режим смешивания : Сжатый битовый поток
Идентификатор кодека : XVID
Идентификатор кодека/Подсказка : XviD
Продолжительность : 55 м.
Битрейт : 1799 Кбит/сек
Ширина : 576 пикселей
Высота : 432 пикселя
Соотношение сторон : 4:3
Частота кадров : 25,000 кадров/сек
Цветовое пространство : YUV
Субдискретизация насыщенности : 4:2:0
Битовая глубина : 8 бит
Тип развёртки : Прогрессивная
Метод сжатия : С потерями
Бит/(Пиксели*Кадры) : 0.289
Размер потока : 710 Мбайт (87%)
Библиотека кодирования : XviD 64

Аудио
Идентификатор : 1
Формат : AC-3
Формат/Информация : Audio Coding 3
Расширение режима : CM (complete main)
Параметр Endianness формата : Big
Идентификатор кодека : 2000
Продолжительность : 55 м.
Вид битрейта : Постоянный
Битрейт : 256 Кбит/сек
Каналы : 2 канала
Расположение каналов : Front: L R
Частота : 48,0 КГц
Битовая глубина : 16 бит
Метод сжатия : С потерями
Размер потока : 101 Мбайт (12%)
Выравнивание : Разделение по промежуткам
Продолжительность промежутка : 40 мс. (1,00 видеокадр)
Время предзагрузки промежутка : 500 мс.
Скриншоты:



Время раздачи: По выходным с 12 до 22, иногда вечером в будни
[NNM-Club.me]_V.Vysotsky_Gde_vy_volki_2005_DVDRip_Full.avi.torrent
 Торрент: Платиновая раздача  Зарегистрирован
 
Скачать


Примагнититься
 Зарегистрирован:   11 Сен 2014 23:20:29
 Размер:   1.06 GB  (
 Рейтинг:   4.8 (Голосов: 92)
 Поблагодарили:   295
 Проверка:   Оформление проверено модератором 12 Сен 2014 16:26:51
Как cкачать  ·  Как раздать  ·  Правильно оформить  ·  Поднять ратио!  
Bacha
Стаж: 14 лет 7 мес.
Сообщений: 1533
Ratio: 129.865
Поблагодарили: 2603
100%
Откуда: СССР
nnm-club.gif
Благодарю! :клево: :респект:

_________________
Не старость сама по себе уважается, а прожитая жизнь. Если она была. /В. Шукшин/
Показать сообщения:   
Начать новую тему   Ответить на тему    Торрент-трекер NNM-Club -> Документалистика и Телепередачи -> Посвящение искусству Часовой пояс: GMT + 3
Страница 1 из 1