Классический форум-трекер
canvas not supported
Нас вместе: 4 210 998

Гарри Поттер и философский камень / Harry Potter and the Sorcerer's Stone (2001) BDRip [1080p] [Ultimate Cut]


 
 
RSS
Начать новую тему   Ответить на тему    Торрент-трекер NNM-Club -> Зарубежное кино -> Зарубежные Фильмы (HD, FHD)
Автор Сообщение
Anton-M ®
Стаж: 8 лет 5 мес.
Сообщений: 149
Ratio: 11.829
Раздал: 7.219 TB
Поблагодарили: 14467
100%
Откуда: Brighton
uk.gif
Гарри Поттер и философский камень / Harry Potter and the Sorcerer's Stone (2001) BDRip [1080p]
[Максимальная версия / Ultimate Cut]

Год выпуска: 2001
Жанр: Приключения, Семейный, Фэнтези

Описание фильма:
Жизнь десятилетнего Гарри Поттера нельзя назвать сладкой: его родители умерли, едва ему исполнился год, а от дяди и тётки, взявших сироту на воспитание, достаются лишь тычки да подзатыльники. Но в одиннадцатый день рождения Гарри всё меняется. Странный гость, неожиданно появившийся на пороге, приносит письмо, из которого мальчик узнаёт, что на самом деле он чистокровный волшебник и принят в Хогвартс — школу магии. А уже через пару недель Гарри будет мчаться в поезде Хогвартс-экспресс навстречу новой жизни, где его ждут невероятные приключения, верные друзья и самое главное — ключ к разгадке тайны смерти его родителей.

Режиссер: Крис Коламбус
Актеры: Дэниэл Рэдклифф, Руперт Гринт, Эмма Уотсон, Ричард Харрис, Алан Рикман, Мэгги Смит, Робби Колтрейн, Том Фелтон, Мэттью Льюис, Иэн Харт

Продолжительность: 02:38:50
Качество видео: BDRip
Перевод: Дублированный
Субтитры: Отсутствуют



Дата мировой премьеры: 4 ноября 2001
Дата российской премьеры: 21 марта 2002
Дата выхода DVD релиза: 23 июня 2009

Видеокодек: MPEG-4 AVC/H.264
Битрейт видео: ~8 082 Kbps
Размер кадра: 1920 x 796
Аудио 1: Dolby AC3 48000Hz 6ch 448 Kbps [Русский]
Аудио 2: Dolby AC3 48000Hz 6ch 640 Kbps [Английский]
Format : Matroska
Format version : Version 4 / Version 2
File size : 10.2 GiB
Duration : 2h 38mn
Overall bit rate : 9 172 Kbps
Movie name : Harry Potter and the Sorcerer's Stone (2001)
Encoded date : UTC 2014-09-12 02:01:40
Writing application : mkvmerge v7.1.0 ('Good Love') 64bit built on Jul 27 2014 13:06:55
Writing library : libebml v1.3.0 + libmatroska v1.4.1

Video
ID : 1
Format : AVC
Format/Info : Advanced Video Codec
Format profile : High@L4.1
Format settings, CABAC : Yes
Format settings, ReFrames : 5 frames
Codec ID : V_MPEG4/ISO/AVC
Duration : 2h 38mn
Bit rate : 8 082 Kbps
Width : 1 920 pixels
Height : 796 pixels
Display aspect ratio : 2.40:1
Frame rate mode : Constant
Frame rate : 23.976 fps
Color space : YUV
Chroma subsampling : 4:2:0
Bit depth : 8 bits
Scan type : Progressive
Bits/(Pixel*Frame) : 0.221
Stream size : 8.77 GiB (86%)
Writing library : x264 core 142 r2479 dd79a61
Encoding settings : cabac=1 / ref=5 / deblock=1:0:0 / analyse=0x3:0x113 / me=umh / subme=9 / psy=1 / psy_rd=1.00:0.00 / mixed_ref=1 / me_range=24 / chroma_me=1 / trellis=2 / 8x8dct=1 / cqm=0 / deadzone=21,11 / fast_pskip=1 / chroma_qp_offset=-2 / threads=6 / lookahead_threads=1 / sliced_threads=0 / nr=0 / decimate=1 / interlaced=0 / bluray_compat=0 / constrained_intra=0 / bframes=7 / b_pyramid=2 / b_adapt=2 / b_bias=0 / direct=3 / weightb=1 / open_gop=0 / weightp=2 / keyint=240 / keyint_min=24 / scenecut=40 / intra_refresh=0 / rc=2pass / mbtree=0 / bitrate=8082 / ratetol=1.0 / qcomp=0.60 / qpmin=0 / qpmax=69 / qpstep=4 / cplxblur=20.0 / qblur=0.5 / ip_ratio=1.40 / pb_ratio=1.30 / aq=1:1.00
Language : English
Default : Yes
Forced : No

Audio #1
ID : 2
Format : AC-3
Format/Info : Audio Coding 3
Mode extension : CM (complete main)
Format settings, Endianness : Big
Codec ID : A_AC3
Duration : 2h 38mn
Bit rate mode : Constant
Bit rate : 448 Kbps
Channel(s) : 6 channels
Channel positions : Front: L C R, Side: L R, LFE
Sampling rate : 48.0 KHz
Bit depth : 16 bits
Compression mode : Lossy
Stream size : 509 MiB (5%)
Title : Dub
Language : Russian
Default : Yes
Forced : No

Audio #2
ID : 3
Format : AC-3
Format/Info : Audio Coding 3
Mode extension : CM (complete main)
Format settings, Endianness : Big
Codec ID : A_AC3
Duration : 2h 38mn
Bit rate mode : Constant
Bit rate : 640 Kbps
Channel(s) : 6 channels
Channel positions : Front: L C R, Side: L R, LFE
Sampling rate : 48.0 KHz
Bit depth : 16 bits
Compression mode : Lossy
Stream size : 727 MiB (7%)
Title : Original
Language : English
Default : No
Forced : No
x264 [info]: frame I:1913 Avg QP:14.26 size:204824
x264 [info]: frame P:58294 Avg QP:16.44 size: 77909
x264 [info]: frame B:168298 Avg QP:17.90 size: 27898
Скриншоты:




Время раздачи: С 19:00 до 7:00 (до первых скачавших)
 Торрент: Платиновая раздача  Зарегистрирован
 
Скачать


Примагнититься
 Зарегистрирован:   12 Сен 2014 12:03:47
 Размер:   10.2 GB  (
 Рейтинг:   4.8 (Голосов: 220)
 Поблагодарили:   785
 Проверка:   Оформление проверено модератором 14 Сен 2014 00:54:23
Как cкачать  ·  Как раздать  ·  Правильно оформить  ·  Поднять ратио!  
Soap Maker
Стаж: 10 лет 2 мес.
Сообщений: 54
Ratio: 10.821
0%
Какие части еще будут в ультимейт 1080?

Добавлено спустя 15 секунд:

И да, спасибо)
Anton-M ®
Стаж: 8 лет 5 мес.
Сообщений: 149
Ratio: 11.829
Раздал: 7.219 TB
Поблагодарили: 14467
100%
Откуда: Brighton
uk.gif
Soap Maker
Пожалуйста :)
Официально вышли только первые две части, все остальные кустарного производства, их особого смысла нет делать. Поэтому если найду расширенный блюрик второй части, сделаю еще и его.
Enzo0y
Стаж: 11 лет 3 мес.
Сообщений: 141
Ratio: 7.848
100%
Откуда: от туда
russia.gif
Спасибо!

_________________
Для того что бы скачать что нибудь нужное,нужно сначала раздать что нибудь не нужное.
cac95
Стаж: 9 лет 1 мес.
Сообщений: 2
Ratio: 0.514
1.16%
Почему субтитров нет?
Demoul
Стаж: 9 лет 8 мес.
Сообщений: 174
Ratio: 35.659
Поблагодарили: 899
100%
Откуда: Kinoworld
nnm-club.gif
А полный можете выставить блюрей или хотя бы ремукс ?
Anton-M ®
Стаж: 8 лет 5 мес.
Сообщений: 149
Ratio: 11.829
Раздал: 7.219 TB
Поблагодарили: 14467
100%
Откуда: Brighton
uk.gif
Блюрика нет и вряд ли будет (только театралка), а ремукс могу выложить через несколько дней, когда немного освобожусь. Там и англ. субтитры есть (я их нашел уже после того, как создал эту раздачу). Если забуду, напомните в личку :)
Exies27
Стаж: 8 лет 2 мес.
Сообщений: 128
Ratio: 0.488
100%
nnm-club.gif
Решил пересмотреть эти фильмы =)
freon1131
Стаж: 11 лет 5 мес.
Сообщений: 5
Ratio: 15.616
0.82%
cac95 писал(а): Перейти к сообщению
Почему субтитров нет?

Субтитры: Отсутствуют
shadowlmd
Стаж: 7 лет 1 мес.
Сообщений: 2
Ratio: 187.046
100%
Можно хотя бы отдельным файлом английские сабы к этому релизу?
Показать сообщения:   
Начать новую тему   Ответить на тему    Торрент-трекер NNM-Club -> Зарубежное кино -> Зарубежные Фильмы (HD, FHD) Часовой пояс: GMT + 3
Страница 1 из 1