Классический форум-трекер
canvas not supported
Нас вместе: 4 114 430

Гарри Поттер и тайная комната / Harry Potter and the Chamber of Secrets (2002) BDRip [H.264/1080p-LQ] [Ultimate Cut]


 
 
RSS
Начать новую тему   Ответить на тему    Торрент-трекер NNM-Club -> Зарубежное кино -> Зарубежные Фильмы (HD*Rip/LQ, DVDRip, SATRip, VHSRip)
Автор Сообщение
Anton-M ®
Стаж: 5 лет 11 мес.
Сообщений: 149
Ratio: 13,334
Раздал: 6,993 TB
Поблагодарили: 13572
100%
Откуда: Brighton
uk.gif
Гарри Поттер и тайная комната / Harry Potter and the Chamber of Secrets (2002) BDRip
Год выпуска: 2002
Жанр: Приключения, Фэнтези, Фантастика

Описание фильма:
Гарри Поттер переходит на второй курс Школы чародейства и волшебства Хогвартс. Эльф Добби предупреждает Гарри об опасности, которая поджидает его там, и просит больше не возвращаться в школу.

Юный волшебник не следует совету эльфа и становится свидетелем таинственных событий, разворачивающихся в Хогвартсе. Вскоре Гарри и его друзья узнают о существовании Тайной Комнаты и сталкиваются с новыми приключениями, пытаясь победить темные силы.

Режиссер: Крис Коламбус
Актеры: Дэниэл Рэдклифф, Руперт Гринт, Эмма Уотсон, Том Фелтон, Кеннет Брана, Бонни Райт, Алан Рикман, Ричард Харрис, Мэгги Смит, Робби Колтрейн

Продолжительность: 02:54:25
Качество видео: BDRip
Перевод: Дублированный с одной вставкой любительского псевдодубляжа ''Martokс''
Язык субтитров: Английские
Вид субтитров: Вшитые (отключаемые)



Дата мировой премьеры: 3 ноября 2002
Дата российской премьеры: 26 декабря 2002
Дата выхода DVD релиза: 23 июня 2009

Видеокодек: MPEG-4 AVC/H.264
Битрейт видео: ~6 603 Kbps
Размер кадра: 1916 x 800
Аудио 1: Dolby AC3 48000Hz 6ch 448 Kbps [Русский]
Аудио 2: Dolby AC3 48000Hz 6ch 640 Kbps [Английский]



Format : Matroska
Format version : Version 4 / Version 2
File size : 9.37 GiB
Duration : 2h 54mn
Overall bit rate : 7 693 Kbps
Movie name : Harry Potter and the Chamber of Secrets (2002)
Encoded date : UTC 2014-09-28 23:32:00
Writing application : mkvmerge v7.2.0 ('On Every Street') 64bit built on Sep 13 2014 15:52:10
Writing library : libebml v1.3.0 + libmatroska v1.4.1

Video
ID : 1
Format : AVC
Format/Info : Advanced Video Codec
Format profile : High@L4.1
Format settings, CABAC : Yes
Format settings, ReFrames : 5 frames
Codec ID : V_MPEG4/ISO/AVC
Duration : 2h 54mn
Bit rate : 6 603 Kbps
Width : 1 916 pixels
Height : 800 pixels
Display aspect ratio : 2.40:1
Frame rate mode : Constant
Frame rate : 23.976 fps
Color space : YUV
Chroma subsampling : 4:2:0
Bit depth : 8 bits
Scan type : Progressive
Bits/(Pixel*Frame) : 0.180
Stream size : 7.86 GiB (84%)
Writing library : x264 core 142 r2479 dd79a61
Encoding settings : cabac=1 / ref=5 / deblock=1:0:0 / analyse=0x3:0x113 / me=umh / subme=9 / psy=1 / psy_rd=1.00:0.00 / mixed_ref=1 / me_range=24 / chroma_me=1 / trellis=2 / 8x8dct=1 / cqm=0 / deadzone=21,11 / fast_pskip=1 / chroma_qp_offset=-2 / threads=6 / lookahead_threads=1 / sliced_threads=0 / nr=0 / decimate=1 / interlaced=0 / bluray_compat=0 / constrained_intra=0 / bframes=7 / b_pyramid=2 / b_adapt=2 / b_bias=0 / direct=3 / weightb=1 / open_gop=0 / weightp=2 / keyint=240 / keyint_min=24 / scenecut=40 / intra_refresh=0 / rc_lookahead=60 / rc=2pass / mbtree=1 / bitrate=6603 / ratetol=1.0 / qcomp=0.60 / qpmin=0 / qpmax=69 / qpstep=4 / cplxblur=20.0 / qblur=0.5 / ip_ratio=1.40 / aq=1:1.00
Language : English
Default : Yes
Forced : No

Audio #1
ID : 2
Format : AC-3
Format/Info : Audio Coding 3
Mode extension : CM (complete main)
Format settings, Endianness : Big
Codec ID : A_AC3
Duration : 2h 54mn
Bit rate mode : Constant
Bit rate : 448 Kbps
Channel(s) : 6 channels
Channel positions : Front: L C R, Side: L R, LFE
Sampling rate : 48.0 KHz
Bit depth : 16 bits
Compression mode : Lossy
Stream size : 559 MiB (6%)
Title : Dub
Language : Russian
Default : Yes
Forced : No

Audio #2
ID : 3
Format : AC-3
Format/Info : Audio Coding 3
Mode extension : CM (complete main)
Format settings, Endianness : Big
Codec ID : A_AC3
Duration : 2h 54mn
Bit rate mode : Constant
Bit rate : 640 Kbps
Channel(s) : 6 channels
Channel positions : Front: L C R, Side: L R, LFE
Sampling rate : 48.0 KHz
Bit depth : 16 bits
Compression mode : Lossy
Stream size : 798 MiB (8%)
Title : Original
Language : English
Default : No
Forced : No

Text
ID : 4
Format : UTF-8
Codec ID : S_TEXT/UTF8
Codec ID/Info : UTF-8 Plain Text
Title : Full
Language : English
Default : Yes
Forced : No

Menu
00:00:00.000 : en:In a Cage
00:03:00.972 : en:Dobby's Warning
00:08:37.016 : en:Car Rescue
00:11:31.024 : en:The Burrow
00:14:48.554 : en:To Diagon Aley
00:21:20.070 : en:Flourish and Blotts
00:25:38.454 : en:Flying to Hogwarts
00:29:31.520 : en:Whomping Willow
00:32:32.242 : en:Not Expelled...Today
00:35:25.290 : en:Mandrakes; Ron's Howler
00:39:50.805 : en:Gilderoy Lockhart
00:43:52.546 : en:Mudbloods and Murmurs
00:48:40.125 : en:Writing on the Wall
00:54:08.287 : en:About the Chamber
00:58:08.276 : en:Rogue Bludger
01:04:08.595 : en:No Longer Safe
01:09:25.495 : en:Dueling Club
01:14:12.740 : en:A Parselmouth
01:20:33.078 : en:Nothing to Tell
01:25:59.321 : en:Polyjuice Potion
01:31:56.886 : en:Harry and Ron Transformed
01:36:22.485 : en:The Diary
01:41:54.984 : en:Tom Riddle
01:46:02.815 : en:Petrified
01:50:33.377 : en:Cornelius Fudge
01:55:39.557 : en:Aragog
02:00:30.473 : en:Spider Attack
02:04:36.844 : en:Missing
02:08:55.060 : en:Chamber of Secrets
02:14:22.137 : en:Backfire
02:17:38.625 : en:Heir of Slytherin
02:23:01.156 : en:The Basilisk
02:28:01.289 : en:Healing Powers
02:31:34.794 : en:Out of the Hat
02:34:49.071 : en:Dobby's Reward
02:40:04.303 : en:Welcome Back
02:45:11.944 : en:End Credits
x264 [info]: frame I:2173 Avg QP:13.77 size:207394
x264 [info]: frame P:60199 Avg QP:16.44 size: 65176
x264 [info]: frame B:188514 Avg QP:17.84 size: 22613
Скриншоты:


Время раздачи: По возможности до первых скачавших
[NNM-Club.me]_Harry.Potter.and.the.Chamber.of.Secrets.1080p.BDRip-AVC.anton_m.mkv.torrent
 Торрент: Платиновая раздача  Зарегистрирован
 
Скачать


Примагнититься
 Зарегистрирован:   29 Сен 2014 04:28:24
 Размер:   9,37 GB  (
 Рейтинг:   4,7 (Голосов: 153)
 Поблагодарили:   541
 Проверка:   Оформление проверено модератором 29 Сен 2014 12:03:32
Как cкачать  ·  Как раздать  ·  Правильно оформить  ·  Поднять ратио!  
Semargl11
Стаж: 3 года 1 мес.
Сообщений: 33
Ratio: 6,091
39.81%
Спасибо большое, лучший рип в сети.
IrTyan
Стаж: 4 года 7 мес.
Сообщений: 2
Ratio: 40,527
23.68%
Дайте скорости =(
ThornRenegade
Стаж: 7 лет 1 мес.
Сообщений: 10
Ratio: 8,301
100%
ukraine.gif
Автор,
Ни одного сравнения не осталось в живых. Были удалены из-за давности, написано :)
Показать сообщения:   
Начать новую тему   Ответить на тему    Торрент-трекер NNM-Club -> Зарубежное кино -> Зарубежные Фильмы (HD*Rip/LQ, DVDRip, SATRip, VHSRip) Часовой пояс: GMT + 3
Страница 1 из 1