Классический форум-трекер
canvas not supported
Нас вместе: 4 233 358

Четыре встречи с Владимиром Высоцким (1987) DVDRip


 
 
RSS
Начать новую тему   Ответить на тему    Торрент-трекер NNM-Club -> Документалистика и Телепередачи -> Посвящение искусству
Автор Сообщение
smpeal ®
Стаж: 11 лет 9 мес.
Сообщений: 62
Ratio: 99.87
Поблагодарили: 7340
100%
ussr.gif
Четыре встречи с Владимиром Высоцким (1987) DVDRip
Производство: Главная редакция кинопрограмм Центрального Телевидения СССР
Режиссер: Майя Добросельская
Автор и ведущий: Эльдар Рязанов
Год выпуска: 1987
Жанр: Документальный

Описание:
Музыкально-публицистический фильм, снятый к 50-летию В.Высоцкого.

Фильм состоит из четырех серий: в первой — о личной жизни Высоцкого, его детстве и
юности, вторая — о его работе в театре, в третьей — беседа о ролях в кино, а герои четвертой — говорят о нем как о поэте.



Участники: Владимир Высоцкий, Эльдар Рязанов, Марина Влади, Станислав Говорухин, Всеволод Абдулов, Вадим Туманов, Алла Демидова,Зинаида Славина, Леонид Филатов, Валерий Золотухин, Эдуард Володарский, Вениамин Смехов, Андрей Вознесенский, Александр Митта, Михаил Швейцер, Белла Ахмадулина, Булат Окуджава, Евгений Евтушенко, Роберт Рождественский

Продолжительность: 01:06:44, 01:01:27, 01:03:39, 01:12:47
Качество видео: DVDRip

Видеокодек: Xvid
Битрейт видео: ~1298 Kbps
Размер кадра: 576x432
Аудиокодек: AC3
Битрейт аудио: 256 Kbps, 2 канала
Общее
Полное имя : Y:\Фильмы\Документальные\Посвящается Владимиру Высоцкому\Четыре встречи с В. Высоцким (1987) DVDRip\1. Страницы биографии.avi
Формат : AVI
Формат/Информация : Audio Video Interleave
Размер файла : 747 Мбайт
Продолжительность : 1 ч. 6 м.
Общий поток : 1564 Кбит/сек
Программа кодирования : VirtualDubModRus 1.5.10.2 (build 2542/release)
Библиотека кодирования : VirtualDubMod build 2542/release

Видео
Идентификатор : 0
Формат : MPEG-4 Visual
Профиль формата : Advanced Simple@L5
Параметр BVOP формата : 2
Параметр QPel формата : Нет
Параметр GMC формата : Без точки перехода
Параметр матрицы формата : Default (H.263)
Режим смешивания : Сжатый битовый поток
Идентификатор кодека : XVID
Идентификатор кодека/Подсказка : XviD
Продолжительность : 1 ч. 6 м.
Битрейт : 1299 Кбит/сек
Ширина : 576 пикселей
Высота : 432 пикселя
Соотношение сторон : 4:3
Частота кадров : 25,000 кадров/сек
Цветовое пространство : YUV
Субдискретизация насыщенности : 4:2:0
Битовая глубина : 8 бит
Тип развёртки : Прогрессивная
Метод сжатия : С потерями
Бит/(Пиксели*Кадры) : 0.209
Размер потока : 620 Мбайт (83%)
Библиотека кодирования : XviD 64

Аудио
Идентификатор : 1
Формат : AC-3
Формат/Информация : Audio Coding 3
Расширение режима : CM (complete main)
Параметр Endianness формата : Big
Идентификатор кодека : 2000
Продолжительность : 1 ч. 6 м.
Вид битрейта : Постоянный
Битрейт : 256 Кбит/сек
Каналы : 2 канала
Расположение каналов : Front: L R
Частота : 48,0 КГц
Битовая глубина : 16 бит
Метод сжатия : С потерями
Задержка видео : 24 мс.
Размер потока : 122 Мбайт (16%)
Выравнивание : Разделение по промежуткам
Продолжительность промежутка : 40 мс. (1,00 видеокадр)
Время предзагрузки промежутка : 500 мс.
Подобные релизы на NNM-Club

Скриншоты:


Время раздачи: По выходным с 12 до 22, иногда в будни вечером
[NNM-Club.me]_Chetyre_vstrechi_s_Vladimirom_Vysotskim_DVDRip.avi.torrent
 Торрент: Платиновая раздача  Зарегистрирован
 
Скачать


Примагнититься
 Зарегистрирован:   03 Окт 2014 18:36:41
 Размер:   2.89 GB  (
 Рейтинг:   4.9 (Голосов: 36)
 Поблагодарили:   103
 Проверка:   Оформление проверено модератором 05 Окт 2014 20:09:53
Как cкачать  ·  Как раздать  ·  Правильно оформить  ·  Поднять ратио!  
Показать сообщения:   
Начать новую тему   Ответить на тему    Торрент-трекер NNM-Club -> Документалистика и Телепередачи -> Посвящение искусству Часовой пояс: GMT + 3
Страница 1 из 1