Классический форум-трекер
canvas not supported
Нас вместе: 4 166 448

Rebellion - Miklagard - The History of the Vikings Volume II (2007) [APE|Lossless]<Heavy Metal / Power Metal>


 
 
RSS
Начать новую тему   Ответить на тему    Торрент-трекер NNM-Club -> Архив торрентов -> Архив Музыки
Автор Сообщение
gatherone ®
RG Music
Стаж: 9 лет 3 мес.
Сообщений: 2657
Ratio: 185.683
Поблагодарили: 72498
9.19%
Rebellion - Miklagard - The History of the Vikings Volume II (2007)
Год: 2007
Жанр: Heavy Metal / Power Metal
Label & Catalog#: Massacre Records - MAS CL0522
Продолжительность: 01:00:48

Кодек: APE [image+.cue]
Битрейт: Lossless

Треклист:
01. Vi seglar mot Miklagard [01:49]
02. Sweden [04:23]
03. Free [05:04]
04. On the Edge of Life [06:00]
05. Ulfberth [04:42]
06. The Rus [04:07]
07. Kiew [04:32]
08. Aifur [04:09]
09. Taste of Steel [03:27]
10. God of Thunder [05:23]
11. Our Back to the Wind [05:26]
12. Miklagard [04:34]
13. The Uprising [07:07]
Код:
REM GENRE Metal
REM DATE 2007
REM DISCID AC0E400D
REM COMMENT "ExactAudioCopy v0.99pb4"
PERFORMER "Rebellion"
TITLE "Miklagard - The History of the Vikings Volume II"
FILE "Rebellion - Miklagard - The History of the Vikings Volume II.ape" WAVE
  TRACK 01 AUDIO
    TITLE "Vi seglar mot Miklagard"
    PERFORMER "Rebellion"
    INDEX 01 00:00:00
  TRACK 02 AUDIO
    TITLE "Sweden"
    PERFORMER "Rebellion"
    INDEX 01 01:49:52
  TRACK 03 AUDIO
    TITLE "Free"
    PERFORMER "Rebellion"
    INDEX 01 06:12:57
  TRACK 04 AUDIO
    TITLE "On the Edge of Life"
    PERFORMER "Rebellion"
    INDEX 01 11:17:22
  TRACK 05 AUDIO
    TITLE "Ulfberth"
    PERFORMER "Rebellion"
    INDEX 01 17:17:39
  TRACK 06 AUDIO
    TITLE "The Rus"
    PERFORMER "Rebellion"
    INDEX 01 21:59:69
  TRACK 07 AUDIO
    TITLE "Kiew"
    PERFORMER "Rebellion"
    INDEX 01 26:07:13
  TRACK 08 AUDIO
    TITLE "Aifur"
    PERFORMER "Rebellion"
    INDEX 01 30:39:16
  TRACK 09 AUDIO
    TITLE "Taste of Steel"
    PERFORMER "Rebellion"
    INDEX 01 34:48:38
  TRACK 10 AUDIO
    TITLE "God of Thunder"
    PERFORMER "Rebellion"
    INDEX 01 38:16:21
  TRACK 11 AUDIO
    TITLE "Our Back to the Wind"
    PERFORMER "Rebellion"
    INDEX 01 43:40:08
  TRACK 12 AUDIO
    TITLE "Miklagard"
    PERFORMER "Rebellion"
    INDEX 01 49:06:08
  TRACK 13 AUDIO
    TITLE "The Uprising"
    PERFORMER "Rebellion"
    INDEX 01 53:40:53
Код:

Exact Audio Copy V0.99 prebeta 4 from 23. January 2008

EAC extraction logfile from 5. August 2009, 2:51

Rebellion / Miklagard - The History of the Vikings Volume II

Used drive  : ATAPI   DVD A  DH20A4P   Adapter: 3  ID: 0

Read mode               : Secure
Utilize accurate stream : Yes
Defeat audio cache      : Yes
Make use of C2 pointers : No

Read offset correction                      : 6
Overread into Lead-In and Lead-Out          : No
Fill up missing offset samples with silence : Yes
Delete leading and trailing silent blocks   : No
Null samples used in CRC calculations       : Yes
Used interface                              : Installed external ASPI interface

Used output format              : Monkey's Audio Lossless Encoder
Selected bitrate                : High Lossless Compression
Quality                         : High
Add ID3 tag                     : Yes
Command line compressor         : C:\Program Files\Monkey's Audio\MAC.exe

TOC of the extracted CD

     Track |   Start  |  Length  | Start sector | End sector
    ---------------------------------------------------------
        1  |  0:00.00 |  1:49.52 |         0    |     8226
        2  |  1:49.52 |  4:23.05 |      8227    |    27956
        3  |  6:12.57 |  5:04.40 |     27957    |    50796
        4  | 11:17.22 |  6:00.17 |     50797    |    77813
        5  | 17:17.39 |  4:42.30 |     77814    |    98993
        6  | 21:59.69 |  4:07.19 |     98994    |   117537
        7  | 26:07.13 |  4:32.03 |    117538    |   137940
        8  | 30:39.16 |  4:09.22 |    137941    |   156637
        9  | 34:48.38 |  3:27.58 |    156638    |   172220
       10  | 38:16.21 |  5:23.62 |    172221    |   196507
       11  | 43:40.08 |  5:26.00 |    196508    |   220957
       12  | 49:06.08 |  4:34.45 |    220958    |   241552
       13  | 53:40.53 |  7:07.71 |    241553    |   273648

Range status and errors

Selected range

     Filename D:\Download\Rebellion - Miklagard - The History of the Vikings Volume II.wav

     Peak level 100.0 %
     Range quality 100.0 %
     Copy CRC F71C8697
     Copy OK

No errors occurred

AccurateRip summary

Track  1  accurately ripped (confidence 3)  [329E2AF3]
Track  2  accurately ripped (confidence 3)  [050271BA]
Track  3  accurately ripped (confidence 3)  [48193EE3]
Track  4  accurately ripped (confidence 3)  [35695E01]
Track  5  accurately ripped (confidence 3)  [F42F7B38]
Track  6  accurately ripped (confidence 3)  [0A199A78]
Track  7  accurately ripped (confidence 3)  [A7295A85]
Track  8  accurately ripped (confidence 3)  [5A46BCAC]
Track  9  accurately ripped (confidence 3)  [957593D4]
Track 10  accurately ripped (confidence 3)  [BBB4DE0E]
Track 11  accurately ripped (confidence 3)  [81C60ACD]
Track 12  accurately ripped (confidence 3)  [9C71A08F]
Track 13  accurately ripped (confidence 3)  [F39B04E7]

All tracks accurately ripped

End of status report
Код:

-----------------------

DON'T MODIFY THIS FILE

-----------------------

PERFORMER: auCDtect Task Manager, ver. 1.6.0 RC1 build 1.6.0.1
Copyright (c) 2008-2010 y-soft. All rights reserved
http://y-soft.org

ANALYZER: auCDtect: CD records authenticity detector, version 0.8.2
Copyright (c) 2004 Oleg Berngardt. All rights reserved.
Copyright (c) 2004 Alexander Djourik. All rights reserved.

FILE: Rebellion - Miklagard - The History of the Vikings Volume II.ape
  Size: 467098012 Hash: FA7512842CD98339649485E184F4F2EA Accuracy: -m0
  Conclusion: CDDA 100%
  Signature: BD9AC40C857E1E12ABAA424D752F0C01E33E3AEA
Время раздачи: 19.00 - 23.00
[NNM-Club.me]_REBELLION [2007] [CD] Miklagard - The History Of The Vikings Volume II [EAC-APE].torrent
 Торрент: Платиновая раздача  Зарегистрирован
 
Скачать


Примагнититься
 Зарегистрирован:   04 Окт 2014 13:24:19
 Размер:   538 MB  (
 Рейтинг:   4.3 (Голосов: 12)
 Поблагодарили:   28
 Проверка:   Оформление проверено модератором 05 Окт 2014 05:58:50
Как cкачать  ·  Как раздать  ·  Правильно оформить  ·  Поднять ратио!  
Топик был перенесен из форума Metal (Lossless) в форум Архив Музыки

Причина переноса: Длительное отсутствие сида на протяжении более 6 месяцев.

Исправил релиз - напиши ЛС chaosman1986, дав ссылку на релиз.
Если нет ответа 24 часа - нажми на кнопку "Обратить внимание модераторов".
Показать сообщения:   
Начать новую тему   Ответить на тему    Торрент-трекер NNM-Club -> Архив торрентов -> Архив Музыки Часовой пояс: GMT + 3
Страница 1 из 1