Классический форум-трекер
canvas not supported
Нас вместе: 4 233 609

Эквилибриум / Equilibrium (2002) BDRip [H.264/720p-LQ] [Hi10P] [Open Matte]


 
 
RSS
Начать новую тему   Ответить на тему    Торрент-трекер NNM-Club -> Зарубежное кино -> Зарубежные Фильмы (HD, FHD)
Автор Сообщение
sinteros ®
Стаж: 15 лет 3 мес.
Сообщений: 562
Ratio: 65.353
Поблагодарили: 62311
100%
Эквилибриум / Equilibrium (2002) BDRip [H.264/720p-LQ] [Hi10P] [Open Matte]
Год выпуска: 2002
Жанр: фантастика, Боевик, Триллер, Драма
Перевод: Дублированный, Многоголосый, Двухголосый, Авторский x3, Любительский одноголосый x3
Язык субтитров: Русский, Английский
Вид субтитров: Вшитые отключаемые

Описание фильма: Действие происходит в будущем, когда люди лишены возможности выражать какие-то эмоции, потому, что они… запрещены. Это — та цена, которую человечество платит за устранение из своей жизни войны. Теперь книги, искусство и музыка находятся вне закона. А любое чувство — уже преступление, наказуемое смертью.
Для проведения в жизнь существующего правила используется принудительное применение лекарства «прозиум». Правительственный агент Джон Престон борется с теми, кто нарушает правила. В один прекрасный момент он забывает принять очередную дозу лекарства и с ним происходит духовное превращение, что приводит его к противоречию с самим собой и с начальством.

Режиссер: Курт Уиммер

Актеры: Кристиан Бэйл, Шон Бин, Эмили Уотсон, Тэй Диггз, Энгус МакФадьен, Шон Пертуи, Уильям Фихтнер, Джон Кеог, Дэвид Барраш, Дирк Мартенс, Доминик Пурселл

Качество видео: BDRip
Продолжительность: 01:46:50



Основной файл весит 2,68гб с одной звуковой дорожкой!

Видео: MPEG-4 AVC/H.264, 1280x720 (16:9), 23,976fps, 3078 Кbps, 0.139bit/pixel
Аудио 1: DUB Russian, AC3, 6ch, 48 kHz, 448 kbps, (Дубляж - Мосфильм-мастер)
Аудио 2: MVO Russian, AC3, 6ch, 48 kHz, 448 kbps, (Многоголосый - Киномания) - Отдельным файлом
Аудио 3: DVO Russian, AC3, 6ch, 48 kHz, 448 kbps, (Двухголосый) - Отдельным файлом
Аудио 4: AVO Russian, AC3, 6ch, 48 kHz, 448 kbps, (Авторский Одноголосый - Живов) - Отдельным файлом
Аудио 5: VO Russian, AC3, 6ch, 48 kHz, 448 kbps, (Любительский Одноголосый - Строев) - Отдельным файлом
Аудио 6: AVO Russian, AC3, 6ch, 48 kHz, 448 kbps, (Авторский Одноголосый - Королёв) - Отдельным файлом
Аудио 7: VO Russian, AC3, 6ch, 48 kHz, 448 kbps, (Любительский Одноголосый - Ловаситов) - Отдельным файлом
Аудио 8: AVO Russian, AC3, 6ch, 48 kHz, 448 kbps, (Авторский Одноголосый - Рудой) - Отдельным файлом
Аудио 9: VO Russian, AC3, 6ch, 48 kHz, 448 kbps, (Любительский Одноголосый - Нурмухаметов) - Отдельным файлом
Аудио 10: MVO Ukranian, AC3, 2ch, 48 kHz, 192 kbps, (Многоголосый) - Отдельным файлом
Аудио 11: English, AC3, 6ch, 48 kHz, 448 kbps, (Оригинал) - Отдельным файлом
Аудио 12: English, OGG, 2ch, 48 kHz, 80 kbps, (Коментарии 1) - Отдельным файлом
Аудио 13: English, OGG, 2ch, 48 kHz, 80 kbps, (Коментарии 2) - Отдельным файлом
Общее
Полное имя : Эквилибриум (2002) BDRip-AVC.mkv
Формат : Matroska
Версия формата : Version 4 / Version 2
Размер файла : 5,95 Гбайт
Продолжительность : 1 ч. 47 м.
Режим общего битрейта : Переменный
Общий поток : 7962 Кбит/сек
Название фильма : Эквилибриум / Equilibrium (2002) BDRip-AVC [AR 1.78] (Sinteros)
Attachment : Yes

Видео
Идентификатор : 1
Формат : AVC
Формат/Информация : Advanced Video Codec
Профиль формата : High 10@L4.1
Параметр CABAC формата : Да
Параметр ReFrames формата : 11 кадров
Идентификатор кодека : V_MPEG4/ISO/AVC
Продолжительность : 1 ч. 47 м.
Битрейт : 3078 Кбит/сек
Ширина : 1280 пикселей
Высота : 720 пикселей
Соотношение сторон : 16:9
Режим частоты кадров : Постоянный
Частота кадров : 23,976 кадра/сек
Цветовое пространство : YUV
Субдискретизация насыщенности : 4:2:0
Битовая глубина : 10 бит
Тип развёртки : Прогрессивная
Бит/(Пиксели*Кадры) : 0.139
Размер потока : 2,22 Гбайт (37%)
Заголовок : MPEG-4 AVC/H.264, 1280x720 (16:9), 23,976fps, 3078 Кbps, 0.139bit/pixel
Библиотека кодирования : x264 core 133 r2334 a3ac64b
Настройки программы : cabac=1 / ref=11 / deblock=1:-1:-1 / analyse=0x3:0x133 / me=tesa / subme=9 / psy=1 / psy_rd=1.00:0.00 / mixed_ref=1 / me_range=24 / chroma_me=1 / trellis=0 / 8x8dct=1 / cqm=0 / deadzone=21,11 / fast_pskip=1 / chroma_qp_offset=-2 / threads=4 / lookahead_threads=1 / sliced_threads=0 / nr=0 / decimate=1 / interlaced=0 / bluray_compat=0 / constrained_intra=0 / bframes=6 / b_pyramid=2 / b_adapt=2 / b_bias=0 / direct=1 / weightb=1 / open_gop=0 / weightp=2 / keyint=250 / keyint_min=50 / scenecut=40 / intra_refresh=0 / rc_lookahead=50 / rc=crf / mbtree=1 / crf=21.0 / qcomp=0.60 / qpmin=1 / qpmax=51 / qpstep=11 / ip_ratio=1.40 / aq=1:0.90
Язык : English
Default : Да
Forced : Нет

Аудио #1
Идентификатор : 2
Формат : AC-3
Формат/Информация : Audio Coding 3
Расширение режима : CM (complete main)
Параметр Endianness формата : Big
Идентификатор кодека : A_AC3
Продолжительность : 1 ч. 47 м.
Вид битрейта : Постоянный
Битрейт : 448 Кбит/сек
Каналы : 6 каналов
Расположение каналов : Front: L C R, Side: L R, LFE
Частота : 48,0 КГц
Битовая глубина : 16 бит
Метод сжатия : С потерями
Размер потока : 343 Мбайт (6%)
Заголовок : DUB Russian, AC3, 6ch, 48 kHz, 448 kbps, (Дубляж - Мосфильм-мастер)
Язык : Russian
Default : Да
Forced : Нет

Аудио #2 - Отдельным файлом
Идентификатор : 3
Формат : AC-3
Формат/Информация : Audio Coding 3
Расширение режима : CM (complete main)
Параметр Endianness формата : Big
Идентификатор кодека : A_AC3
Продолжительность : 1 ч. 47 м.
Вид битрейта : Постоянный
Битрейт : 448 Кбит/сек
Каналы : 6 каналов
Расположение каналов : Front: L C R, Side: L R, LFE
Частота : 48,0 КГц
Битовая глубина : 16 бит
Метод сжатия : С потерями
Размер потока : 343 Мбайт (6%)
Заголовок : MVO Russian, AC3, 6ch, 48 kHz, 448 kbps, (Многоголосый - Киномания) - Отдельным файлом
Язык : Russian
Default : Нет
Forced : Нет

Аудио #3 - Отдельным файлом
Идентификатор : 4
Формат : AC-3
Формат/Информация : Audio Coding 3
Расширение режима : CM (complete main)
Параметр Endianness формата : Big
Идентификатор кодека : A_AC3
Продолжительность : 1 ч. 47 м.
Вид битрейта : Постоянный
Битрейт : 448 Кбит/сек
Каналы : 6 каналов
Расположение каналов : Front: L C R, Side: L R, LFE
Частота : 48,0 КГц
Битовая глубина : 16 бит
Метод сжатия : С потерями
Размер потока : 343 Мбайт (6%)
Заголовок : DVO Russian, AC3, 6ch, 48 kHz, 448 kbps, (Двухголосый) - Отдельным файлом
Язык : Russian
Default : Нет
Forced : Нет

Аудио #4 - Отдельным файлом
Идентификатор : 5
Формат : AC-3
Формат/Информация : Audio Coding 3
Расширение режима : CM (complete main)
Параметр Endianness формата : Big
Идентификатор кодека : A_AC3
Продолжительность : 1 ч. 47 м.
Вид битрейта : Постоянный
Битрейт : 448 Кбит/сек
Каналы : 6 каналов
Расположение каналов : Front: L C R, Side: L R, LFE
Частота : 48,0 КГц
Битовая глубина : 16 бит
Метод сжатия : С потерями
Размер потока : 343 Мбайт (6%)
Заголовок : AVO Russian, AC3, 6ch, 48 kHz, 448 kbps, (Одноголосый - Живов) - Отдельным файлом
Язык : Russian
Default : Нет
Forced : Нет

Аудио #5 - Отдельным файлом
Идентификатор : 6
Формат : AC-3
Формат/Информация : Audio Coding 3
Расширение режима : CM (complete main)
Параметр Endianness формата : Big
Идентификатор кодека : A_AC3
Продолжительность : 1 ч. 47 м.
Вид битрейта : Постоянный
Битрейт : 448 Кбит/сек
Каналы : 6 каналов
Расположение каналов : Front: L C R, Side: L R, LFE
Частота : 48,0 КГц
Битовая глубина : 16 бит
Метод сжатия : С потерями
Размер потока : 343 Мбайт (6%)
Заголовок : AVO Russian, AC3, 6ch, 48 kHz, 448 kbps, (Одноголосый - Строев) - Отдельным файлом
Язык : Russian
Default : Нет
Forced : Нет

Аудио #6 - Отдельным файлом
Идентификатор : 7
Формат : AC-3
Формат/Информация : Audio Coding 3
Расширение режима : CM (complete main)
Параметр Endianness формата : Big
Идентификатор кодека : A_AC3
Продолжительность : 1 ч. 47 м.
Вид битрейта : Постоянный
Битрейт : 448 Кбит/сек
Каналы : 6 каналов
Расположение каналов : Front: L C R, Side: L R, LFE
Частота : 48,0 КГц
Битовая глубина : 16 бит
Метод сжатия : С потерями
Размер потока : 343 Мбайт (6%)
Заголовок : AVO Russian, AC3, 6ch, 48 kHz, 448 kbps, (Одноголосый - Королёв) - Отдельным файлом
Язык : Russian
Default : Нет
Forced : Нет

Аудио #7 - Отдельным файлом
Идентификатор : 8
Формат : AC-3
Формат/Информация : Audio Coding 3
Расширение режима : CM (complete main)
Параметр Endianness формата : Big
Идентификатор кодека : A_AC3
Продолжительность : 1 ч. 47 м.
Вид битрейта : Постоянный
Битрейт : 448 Кбит/сек
Каналы : 6 каналов
Расположение каналов : Front: L C R, Side: L R, LFE
Частота : 48,0 КГц
Битовая глубина : 16 бит
Метод сжатия : С потерями
Размер потока : 343 Мбайт (6%)
Заголовок : AVO Russian, AC3, 6ch, 48 kHz, 448 kbps, (Одноголосый - Ловаситов) - Отдельным файлом
Язык : Russian
Default : Нет
Forced : Нет

Аудио #8 - Отдельным файлом
Идентификатор : 9
Формат : AC-3
Формат/Информация : Audio Coding 3
Расширение режима : CM (complete main)
Параметр Endianness формата : Big
Идентификатор кодека : A_AC3
Продолжительность : 1 ч. 47 м.
Вид битрейта : Постоянный
Битрейт : 448 Кбит/сек
Каналы : 6 каналов
Расположение каналов : Front: L C R, Side: L R, LFE
Частота : 48,0 КГц
Битовая глубина : 16 бит
Метод сжатия : С потерями
Размер потока : 343 Мбайт (6%)
Заголовок : AVO Russian, AC3, 6ch, 48 kHz, 448 kbps, (Одноголосый - Рудой) - Отдельным файлом
Язык : Russian
Default : Нет
Forced : Нет

Аудио #9 - Отдельным файлом
Идентификатор : 10
Формат : AC-3
Формат/Информация : Audio Coding 3
Расширение режима : CM (complete main)
Параметр Endianness формата : Big
Идентификатор кодека : A_AC3
Продолжительность : 1 ч. 47 м.
Вид битрейта : Постоянный
Битрейт : 448 Кбит/сек
Каналы : 6 каналов
Расположение каналов : Front: L C R, Side: L R, LFE
Частота : 48,0 КГц
Битовая глубина : 16 бит
Метод сжатия : С потерями
Размер потока : 343 Мбайт (6%)
Заголовок : VO Russian, AC3, 6ch, 48 kHz, 448 kbps, (Одноголосый - Нурмухаметов) - Отдельным файлом
Язык : Russian
Default : Нет
Forced : Нет

Аудио #10 - Отдельным файлом
Идентификатор : 11
Формат : AC-3
Формат/Информация : Audio Coding 3
Расширение режима : CM (complete main)
Параметр Endianness формата : Big
Идентификатор кодека : A_AC3
Продолжительность : 1 ч. 47 м.
Вид битрейта : Постоянный
Битрейт : 192 Кбит/сек
Каналы : 2 канала
Расположение каналов : Front: L R
Частота : 48,0 КГц
Битовая глубина : 16 бит
Метод сжатия : С потерями
Размер потока : 147 Мбайт (2%)
Заголовок : MVO Ukranian, AC3, 2ch, 48 kHz, 192 kbps, (Многоголосый) - Отдельным файлом
Язык : Ukrainian
Default : Нет
Forced : Нет

Аудио #11 - Отдельным файлом
Идентификатор : 12
Формат : AC-3
Формат/Информация : Audio Coding 3
Расширение режима : CM (complete main)
Параметр Endianness формата : Big
Идентификатор кодека : A_AC3
Продолжительность : 1 ч. 47 м.
Вид битрейта : Постоянный
Битрейт : 448 Кбит/сек
Каналы : 6 каналов
Расположение каналов : Front: L C R, Side: L R, LFE
Частота : 48,0 КГц
Битовая глубина : 16 бит
Метод сжатия : С потерями
Размер потока : 343 Мбайт (6%)
Заголовок : English, AC3, 6ch, 48 kHz, 448 kbps, (Оригинал) - Отдельным файлом
Язык : English
Default : Нет
Forced : Нет

Аудио #12 - Отдельным файлом
Идентификатор : 13
Формат : Vorbis
Параметр Floor формата : 1
Идентификатор кодека : A_VORBIS
Продолжительность : 1 ч. 47 м.
Вид битрейта : Переменный
Битрейт : 80,0 Кбит/сек
Каналы : 2 канала
Частота : 48,0 КГц
Метод сжатия : С потерями
Размер потока : 61,2 Мбайт (1%)
Заголовок : English, OGG, 2ch, 48 kHz, 80 kbps, (Коментарии 1) - Отдельным файлом
Библиотека кодирования : aoTuV b5c (UTC 2008-12-15)
Язык : English
Default : Нет
Forced : Нет

Аудио #13 - Отдельным файлом
Идентификатор : 14
Формат : Vorbis
Параметр Floor формата : 1
Идентификатор кодека : A_VORBIS
Продолжительность : 1 ч. 47 м.
Вид битрейта : Переменный
Битрейт : 80,0 Кбит/сек
Каналы : 2 канала
Частота : 48,0 КГц
Метод сжатия : С потерями
Размер потока : 61,2 Мбайт (1%)
Заголовок : English, OGG, 2ch, 48 kHz, 80 kbps, (Коментарии 2) - Отдельным файлом
Библиотека кодирования : aoTuV b5c (UTC 2008-12-15)
Язык : English
Default : Нет
Forced : Нет

Текст #1
Идентификатор : 15
Формат : UTF-8
Идентификатор кодека : S_TEXT/UTF8
Идентификатор кодека/Информация : UTF-8 Plain Text
Язык : Russian
Default : Нет
Forced : Нет

Текст #2
Идентификатор : 16
Формат : UTF-8
Идентификатор кодека : S_TEXT/UTF8
Идентификатор кодека/Информация : UTF-8 Plain Text
Язык : English
Default : Нет
Forced : Нет

Меню
00:00:00.000 : ru:Человеческая бесчеловечность
00:07:33.161 : ru:Бесчувственное общество
00:11:42.285 : ru:Заблудший Клерик
00:15:02.443 : ru:Велика цена
00:22:07.326 : ru:Отсуствие дозы
00:25:27.234 : ru:Существование и цель
00:30:56.980 : ru:Пробуждение эмоций
00:36:50.156 : ru:Слезы и жалость
00:44:50.563 : ru:Сомневающийся отец?
00:47:25.678 : ru:Большая ошибка
00:56:29.011 : ru:"Он эмоциональный преступник"
01:02:55.230 : ru:Вопросы к Мэри
01:06:12.635 : ru:Контакт с Сопротивлением
01:14:44.939 : ru:Сожжение
01:23:32.591 : ru:Нечего скрывать
01:28:56.998 : ru:"Не без неожиданностей"
01:34:23.157 : ru:Расплата
01:40:16.552 : ru:Финальные титры
Скры́тое кашети́рование (англ. Open matte) — способ съёмки широкоэкранных фильмов кашетированных форматов, при котором на киноплёнке экспонируется кадр большей высоты, чем используется для конечного изображения на экране. При этом границы кадра, предназначенного к печати на фильмокопии, обозначаются специальными рисками в видоискателе киносъёмочного аппарата, отображающем полный кадр. В отличие от явного кашетирования, когда площадь экспонируемого кадра ограничивается уменьшением высоты кадрового окна, при скрытом кашетировании «классический» кадр экспонируется полностью. Cкрытое кашетирование получило наибольшее распространение при производстве кашетированных фильмов киносъёмочными аппаратами классического формата.
Примечание: Рип в High 10 Profile, в настоящее время не поддерживается большинством аппаратных проигрывателей, поэтому предназначен исключительно для воспроизведения на ПК. Для корректного воспроизведения может потребоваться обновление ПО.

Скриншоты:


Эквилибриум на NNM-club

Время раздачи: 24/7 (жду до 10-15 скачавших а дальше могу уйти с радачи)
[NNM-Club.me]_YEkvilibrium (2002) BDRip-AVC.torrent
 Торрент: Платиновая раздача  Зарегистрирован
 
Скачать


Примагнититься
 Зарегистрирован:   09 Окт 2014 20:16:42
 Размер:   5.95 GB  (
 Рейтинг:   4.9 (Голосов: 78)
 Поблагодарили:   227
 Проверка:   Оформление проверено модератором 10 Окт 2014 03:07:44
Как cкачать  ·  Как раздать  ·  Правильно оформить  ·  Поднять ратио!  
relax57
Стаж: 14 лет 5 мес.
Сообщений: 172
Ratio: 30.799
100%
russia.gif
офигенский фильм
MorozovPavel
Только чтение
Стаж: 11 лет 3 мес.
Сообщений: 146
Ratio: 3.214
7.04%
Откуда: Чернигов
ukraine.gif
отличный фильм!!!
S1mA
Стаж: 14 лет 3 мес.
Сообщений: 102
Ratio: 21.985
Раздал: 29.71 TB
21.38%
это вам не нынешние "Дивергент", и их же с ними . Смотреть обязательно!
flashe4ka
Стаж: 13 лет 8 мес.
Сообщений: 5
Ratio: 0.91
67.8%
фильм просто шикарен...
ГлавныйГерой
Стаж: 10 лет 2 мес.
Сообщений: 217
Ratio: 16.406
6.8%
ethiopia.gif
что то типа Оруэл "1984"?
Vikachka
Стаж: 16 лет 4 мес.
Сообщений: 303
Ratio: 13.416
1.87%
Дорожки 2 и 3 - одинаковые.
idayw
Стаж: 12 лет 5 мес.
Сообщений: 64
Ratio: 9.969
32.62%
russia.gif
Классный фильм, пересматриваю уже который раз. Я как бы ярый фанат Бэйла :стрельба:
noname_anderson
Стаж: 10 лет 4 мес.
Сообщений: 25
Ratio: 1.764
8.57%
russia.gif
Кто в 2002 году мог подумать, что в России 2015 года за вольнодумство начнут сажать. Тетраграмматон на подходе. Реализация сюжета в реальной жизни.
Job_67
Стаж: 11 лет 6 мес.
Сообщений: 291
Ratio: 111.965
100%
noname_anderson писал(а): Перейти к сообщению
Кто в 2002 году мог подумать, что в России 2015 года за вольнодумство начнут сажать.

А в Украине расстреливать.
bondeet
Стаж: 13 лет 10 мес.
Сообщений: 112
Ratio: 20.286
Раздал: 13.72 TB
Поблагодарили: 287
27.65%
Откуда: Белгород
russia.gif
Помогите докачать пожалуйста!! Фильм классный, очень посмотреть хочется

_________________
Показать сообщения:   
Начать новую тему   Ответить на тему    Торрент-трекер NNM-Club -> Зарубежное кино -> Зарубежные Фильмы (HD, FHD) Часовой пояс: GMT + 3
Страница 1 из 1