Классический форум-трекер
canvas not supported
Нас вместе: 4 234 415

Rush - Signals (1982) [FLAC 2.0 24/96|image (Vinyl-Rip)]<Progressive Rock>


 
 
RSS
Начать новую тему   Ответить на тему    Торрент-трекер NNM-Club -> HD Audio и Многоканальная Музыка -> Vinyl-Rip и Hand-Made
Автор Сообщение
Bigbeer ®
RG Music
Сталкер
Стаж: 14 лет 8 мес.
Сообщений: 3272
Ratio: 331.593
Поблагодарили: 62390
100%
pirates.png
Rush - Signals (1982)

Год: 1982
Страна-производитель диска: Japan
Издатель (лейбл): Epic / Anthem Records
Номер по каталогу: 25-3P-378
Жанр: Progressive Rock
Продолжительность: 00:42:45
Автор оцифровки: Bigbeer
Кодек: FLAC 2.0
Формат записи: 24/96
Формат раздачи: 24/96
Тип рипа: image+.cue
Треклист:
A1. Subdivisions (5:37)
A2. The Analog Kid (4:48)
A3. Chemistry (4:57)
A4. Digital Man (6:24)
B1. The Weapon (6:28)
B2. New World Man (3:47)
B3. Losing It (4:54)
B4. Countdown (5:50)
Код класса состояния винила: NM
Устройство воспроизведения: Technics SL-1200MK3D
Головка звукоснимателя: Audio Technica AT150MLX
Предварительный усилитель: Cambridge Audio 651P
Межблочник: Oehlbach
АЦП: Asus Xonar Essence ST
Программа-оцифровщик: Adobe Audition CS6
Обработка: удалил несколько щелчков
Код: выделить все

General
Complete name                            : E:\Музыка\Lossless\Torrents NNM\VinylRip\Rush - Signals (1982) (VR Epic-Anthem 25-3P-378 Japan)\Rush - Signals.flac
Format                                   : FLAC
Format/Info                              : Free Lossless Audio Codec
File size                                : 948 MiB
Duration                                 : 42mn 45s
Overall bit rate mode                    : Variable
Overall bit rate                         : 3 099 Kbps
Album                                    : Signals
Track name/Total                         : 8
Performer                                : Rush
Producer                                 : Epic / Anthem 25-3P-378
Genre                                    : Progressive Rock
Recorded date                            : 1982
Cover                                    : Yes
Cover type                               : Cover (front)
Cover MIME                               : image/jpeg
Comment                                  : rip by Bigbeer
cuesheet                                 : REM GENRE Progressive Rock / REM DATE 1982 / REM DISCID 25-3P-378 / REM COMMENT rip by Bigbeer / PERFORMER "Rush" / TITLE "Signals" / FILE "Rush - Signals.flac" WAVE /   TRACK 01 AUDIO /     TITLE "Subdivisions" /     INDEX 01 00:00:00 /   TRACK 02 AUDIO /     TITLE "The Analog Kid" /     INDEX 01 05:36:57 /   TRACK 03 AUDIO /     TITLE "Chemistry" /     INDEX 01 10:24:66 /   TRACK 04 AUDIO /     TITLE "Digital Man" /     INDEX 01 15:22:22 /   TRACK 05 AUDIO /     TITLE "The Weapon" /     INDEX 01 21:46:49 /   TRACK 06 AUDIO /     TITLE "New World Man" /     INDEX 01 28:14:47 /   TRACK 07 AUDIO /     TITLE "Losing It" /     INDEX 01 32:01:44 /   TRACK 08 AUDIO /     TITLE "Countdown" /     INDEX 01 36:55:64

Audio
Format                                   : FLAC
Format/Info                              : Free Lossless Audio Codec
Duration                                 : 42mn 45s
Bit rate mode                            : Variable
Bit rate                                 : 3 099 Kbps
Channel(s)                               : 2 channels
Sampling rate                            : 96.0 KHz
Bit depth                                : 24 bits
Stream size                              : 948 MiB (100%)
Writing library                          : libFLAC 1.0.25 (UTC 2007-09-17)

Код: выделить все

foobar2000 1.3.3 (cdpos.biz) / Замер динамического диапазона (DR) 1.1.1
Дата отчёта: 2014-10-17 20:25:31

--------------------------------------------------------------------------------
Анализ:       Rush / Signals
--------------------------------------------------------------------------------

DR         Пики            RMS           Продолжительность трека
--------------------------------------------------------------------------------
DR13      -1.07 дб        -15.56 дб         5:37 1-Subdivisions
DR12      -1.97 дб        -16.01 дб         4:48 2-The Analog Kid
DR12      -2.03 дб        -17.78 дб         4:57 3-Chemistry
DR13      -2.19 дб        -18.01 дб         6:24 4-Digital Man
DR13      -1.01 дб        -16.57 дб         6:28 5-The Weapon
DR12      -2.45 дб        -17.27 дб         3:47 6-New World Man
DR14      -1.61 дб        -18.69 дб         4:54 7-Losing It
DR12      -1.60 дб        -16.59 дб         5:50 8-Countdown
--------------------------------------------------------------------------------

Количество треков:    8
Реальные значения DR: DR13

Частота:                 96000 Гц
Каналов:                 2
Бит на сэмпл:     24
Битрейт:                 3099 кбит/с
Кодек:                   FLAC
================================================================================


Время раздачи: с 18:00 по 02:00 МСК
[NNM-Club.name]_Rush - Signals (1982) (VR Epic-Anthem 25-3P-378 Japan).torrent
 Торрент: Платиновая раздача  Зарегистрирован
 
Скачать


Примагнититься
 Зарегистрирован:   17 Ноя 2017 07:31:13
 Размер:   1.65 GB  (
 Рейтинг:   4.5 (Голосов: 22)
 Поблагодарили:   88
 Проверка:   Оформление проверено модератором 17 Ноя 2017 07:32:08
Как cкачать  ·  Как раздать  ·  Правильно оформить  ·  Поднять ратио!  
lobashova
Стаж: 13 лет 5 мес.
Сообщений: 89
Ratio: 0.445
Раздал: 196 GB
19.8%
Великолепно звучит. Очень мягко и без провалов. Аналоговый настоящий звук! Спасибо.
Показать сообщения:   
Начать новую тему   Ответить на тему    Торрент-трекер NNM-Club -> HD Audio и Многоканальная Музыка -> Vinyl-Rip и Hand-Made Часовой пояс: GMT + 3
Страница 1 из 1