Классический форум-трекер
canvas not supported
Нас вместе: 4 171 450

Первый рейс (1976) SATRip


 
 
RSS
Начать новую тему   Ответить на тему    Торрент-трекер NNM-Club -> Классика кино и Старые фильмы до 90-х -> Старые Отечественные Фильмы (HD*Rip/LQ, DVDRip, SATRip, VHSRip)
Автор Сообщение
nikvor1 ®
Гость
Первый рейс (1976) SATRip
Русское название: Первый рейс
Год выпуска: 1976
Жанр: Киноповесть

Описание фильма: Молодой парень проходит первую жизненную практику - находит себе работу по душе и отправляется в свой первый рейс

Режиссер: Аян Шахмалиева
Актеры: Борис Андреев, Олег Анофриев, Алла Мещерякова, Михаил Васьков.

Продолжительность: 01:14:04



Видеокодек: XviD
Битрейт видео: ~1375 kb/s
Размер кадра: 576 x 432
Качество видео: SATRip
Аудиокодек: MPEG Layer 3, 2 ch,
Битрейт аудио: ~128.00 kbps
General
Complete name : C:\Documents and Settings\Admin\Мои документы\Downloads\Pervyi.reis.avi
Format : AVI
Format/Info : Audio Video Interleave
File size : 801 MiB
Duration : 1h 14mn
Overall bit rate : 1 512 Kbps
Writing application : VirtualDubMod 1.5.10.2 (build 2540/release)
Writing library : VirtualDubMod build 2540/release

Video
ID : 0
Format : MPEG-4 Visual
Format profile : Advanced Simple@L5
Format settings, BVOP : 3
Format settings, QPel : No
Format settings, GMC : No warppoints
Format settings, Matrix : Default (MPEG)
Codec ID : XVID
Codec ID/Hint : XviD
Duration : 1h 14mn
Bit rate : 1 375 Kbps
Width : 576 pixels
Height : 432 pixels
Display aspect ratio : 4:3
Frame rate : 25.000 fps
Color space : YUV
Chroma subsampling : 4:2:0
Bit depth : 8 bits
Scan type : Progressive
Compression mode : Lossy
Bits/(Pixel*Frame) : 0.221
Stream size : 728 MiB (91%)
Writing library : XviD 1.1.2 (UTC 2006-11-01)

Audio
ID : 1
Format : MPEG Audio
Format version : Version 1
Format profile : Layer 3
Mode : Joint stereo
Mode extension : MS Stereo
Codec ID : 55
Codec ID/Hint : MP3
Duration : 1h 14mn
Bit rate mode : Constant
Bit rate : 128 Kbps
Channel(s) : 2 channels
Sampling rate : 48.0 KHz
Compression mode : Lossy
Stream size : 67.8 MiB (8%)
Alignment : Split accross interleaves
Interleave, duration : 40 ms (1.00 video frame)
Interleave, preload duration : 500 ms
Скриншоты:


Время раздачи: 01:00-10:00 МСК
[NNM-Club.me]_Pervyi.reis.avi.torrent
 Торрент: Платиновая раздача  Зарегистрирован
 
Скачать


Примагнититься
 Зарегистрирован:   31 Окт 2014 06:32:44
 Размер:   801 MB  (
 Рейтинг:   4.3 (Голосов: 38)
 Поблагодарили:   92
 Проверка:   Оформление проверено модератором 31 Окт 2014 11:24:40
Как cкачать  ·  Как раздать  ·  Правильно оформить  ·  Поднять ратио!  
Megatron1973
Uploader 100+
Стаж: 11 лет 7 мес.
Сообщений: 865
Ratio: 159.211
Поблагодарили: 254
100%
witch.png
Спасибо

_________________
Float like a butterfly, sting like a bee.
Никулин Юрий
Стаж: 9 лет 2 мес.
Сообщений: 195
Ratio: 25.881
Раздал: 22.28 TB
100%
Откуда: Приволжский Ф.О.
russia.gif
Спасибо. Очень хороший фильм. Рекомендую любителям СОВЕТСКОГО КИНЕМАТОГРАФА.
Кот Леон
Стаж: 11 лет 2 мес.
Сообщений: 69
Ratio: 15.471
Поблагодарили: 2357
6.98%
ussr.gif
Надо посмотреть) после Острова сокровищ (1971).

_________________
Всех не пересажаете!
Показать сообщения:   
Начать новую тему   Ответить на тему    Торрент-трекер NNM-Club -> Классика кино и Старые фильмы до 90-х -> Старые Отечественные Фильмы (HD*Rip/LQ, DVDRip, SATRip, VHSRip) Часовой пояс: GMT + 3
Страница 1 из 1