Классический форум-трекер
canvas not supported
Нас вместе: 4 210 905

BBC. Horizon: Видим ли мы одно и то же? / Horizon: Do You See What I See? (2011) HDTVRip [H.264/720p]


 
 
RSS
Начать новую тему   Ответить на тему    Торрент-трекер NNM-Club -> Зарубежные TV-бренды -> BBC
Автор Сообщение
Отец Лоренцо ®
Uploader 1000+, Сталкер
Стаж: 10 лет 11 мес.
Сообщений: 4039
Ratio: 7393.141
Раздал: 1.0172 PB
Поблагодарили: 123349
100%
Откуда: Харьков, Украина
BBC. Horizon: Видим ли мы одно и то же? / Horizon: Do You See What I See? (2011) HDTVRip [H.264/720p]
Страна: Великобритания
Режиссер / Телекомпания: Софи Робинсон / British Broadcasting Company (BBC)
Год выпуска: 2011
Жанр: Документальный, научно-познавательный

Описание:
Передача из цикла BBC Horizon проливает свет на то, каким видит мир каждый из нас. Несмотря на то, что кажется очевидным будто розы красные, небо голубое, а трава зеленая, цветовое восприятие каждого человека индивидуально — в зависимости от возраста, пола и даже настроения. Среди прочего ученые выяснили скрытую силу цвета: может ли красный помочь вам стать победителем, синий ускорить время и многое другое.

Продолжительность: 00:59:10
Качество видео: HDTVRip [720p]

Перевод: Двухголосый закадровый (профессиональный, ВидеоФильм-ТВ)
Субтитры: вшитые отключаемые
Язык субтитров: русские (на неозвученные места), русские (полные), английские

Формат файла: MKV
Видеокодек: MPEG-4 AVC/H.264
Битрейт видео: ~4 000 Кбит/сек
Размер кадра: 1280x720
Аудио 1: Русский: AC3, 48 kHz, 2 ch, 192 kbps
Аудио 2: Английский: AC3, 48 kHz, 2 ch, 192 Kbps
Общее
Уникальный идентификатор : 209703190496441894822910361079139516100 (0x9DC35D8AEC930EE8842FAA2C4A4BBEC4)
Полное имя : D:\Релизы\BBC.Horizon.2011.Do.You.See.What.I.See.HDTV.720p.mkv
Формат : Matroska
Версия формата : Version 4 / Version 2
Размер файла : 1,81 Гбайт
Продолжительность : 59 м.
Общий поток : 4386 Кбит/сек
Название фильма : BBC Horizon - Do You See What I See?
Дата кодирования : UTC 2013-04-11 16:38:31
Программа кодирования : mkvmerge v6.1.0 ('Old Devil') built on Mar 2 2013 14:32:37
Библиотека кодирования : libebml v1.3.0 + libmatroska v1.4.0

Видео
Идентификатор : 1
Формат : AVC
Формат/Информация : Advanced Video Codec
Профиль формата : High@L4.1
Параметр CABAC формата : Да
Параметр ReFrames формата : 6 кадров
Идентификатор кодека : V_MPEG4/ISO/AVC
Продолжительность : 59 м.
Битрейт : 4000 Кбит/сек
Ширина : 1280 пикселей
Высота : 720 пикселей
Соотношение сторон : 16:9
Режим частоты кадров : Постоянный
Частота кадров : 25,000 кадров/сек
Цветовое пространство : YUV
Субдискретизация насыщенности : 4:2:0
Битовая глубина : 8 бит
Тип развёртки : Прогрессивная
Бит/(Пиксели*Кадры) : 0.174
Размер потока : 1,62 Гбайт (89%)
Библиотека кодирования : x264 core 116 r2044 392e762
Настройки программы : cabac=1 / ref=6 / deblock=1:0:0 / analyse=0x3:0x113 / me=umh / subme=9 / psy=1 / psy_rd=1.00:0.00 / mixed_ref=1 / me_range=24 / chroma_me=1 / trellis=1 / 8x8dct=1 / cqm=0 / deadzone=21,11 / fast_pskip=0 / chroma_qp_offset=-2 / threads=3 / sliced_threads=0 / nr=0 / decimate=1 / interlaced=0 / bluray_compat=0 / constrained_intra=0 / bframes=3 / b_pyramid=2 / b_adapt=1 / b_bias=0 / direct=1 / weightb=1 / open_gop=0 / weightp=2 / keyint=125 / keyint_min=25 / scenecut=40 / intra_refresh=0 / rc_lookahead=40 / rc=2pass / mbtree=1 / bitrate=4000 / ratetol=1.0 / qcomp=0.60 / qpmin=0 / qpmax=69 / qpstep=4 / cplxblur=20.0 / qblur=0.5 / ip_ratio=1.40 / aq=1:1.00
Язык : English
Default : Да
Forced : Нет

Аудио #1
Идентификатор : 2
Формат : AC-3
Формат/Информация : Audio Coding 3
Расширение режима : CM (complete main)
Параметр Endianness формата : Big
Идентификатор кодека : A_AC3
Продолжительность : 59 м.
Вид битрейта : Постоянный
Битрейт : 192 Кбит/сек
Каналы : 2 канала
Расположение каналов : Front: L R
Частота : 48,0 КГц
Битовая глубина : 16 бит
Метод сжатия : С потерями
Размер потока : 81,3 Мбайт (4%)
Язык : Russian
Default : Да
Forced : Нет

Аудио #2
Идентификатор : 3
Формат : AC-3
Формат/Информация : Audio Coding 3
Расширение режима : CM (complete main)
Параметр Endianness формата : Big
Идентификатор кодека : A_AC3
Продолжительность : 59 м.
Вид битрейта : Постоянный
Битрейт : 192 Кбит/сек
Каналы : 2 канала
Расположение каналов : Front: L R
Частота : 48,0 КГц
Битовая глубина : 16 бит
Метод сжатия : С потерями
Размер потока : 81,3 Мбайт (4%)
Язык : English
Default : Нет
Forced : Нет

Текст #1
Идентификатор : 4
Формат : UTF-8
Идентификатор кодека : S_TEXT/UTF8
Идентификатор кодека/Информация : UTF-8 Plain Text
Язык : Russian
Default : Да
Forced : Да

Текст #2
Идентификатор : 5
Формат : UTF-8
Идентификатор кодека : S_TEXT/UTF8
Идентификатор кодека/Информация : UTF-8 Plain Text
Заголовок : Full
Язык : Russian
Default : Нет
Forced : Нет

Текст #3
Идентификатор : 6
Формат : UTF-8
Идентификатор кодека : S_TEXT/UTF8
Идентификатор кодека/Информация : UTF-8 Plain Text
Язык : English
Default : Нет
Forced : Нет
Скриншоты:




Пожалуйста, не уходите с раздачи - помогите докачать другим. Если понравился релиз - жмите кнопку "Спасибо"! :приветствую:

Время раздачи: 24 / 7

"Видим ли мы одно и то же? / Do You See What I See?" на NoNaMe Club
 Торрент: Платиновая раздача  Зарегистрирован
 
Скачать


Примагнититься
 Зарегистрирован:   11 Ноя 2014 22:13:26
 Размер:   1.81 GB  (
 Рейтинг:   4.6 (Голосов: 46)
 Поблагодарили:   213
 Проверка:   Оформление проверено модератором 11 Ноя 2014 22:30:31
Как cкачать  ·  Как раздать  ·  Правильно оформить  ·  Поднять ратио!  
bratislav
Стаж: 13 лет 1 мес.
Сообщений: 219
Ratio: 4.011
Поблагодарили: 13
100%
Откуда: Born in USSR
russia.gif
Если бы меня с рождения учили, что синий цвет это красный, а красный называется зелёный, то так для меня и было-бы. А может так и есть? Где правда?

_________________
Наше дело правое
Wolf Ramm
Стаж: 9 лет 7 мес.
Сообщений: 578
Ratio: 18.708
100%
Правда в логике. Если пронумеровать простые цвета и попросить всех, включая наученных неправильно называть цвета, то укажут на одни и те же цвета, но с разными названиями.
Названия - всего лишь звуки. Цвет - волна определённой частоты.

_________________
Даже если ты один против всех, это ещё не значит, что ты не прав.
Показать сообщения:   
Начать новую тему   Ответить на тему    Торрент-трекер NNM-Club -> Зарубежные TV-бренды -> BBC Часовой пояс: GMT + 3
Страница 1 из 1