Классический форум-трекер
canvas not supported
Нас вместе: 4 233 598

Кобра / Cobra (1986) BDRip [H.264/720p-LQ] [Hi10P]


 
 
RSS
Начать новую тему   Ответить на тему    Торрент-трекер NNM-Club -> Классика кино и Старые фильмы до 90-х -> Зарубежная Классика (HD, FHD, UHD, 3D)
Автор Сообщение
sinteros ®
Стаж: 15 лет 3 мес.
Сообщений: 562
Ratio: 65.353
Поблагодарили: 62311
100%
Кобра / Cobra (1986)
BDRip [H.264/720p-LQ] [Hi10P]

Год выпуска: 1986
Страна: США
Жанр: Боевик, Триллер, Криминал
Перевод: Дублированный x2, Многоголосый x2, Авторский x5
Оригинальная аудио дорожка: Английская + Коментарии
Язык субтитров: Русский, Английский
Вид субтитров: Вшитые (отключаемые)

Описание фильма: Он - «Кобра» - штурмовой отряд полиции из одного человека, ему достаётся кровавая работёнка, за которую никто не хочет (или не осмеливается) взяться. Он выходит на след убийцы, за которым целая армия преступников-маньяков, стремящихся уничтожить свидетельницу их кровавой вакханалии. Но, к счастью, она попадает под защиту «Кобры».

Режиссер: Джордж Пан Косматос

Актеры: Сильвестр Сталлоне, Бриджитт Нильсен, Рени Сантони, Эндрю Робинсон, Брайан Томпсон, Джон Херцфелд, Ли Гарлингтон, Арт ЛаФлёр, Марко Родригес, Росс Ст. Филлип

Качество видео: BDRip
Продолжительность: 01:27:03



Основной файл весит 2,67гб с одной звуковой дорожкой!

Видео: MPEG-4 AVC/H.264, 1280x720(16:9), 23,976fps, 3869 Кbps, 0.175bit/pixel
Аудио 1: DUB Russian, AC3, 6ch, 48 kHz, 448 kbps, (Дубляж - Blu-ray CEE)
Аудио 2: DUB Russian, AC3, 2ch, 48 kHz, 192 kbps, (Дубляж - Варус-Видео) - Отдельным файлом
Аудио 3: MVO Russian, AC3, 2ch, 48 kHz, 192 kbps, (Многоголосый - Россия) - Отдельным файлом
Аудио 4: MVO Russian, AC3, 2ch, 48 kHz, 192 kbps, (Многоголосый - НТВ+ По Заказу НТВ, РЕН ТВ, ТВ3) - Отдельным файлом
Аудио 5: AVO Russian, AC3, 6ch, 48 kHz, 448 kbps, (Одноголосый - Гаврилов) - Отдельным файлом
Аудио 6: AVO Russian, AC3, 2ch, 48 kHz, 192 kbps, (Одноголосый - Володарский) - Отдельным файлом
Аудио 7: AVO Russian, AC3, 6ch, 48 kHz, 448 kbps, (Одноголосый - Гоблин) - Отдельным файлом
Аудио 8: AVO Russian, AC3, 6ch, 48 kHz, 448 kbps, (Одноголосый - Горчаков) - Отдельным файлом
Аудио 9: AVO Russian, AC3, 2ch, 48 kHz, 192 kbps, (Одноголосый - Товбин) - Отдельным файлом
Аудио 10: English, AC3, 6ch, 48 kHz, 448 kbps, (Оригинал) - Отдельным файлом
Аудио 11: English, AC3, 2ch, 48 kHz, 192 kbps, (Коментарии) - Отдельным файлом
Общее
Полное имя : Кобра (1986) BDRip-AVC.mkv
Формат : Matroska
Версия формата : Version 4 / Version 2
Размер файла : 4,47 Гбайт
Продолжительность : 1 ч. 27 м.
Общий поток : 7351 Кбит/сек
Название фильма : Кобра / Cobra (1986) BDRip-AVC (Sinteros)
Attachment : Yes

Видео
Идентификатор : 1
Формат : AVC
Формат/Информация : Advanced Video Codec
Профиль формата : High 10@L4.1
Параметр CABAC формата : Да
Параметр ReFrames формата : 11 кадров
Идентификатор кодека : V_MPEG4/ISO/AVC
Продолжительность : 1 ч. 27 м.
Битрейт : 3869 Кбит/сек
Ширина : 1280 пикселей
Высота : 720 пикселей
Соотношение сторон : 16:9
Режим частоты кадров : Постоянный
Частота кадров : 23,976 кадра/сек
Цветовое пространство : YUV
Субдискретизация насыщенности : 4:2:0
Битовая глубина : 10 бит
Тип развёртки : Прогрессивная
Бит/(Пиксели*Кадры) : 0.175
Размер потока : 2,32 Гбайт (52%)
Заголовок : MPEG-4 AVC/H.264, 1280x720(16:9), 23,976fps, 3869 Кbps, 0.175bit/pixel
Библиотека кодирования : x264 core 133 r2334 a3ac64b
Настройки программы : cabac=1 / ref=11 / deblock=1:-1:-1 / analyse=0x3:0x133 / me=tesa / subme=10 / psy=1 / psy_rd=1.00:0.15 / mixed_ref=1 / me_range=24 / chroma_me=1 / trellis=2 / 8x8dct=1 / cqm=0 / deadzone=21,11 / fast_pskip=1 / chroma_qp_offset=-3 / threads=12 / lookahead_threads=1 / sliced_threads=0 / nr=0 / decimate=1 / interlaced=0 / bluray_compat=0 / constrained_intra=0 / bframes=6 / b_pyramid=2 / b_adapt=2 / b_bias=0 / direct=1 / weightb=1 / open_gop=0 / weightp=2 / keyint=250 / keyint_min=23 / scenecut=40 / intra_refresh=0 / rc_lookahead=60 / rc=crf / mbtree=1 / crf=21.0 / qcomp=0.60 / qpmin=0 / qpmax=81 / qpstep=4 / ip_ratio=1.40 / aq=1:1.00
Язык : English
Default : Да
Forced : Нет

Аудио #1
Идентификатор : 2
Формат : AC-3
Формат/Информация : Audio Coding 3
Расширение режима : CM (complete main)
Параметр Endianness формата : Big
Идентификатор кодека : A_AC3
Продолжительность : 1 ч. 27 м.
Вид битрейта : Постоянный
Битрейт : 448 Кбит/сек
Каналы : 6 каналов
Расположение каналов : Front: L C R, Side: L R, LFE
Частота : 48,0 КГц
Битовая глубина : 16 бит
Метод сжатия : С потерями
Размер потока : 279 Мбайт (6%)
Заголовок : DUB Russian, AC3, 6ch, 48 kHz, 448 kbps, (Дубляж - Blu-ray CEE)
Язык : Russian
Default : Да
Forced : Нет

Аудио #2 - Отдельным файлом
Идентификатор : 3
Формат : AC-3
Формат/Информация : Audio Coding 3
Расширение режима : CM (complete main)
Параметр Endianness формата : Big
Идентификатор кодека : A_AC3
Продолжительность : 1 ч. 27 м.
Вид битрейта : Постоянный
Битрейт : 192 Кбит/сек
Каналы : 2 канала
Расположение каналов : Front: L R
Частота : 48,0 КГц
Битовая глубина : 16 бит
Метод сжатия : С потерями
Размер потока : 120 Мбайт (3%)
Заголовок : DUB Russian, AC3, 2ch, 48 kHz, 192 kbps, (Дубляж - Варус-Видео)
Язык : Russian
Default : Нет
Forced : Нет

Аудио #3 - Отдельным файлом
Идентификатор : 4
Формат : AC-3
Формат/Информация : Audio Coding 3
Расширение режима : CM (complete main)
Параметр Endianness формата : Big
Идентификатор кодека : A_AC3
Продолжительность : 1 ч. 27 м.
Вид битрейта : Постоянный
Битрейт : 192 Кбит/сек
Каналы : 2 канала
Расположение каналов : Front: L R
Частота : 48,0 КГц
Битовая глубина : 16 бит
Метод сжатия : С потерями
Размер потока : 120 Мбайт (3%)
Заголовок : MVO Russian, AC3, 2ch, 48 kHz, 192 kbps, (Многоголосый - Россия) - Отдельным файлом
Язык : Russian
Default : Нет
Forced : Нет

Аудио #4 - Отдельным файлом
Идентификатор : 5
Формат : AC-3
Формат/Информация : Audio Coding 3
Расширение режима : CM (complete main)
Параметр Endianness формата : Big
Идентификатор кодека : A_AC3
Продолжительность : 1 ч. 27 м.
Вид битрейта : Постоянный
Битрейт : 192 Кбит/сек
Каналы : 2 канала
Расположение каналов : Front: L R
Частота : 48,0 КГц
Битовая глубина : 16 бит
Метод сжатия : С потерями
Размер потока : 120 Мбайт (3%)
Заголовок : MVO Russian, AC3, 2ch, 48 kHz, 192 kbps, (Многоголосый - НТВ+ По Заказу НТВ, РЕН ТВ, ТВ3) - Отдельным файлом
Язык : Russian
Default : Нет
Forced : Нет

Аудио #5 - Отдельным файлом
Идентификатор : 6
Формат : AC-3
Формат/Информация : Audio Coding 3
Расширение режима : CM (complete main)
Параметр Endianness формата : Big
Идентификатор кодека : A_AC3
Продолжительность : 1 ч. 27 м.
Вид битрейта : Постоянный
Битрейт : 448 Кбит/сек
Каналы : 6 каналов
Расположение каналов : Front: L C R, Side: L R, LFE
Частота : 48,0 КГц
Битовая глубина : 16 бит
Метод сжатия : С потерями
Размер потока : 279 Мбайт (6%)
Заголовок : AVO Russian, AC3, 6ch, 48 kHz, 448 kbps, (Одноголосый - Гаврилов) - Отдельным файлом
Язык : Russian
Default : Нет
Forced : Нет

Аудио #6 - Отдельным файлом
Идентификатор : 7
Формат : AC-3
Формат/Информация : Audio Coding 3
Расширение режима : CM (complete main)
Параметр Endianness формата : Big
Идентификатор кодека : A_AC3
Продолжительность : 1 ч. 27 м.
Вид битрейта : Постоянный
Битрейт : 192 Кбит/сек
Каналы : 2 канала
Расположение каналов : Front: L R
Частота : 48,0 КГц
Битовая глубина : 16 бит
Метод сжатия : С потерями
Размер потока : 120 Мбайт (3%)
Заголовок : AVO Russian, AC3, 2ch, 48 kHz, 192 kbps, (Одноголосый - Володарский) - Отдельным файлом
Язык : Russian
Default : Нет
Forced : Нет

Аудио #7 - Отдельным файлом
Идентификатор : 8
Формат : AC-3
Формат/Информация : Audio Coding 3
Расширение режима : CM (complete main)
Параметр Endianness формата : Big
Идентификатор кодека : A_AC3
Продолжительность : 1 ч. 27 м.
Вид битрейта : Постоянный
Битрейт : 448 Кбит/сек
Каналы : 6 каналов
Расположение каналов : Front: L C R, Side: L R, LFE
Частота : 48,0 КГц
Битовая глубина : 16 бит
Метод сжатия : С потерями
Размер потока : 279 Мбайт (6%)
Заголовок : AVO Russian, AC3, 6ch, 48 kHz, 448 kbps, (Одноголосый - Гоблин) - Отдельным файлом
Язык : Russian
Default : Нет
Forced : Нет

Аудио #8 - Отдельным файлом
Идентификатор : 9
Формат : AC-3
Формат/Информация : Audio Coding 3
Расширение режима : CM (complete main)
Параметр Endianness формата : Big
Идентификатор кодека : A_AC3
Продолжительность : 1 ч. 27 м.
Вид битрейта : Постоянный
Битрейт : 448 Кбит/сек
Каналы : 6 каналов
Расположение каналов : Front: L C R, Side: L R, LFE
Частота : 48,0 КГц
Битовая глубина : 16 бит
Метод сжатия : С потерями
Размер потока : 279 Мбайт (6%)
Заголовок : AVO Russian, AC3, 6ch, 48 kHz, 448 kbps, (Одноголосый - Горчаков) - Отдельным файлом
Язык : Russian
Default : Нет
Forced : Нет

Аудио #9 - Отдельным файлом
Идентификатор : 10
Формат : AC-3
Формат/Информация : Audio Coding 3
Расширение режима : CM (complete main)
Параметр Endianness формата : Big
Идентификатор кодека : A_AC3
Продолжительность : 1 ч. 27 м.
Вид битрейта : Постоянный
Битрейт : 192 Кбит/сек
Каналы : 2 канала
Расположение каналов : Front: L R
Частота : 48,0 КГц
Битовая глубина : 16 бит
Метод сжатия : С потерями
Размер потока : 120 Мбайт (3%)
Заголовок : AVO Russian, AC3, 2ch, 48 kHz, 192 kbps, (Одноголосый - Товбин) - Отдельным файлом
Язык : Russian
Default : Нет
Forced : Нет

Аудио #10 - Отдельным файлом
Идентификатор : 11
Формат : AC-3
Формат/Информация : Audio Coding 3
Расширение режима : CM (complete main)
Параметр Endianness формата : Big
Идентификатор кодека : A_AC3
Продолжительность : 1 ч. 27 м.
Вид битрейта : Постоянный
Битрейт : 448 Кбит/сек
Каналы : 6 каналов
Расположение каналов : Front: L C R, Side: L R, LFE
Частота : 48,0 КГц
Битовая глубина : 16 бит
Метод сжатия : С потерями
Размер потока : 279 Мбайт (6%)
Заголовок : English, AC3, 6ch, 48 kHz, 448 kbps, (Оригинал) - Отдельным файлом
Язык : English
Default : Нет
Forced : Нет

Аудио #11 - Отдельным файлом
Идентификатор : 12
Формат : AC-3
Формат/Информация : Audio Coding 3
Профиль формата : Dolby Digital
Расширение режима : CM (complete main)
Параметр Endianness формата : Big
Идентификатор кодека : A_AC3
Продолжительность : 1 ч. 27 м.
Вид битрейта : Постоянный
Битрейт : 192 Кбит/сек
Каналы : 2 канала
Расположение каналов : Front: L R
Частота : 48,0 КГц
Битовая глубина : 16 бит
Метод сжатия : С потерями
Размер потока : 120 Мбайт (3%)
Заголовок : English, AC3, 2ch, 48 kHz, 192 kbps, (Коментарии) - Отдельным файлом
Язык : English
Default : Нет
Forced : Нет

Текст #1
Идентификатор : 13
Формат : UTF-8
Идентификатор кодека : S_TEXT/UTF8
Идентификатор кодека/Информация : UTF-8 Plain Text
Язык : Russian
Default : Нет
Forced : Нет

Текст #2
Идентификатор : 14
Формат : UTF-8
Идентификатор кодека : S_TEXT/UTF8
Идентификатор кодека/Информация : UTF-8 Plain Text
Язык : English
Default : Нет
Forced : Нет

Меню
00:00:00.000 : en:
00:05:00.000 : en:
00:10:00.000 : en:
00:15:00.000 : en:
00:20:00.000 : en:
00:25:00.000 : en:
00:30:00.000 : en:
00:35:00.000 : en:
00:40:00.000 : en:
00:45:00.000 : en:
00:50:00.000 : en:
00:55:00.000 : en:
01:00:00.000 : en:
01:05:00.000 : en:
01:10:00.000 : en:
01:15:00.000 : en:
01:20:00.000 : en:
01:25:00.000 : en:
Примечание: Рип в High 10 Profile, в настоящее время не поддерживается большинством аппаратных проигрывателей, поэтому предназначен исключительно для воспроизведения на ПК. Для корректного воспроизведения может потребоваться обновление ПО.

Скриншоты:



Кобра на NNM-club

Время раздачи: 24/7 (жду до 10-15 скачавших а дальше могу уйти с радачи)
[NNM-Club.me]_Kobra (1986) BDRip-AVC.torrent
 Торрент: Платиновая раздача  Зарегистрирован
 
Скачать


Примагнититься
 Зарегистрирован:   16 Ноя 2014 19:01:26
 Размер:   4.47 GB  (
 Рейтинг:   4.8 (Голосов: 59)
 Поблагодарили:   160
 Проверка:   Оформление проверено модератором 17 Ноя 2014 09:28:11
Как cкачать  ·  Как раздать  ·  Правильно оформить  ·  Поднять ратио!  
DaoDzen
 
Стаж: 17 лет 4 мес.
Сообщений: 592
Ratio: 10.355
Поблагодарили: 177
100%
russia.gif
Спасибо от каждого, у кого была майка с такой переводной картинкой!

_________________
Очень хочется гидроусилитель мозга. Чтобы без труда думать сложные мысли.
sinteros ®
Стаж: 15 лет 3 мес.
Сообщений: 562
Ratio: 65.353
Поблагодарили: 62311
100%
DaoDzen писал(а): Перейти к сообщению
Спасибо от каждого, у кого была майка с такой переводной картинкой!

Пожалуйста от того у кого не было майки с такой переводной картинкой. Если не путаю то переводки с этой картинкой продавались в конце восьмидесятых или середине девяностых. Когда еще были видеозалы в которых стояло по несколько цветных телевизоров. И одноголосый гнусавый голос переводчика раздавался из динамиков. А все зрители его внимательно и с удовольствием слушали. Эх замечательные были времена. За исключением периодических перестрелок на улицах города и отсутствием жрачки в магазинах.
Vadim007
Стаж: 14 лет 1 мес.
Сообщений: 809
Ratio: 64.523
100%
nnm-club.gif
Классный фильм! Помню, были даже календари с изображением Сталлоне, весь такой брутальный в тёмных очках)) Спасибо за замечательный фильм, который по прошествии лет, остаётся лучшим!
seregasgas
Стаж: 13 лет 4 мес.
Сообщений: 311
Ratio: 43.273
Поблагодарили: 7636
100%
Откуда: St.Petersburg
pirates.png
О... Крутой кинч из детства!
Помню переводчик угарный был - "Вызываем кобдэти. Нет,нет, только не кобдэтти" и весь видеосалон в покатуху!
Lester7777
 
Стаж: 12 лет 1 мес.
Сообщений: 505
Ratio: 5.672
100%
Откуда: Самый Лучший Город
russia.gif
Шикарный боевик эпохи видеосалонов :стрельба:
Показать сообщения:   
Начать новую тему   Ответить на тему    Торрент-трекер NNM-Club -> Классика кино и Старые фильмы до 90-х -> Зарубежная Классика (HD, FHD, UHD, 3D) Часовой пояс: GMT + 3
Страница 1 из 1