Классический форум-трекер
canvas not supported
Нас вместе: 4 210 852

Грэвити Фоллс / Гравити Фолз / Gravity Falls (2014-2016) WEB-DL [720p] (2 сезон, 20 серий из 20) + BONUS


Страницы:  1, 2, 3, 4, 5, 6  След. 
 
RSS
Начать новую тему   Ответить на тему    Торрент-трекер NNM-Club -> Мультфильмы -> Зарубежные Мультсериалы
Автор Сообщение
usalmalay ®
Стаж: 8 лет
Сообщений: 27
Ratio: 62.678
Поблагодарили: 1231
9.59%
israel.gif
Грэвити Фоллс / Гравити Фолз / Gravity Falls (2014-2016) WEB-DL [720p] (2 сезон, 20 серий из 20) + BONUS
Год выпуска: 2014-2016
Жанр: Комедия, Рисованная анимация, Приключения

Язык: Английский, русский

Описание:
Долгожданное продолжение приключений брата и сестры в загадочном городке Gravity Falls.
Многоголовые медведи, мачо-минотавры, киберчудища, гномы-растлители, престарелые привидения, взбесившиеся технологии, древние артефакты и путешествия во времени с нарушением всех возможных правил в атмосфере тотального заговора неведомых сил и криптоконспирологии.

Режиссер: Джон Ошима, Аарон Спрингер, Джо Питт
Персонажи: Диппер Пайнс, Мейбл Пайнс, Стэнфорд Пайнс, Венди Кордрой, Зус Рамирез, Гидеон Глифул, Робби Ви, Старик МакГаккет, Билл Шифр (Сайфер), Пассифика Нортвест

Продолжительность: 00:22:06 х 20 серий. Бонус: 00:02:14 х 6 серий
Качество видео: WEB-DL
Перевод: Одноголосый закадровый
Автор перевода: Сыендук
Язык субтитров: Английские+русские(не все серии)
Вид субтитров: Вшитые



Сэмпл: Ссылка

Видеокодек: AVC
Битрейт видео: 4462 kbps
Размер кадра: 1280x720
Аудио 1: AC-3, 192 Kbps, 2 channels, 48.0 KHz
Аудио 2: [оригинал] AAC, 48.0 kHz, 2 ch, 160 Kbps
1. Scary-Oke (Кошмараоке)
2. Into the Bunker (Бункер)
3. The Golf War (Война и Гольф)
4. Sock Opera (Носок-опера)
5. Soos and the Real Girl (Сус и Настоящая Девушка)
6. Little Gift Shop of Horrors (Магазинчик Ужасов)
7. Society of the Blind Eye (Общество Невидящего Ока)
8. Blendin's Game (Игра Блендина)
9. The Love God (Божественная любовь)
10. Northwest Mansion Mystery (Тайна особняка Нортвестов)
11. Not What He Seems (Не тот, кем кажется)
12. A Tale Of Two Stans (История двух Стэнов)
13. Dungeons, Dungeons, and More Dungeons (Подземелья, подземелья и ещё раз подземелья)
14. The Stanchurian Candidate (Кандидат от Стэнчжурии)
15. The Last Mabelcorn (Последний Мэйблрог)
16. Roadside Attraction (Придорожные Аттракционы)
17. Dipper and Mabel vs. the Future (Диппер и Мэйбл против будущего)
18. Weirdmageddon, Part 1 (Странногеддон, Часть 1)
19. Weirdmageddon: Part 2 (Странногеддон, Часть 2)
20. Weirdmageddon: Part 3 (Странногеддон, Часть 3)
General
Unique ID : 207918172653443775797152714188472435458 (0x9C6B955E42BDCA3AA80A13D447C3C302)
Complete name : E:\Скаченное\сериалы\Gravity Falls - Второй сезон (Сыендук)\Gravity.Falls.S02E01.rus.vo.sienduk.mkv
Format : Matroska
Format version : Version 2
File size : 722 MiB
Duration : 22mn 36s
Overall bit rate : 4 462 Kbps
Encoded date : UTC 2014-08-03 11:45:09
Writing application : mkvmerge v5.2.1 ('A Far Off Place') built on Jan 2 2012 23:21:10
Writing library : libebml v1.2.3 + libmatroska v1.3.0
Video #1
ID : 1
Format : AVC
Format/Info : Advanced Video Codec
Format profile : High@L3.1
Format settings, CABAC : No
Format settings, ReFrames : 2 frames
Codec ID : V_MPEG4/ISO/AVC
Duration : 22mn 36s
Width : 1 280 pixels
Height : 720 pixels
Display aspect ratio : 16:9
Frame rate mode : Constant
Frame rate : 23.976 fps
Color space : YUV
Chroma subsampling : 4:2:0
Bit depth : 8 bits
Scan type : Progressive
Language : English
Default : Yes
Forced : No
Color primaries : BT.709
Transfer characteristics : BT.709
Matrix coefficients : BT.709
Audio #2
ID : 2
Format : AC-3
Format/Info : Audio Coding 3
Mode extension : CM (complete main)
Format settings, Endianness : Big
Codec ID : A_AC3
Duration : 22mn 36s
Bit rate mode : Constant
Bit rate : 192 Kbps
Channel(s) : 2 channels
Channel positions : Front: L R
Sampling rate : 48.0 KHz
Bit depth : 16 bits
Compression mode : Lossy
Stream size : 31.1 MiB (4%)
Title : sienduk
Language : Russian
Default : Yes
Forced : No
Audio #3
ID : 3
Format : AAC
Format/Info : Advanced Audio Codec
Format profile : LC
Codec ID : A_AAC
Duration : 22mn 36s
Channel(s) : 2 channels
Channel positions : Front: L R
Sampling rate : 48.0 KHz
Compression mode : Lossy
Language : English
Default : No
Forced : No
Text #4
ID : 4
Format : UTF-8
Codec ID : S_TEXT/UTF8
Codec ID/Info : UTF-8 Plain Text
Language : Russian
Default : Yes
Forced : No
Text #5
ID : 5
Format : UTF-8
Codec ID : S_TEXT/UTF8
Codec ID/Info : UTF-8 Plain Text
Language : English
Default : No
Forced : No
[BONUS] Путеводитель Диппера по Необъяснимому (Мини-серии)\Gravity Falls Short 01 - Candy Monster (Сыендук).mp4
General
Complete name : [BONUS] Путеводитель Диппера по Необъяснимому (Мини-серии)\Gravity Falls Short 01 - Candy Monster (Сыендук).mp4
Format : MPEG-4
Format profile : Base Media
Codec ID : isom
File size : 30.6 MiB
Duration : 2mn 14s
Overall bit rate : 1 903 Kbps
Writing application : Lavf54.59.106
Video #1
ID : 1
Format : AVC
Format/Info : Advanced Video Codec
Format profile : High@L3.1
Format settings, CABAC : Yes
Format settings, ReFrames : 4 frames
Codec ID : avc1
Codec ID/Info : Advanced Video Coding
Duration : 2mn 14s
Bit rate : 1 800 Kbps
Width : 1 280 pixels
Height : 720 pixels
Display aspect ratio : 16:9
Frame rate mode : Constant
Frame rate : 25.000 fps
Color space : YUV
Chroma subsampling : 4:2:0
Bit depth : 8 bits
Scan type : Progressive
Bits/(Pixel*Frame) : 0.078
Stream size : 28.4 MiB (93%)
Writing library : x264 core 129
Encoding settings : cabac=1 / ref=3 / deblock=1:0:0 / analyse=0x3:0x113 / me=hex / subme=7 / psy=1 / psy_rd=1.00:0.00 / mixed_ref=1 / me_range=16 / chroma_me=1 / trellis=1 / 8x8dct=1 / cqm=0 / deadzone=21,11 / fast_pskip=1 / chroma_qp_offset=-2 / threads=24 / lookahead_threads=4 / sliced_threads=0 / nr=0 / decimate=1 / interlaced=0 / bluray_compat=0 / constrained_intra=0 / bframes=3 / b_pyramid=2 / b_adapt=1 / b_bias=0 / direct=1 / weightb=1 / open_gop=0 / weightp=2 / keyint=250 / keyint_min=25 / scenecut=40 / intra_refresh=0 / rc_lookahead=40 / rc=abr / mbtree=1 / bitrate=1800 / ratetol=1.0 / qcomp=0.60 / qpmin=0 / qpmax=69 / qpstep=4 / ip_ratio=1.40 / aq=1:1.00
Audio #2
ID : 2
Format : AAC
Format/Info : Advanced Audio Codec
Format profile : LC
Codec ID : 40
Duration : 2mn 14s
Duration_LastFrame : -22ms
Bit rate mode : Constant
Bit rate : 128 Kbps
Channel(s) : 2 channels
Channel positions : Front: L R
Sampling rate : 44.1 KHz
Compression mode : Lossy
Stream size : 2.06 MiB (7%)
Видеокодек: AVC
Битрейт видео: 1903 Kbps
Размер кадра: 1280x720
Аудио 1: AAC, 128 Kbps, 2 channels, 44.1 KHz
Скриншоты:



Грэвити Фоллс / Гравити Фолз / Gravity Falls (2014) WEB-DL [720p]
 Торрент: Платиновая раздача  Зарегистрирован
 
Скачать


Примагнититься
 Зарегистрирован:   18 Фев 2016 21:14:27
 Размер:   14.4 GB  (
 Рейтинг:   4.7 (Голосов: 404)
 Поблагодарили:   1231
 Проверка:   Оформление проверено модератором 19 Фев 2016 09:26:24
Как cкачать  ·  Как раздать  ·  Правильно оформить  ·  Поднять ратио!  
MonDiGT357
Стаж: 8 лет 10 мес.
Сообщений: 68
Ratio: 29.741
100%
ussr.gif
Как я устал от такой дебильной рисовки мультиков, а дети смотрят и деградируют c детства

_________________
Из всех войн, которые народы вели между собою огнем и мечом, религиозные были
самыми кровопролитными.
gribanov-s
Стаж: 12 лет 6 мес.
Сообщений: 2
Ratio: 0.558
100%
russia.gif
а нет случаем не у кого: ремонт с зусом.советы мэйбл,а то дитя просит а найти ни где не могу
spacymind
 
Стаж: 13 лет
Сообщений: 139
Ratio: 16.052
100%
Откуда: СПБ
Совершенно гениальнейший мультик как для взрослых так и для детей, большое спасибо!)
Xander34V
Стаж: 11 лет 6 мес.
Сообщений: 4
Ratio: 0.595
12.36%
И субтитры русские есть? Встаю на раздачу.

Добавлено спустя 1 час 28 минут 53 секунды:

Русские субтитры только на первую серию. Зачем так людей обманывать?
medik495
Стаж: 11 лет 5 мес.
Сообщений: 353
Ratio: 7.327
100%
ussr.gif
Спасибо за серию как же долго ждал. Мульт зачётный.
vladzek
Стаж: 11 лет 11 мес.
Сообщений: 17
Ratio: 2.641
3.81%
А когда будет озвучка от канала "Дисней" (студия "Кириллица")? 5 серий и 7 серию озвучили, а остальные нет( может кто знает
usalmalay ®
Стаж: 8 лет
Сообщений: 27
Ratio: 62.678
Поблагодарили: 1231
9.59%
israel.gif
vladzek
на сколько я знаю они не по каноничному выпуску озвучивают. вроде одну серию пропустили, писали, что 4ую не выпустили. плюс некоторые сценки вырезают, из-за цензуры.
shark750
Стаж: 12 лет 3 мес.
Сообщений: 61
Ratio: 24.722
100%
Откуда: Прага
pirates.png
Кто знает, почему серии так долго выходят? Смотрел график выхода новых серий, так следующую ждать аж до 9 марта. Сериал шикарен, но смотреть по серии в месяц просто невыносимо.

_________________
RwlRwlRwlRwl
yakozhin
Стаж: 8 лет 2 мес.
Сообщений: 2
Ratio: 1.192
100%
мульт крут, но ждать долго , а так рад , что 10 серия вышла
usalmalay ®
Стаж: 8 лет
Сообщений: 27
Ratio: 62.678
Поблагодарили: 1231
9.59%
israel.gif
shark750
долгое производство и пост-продакшн каждой серии
как по мне, уж лучше так, чем все сразу и [ничто] выходит.
foralregka
Стаж: 7 лет 11 мес.
Сообщений: 12
Ratio: 4.946
37.5%
ukraine.gif
Спасибо,классный мульт! :D
FM_Nick
Стаж: 11 лет 6 мес.
Сообщений: 170
Ratio: 7.614
52.67%
usalmalay, 11 серию уже выложили
usalmalay ®
Стаж: 8 лет
Сообщений: 27
Ratio: 62.678
Поблагодарили: 1231
9.59%
israel.gif
FM_Nick
работы много. еле успевал выспаться. выдались лишние 15минут, выложил. надеюсь больше такой задержки не будет)
FM_Nick
Стаж: 11 лет 6 мес.
Сообщений: 170
Ratio: 7.614
52.67%
usalmalay, спасибо, я на раздаче, постоянно, как могу
Показать сообщения:   
Начать новую тему   Ответить на тему    Торрент-трекер NNM-Club -> Мультфильмы -> Зарубежные Мультсериалы Часовой пояс: GMT + 3
Страницы:  1, 2, 3, 4, 5, 6  След.
Страница 1 из 6