Классический форум-трекер
canvas not supported
Нас вместе: 4 231 968

Побег из Шоушенка / The Shawshank Redemption (1994) BDRip [H.264]


 
 
RSS
Начать новую тему   Ответить на тему    Торрент-трекер NNM-Club -> Классика кино и Старые фильмы до 90-х -> Зарубежная Классика (SD)
Автор Сообщение
Маrilуn Моnrое ®
Стаж: 14 лет 2 мес.
Сообщений: 1455
Ratio: 74.855
Поблагодарили: 224160
100%
Откуда: Южный Урал™
ussr.gif
Побег из Шоушенка / The Shawshank Redemption (1994) BDRip [H.264]
« Страх - это кандалы. Надежда - это свобода »

Год выпуска: 1994
Производство: США | Castle Rock Entertainment
Жанр: Драма, Криминал

Режиссер: Фрэнк Дарабонт
Продюсер: Ники Марвин, Лиз Глоцер, Дэвид В. Лестер
Актеры: Тим Роббинс, Морган Фриман, Боб Гантон, Уильям Сэдлер, Клэнси Браун, Джил Беллоуз, Марк Ролстон, Джеймс Уитмор, Джеффри ДеМанн, Ларри Бранденбург, Нил Джунтоли, Брайан Либби, Дэвид Провэл, Джозеф Раньо

Описание фильма: Успешный банкир Энди Дюфрейн обвинен в убийстве собственной жены и ее любовника. Оказавшись в тюрьме под названием Шоушенк, он сталкивается с жестокостью и беззаконием, царящими по обе стороны решетки. Каждый, кто попадает в эти стены, становится их рабом до конца жизни. Но Энди, вооруженный живым умом и доброй душой, отказывается мириться с приговором судьбы и начинает разрабатывать невероятно дерзкий план своего освобождения.

Перевод: Профессиональный многоголосый, профессиональный двухголосый, авторский
Вид субтитров: Вшитые отключаемые
Язык субтитров: Русский, английский

Дата мировой премьеры: 10 сентября 1994
Дата выхода DVD релиза: 1 сентября 1999, «Videogram»
Дата выхода Blu-ray релиза: 27 августа 2009, «Союз-Видео»

Продолжительность: 02:22:33
Возраст 16+: Зрителям, достигшим 16 лет
Рейтинг MPAA R: Лицам до 17 лет обязательно присутствие взрослого

Качество видео: BDRip [H.264]
Видео: MPEG-4 AVC/H.264, 3500 Kbps, 1024 x 576
Аудио 1: Русский AC3 5.1, 384 Kbps, 48.0 KHz (Многоголосый закадровый) Киномания
Аудио 2: Русский AC3 5.1, 384 Kbps, 48.0 KHz (Многоголосый закадровый) СОЮЗ Видео
Аудио 3: Русский AC3 5.1, 384 Kbps, 48.0 KHz (Многоголосый закадровый) LDV
Аудио 4: Русский AC3 5.1, 384 Kbps, 48.0 KHz (Многоголосый закадровый) Videogram
Аудио 5: Русский AC3 5.1, 448 Kbps, 48.0 KHz (Двухголосый закадровый) Видеофильм
Аудио 6: Русский AC3 5.1, 448 Kbps, 48.0 KHz (Одноголосый закадровый) А. Гаврилов
Аудио 7: Русский AC3 5.1, 448 Kbps, 48.0 KHz (Одноголосый закадровый) Ю. Живов
Аудио 8: Русский AC3 5.1, 448 Kbps, 48.0 KHz (Одноголосый закадровый) В. Горчаков
Аудио 9: Русский AC3 5.1, 448 Kbps, 48.0 KHz (Одноголосый закадровый) Ю. Сербин
Аудио 10: Английский AC3 5.1, 640 Kbps, 48.0 KHz (Оригинал)
Общее
Полное имя : Побег из Шоушенка.mkv
Формат : Matroska
Версия формата : Version 1
Размер файла : 7,89 Гбайт
Продолжительность : 2 ч. 22 м.
Общий поток : 7921 Кбит/сек
Дата кодирования : UTC 2014-11-24 10:48:30
Программа кодирования : mkvmerge v2.4.1 ('Use Me') built on Dec 5 2008 18:30:05
Библиотека кодирования : libebml v0.7.7 + libmatroska v0.8.1

Видео
Идентификатор : 1
Формат : AVC
Формат/Информация : Advanced Video Codec
Профиль формата : High@L4.1
Параметр CABAC формата : Да
Параметр ReFrames формата : 10 кадров
Идентификатор кодека : V_MPEG4/ISO/AVC
Продолжительность : 2 ч. 22 м.
Битрейт : 3500 Кбит/сек
Ширина : 1024 пикселя
Высота : 576 пикселей
Соотношение сторон : 16:9
Режим частоты кадров : Постоянный
Частота кадров : 23,976 кадра/сек
Цветовое пространство : YUV
Субдискретизация насыщенности : 4:2:0
Битовая глубина : 8 бит
Тип развёртки : Прогрессивная
Бит/(Пиксели*Кадры) : 0.247
Размер потока : 3,33 Гбайт (42%)
Заголовок : Побег из Шоушенка (1994)
Библиотека кодирования : x264 core 142 r2431 ac76440
Настройки программы : cabac=1 / ref=10 / deblock=1:-3:-3 / analyse=0x3:0x133 / me=umh / subme=10 / psy=1 / psy_rd=1.00:0.10 / mixed_ref=1 / me_range=48 / chroma_me=1 / trellis=2 / 8x8dct=1 / cqm=0 / deadzone=21,11 / fast_pskip=0 / chroma_qp_offset=-3 / threads=6 / lookahead_threads=1 / sliced_threads=0 / nr=0 / decimate=1 / interlaced=0 / bluray_compat=0 / constrained_intra=0 / bframes=5 / b_pyramid=2 / b_adapt=2 / b_bias=0 / direct=3 / weightb=1 / open_gop=0 / weightp=2 / keyint=240 / keyint_min=22 / scenecut=40 / intra_refresh=0 / rc_lookahead=40 / rc=2pass / mbtree=1 / bitrate=3500 / ratetol=1.0 / qcomp=0.60 / qpmin=10 / qpmax=51 / qpstep=4 / cplxblur=20.0 / qblur=0.5 / ip_ratio=1.40 / aq=1:1.00
Язык : English

Аудио #1
Идентификатор : 2
Формат : AC-3
Формат/Информация : Audio Coding 3
Расширение режима : CM (complete main)
Параметр Endianness формата : Big
Идентификатор кодека : A_AC3
Продолжительность : 2 ч. 22 м.
Вид битрейта : Постоянный
Битрейт : 384 Кбит/сек
Каналы : 6 каналов
Расположение каналов : Front: L C R, Side: L R, LFE
Частота : 48,0 КГц
Битовая глубина : 16 бит
Метод сжатия : С потерями
Размер потока : 392 Мбайт (5%)
Заголовок : AC3 (Многоголосый) Киномания
Язык : Russian

Аудио #2
Идентификатор : 3
Формат : AC-3
Формат/Информация : Audio Coding 3
Расширение режима : CM (complete main)
Параметр Endianness формата : Big
Идентификатор кодека : A_AC3
Продолжительность : 2 ч. 22 м.
Вид битрейта : Постоянный
Битрейт : 384 Кбит/сек
Каналы : 6 каналов
Расположение каналов : Front: L C R, Side: L R, LFE
Частота : 48,0 КГц
Битовая глубина : 16 бит
Метод сжатия : С потерями
Размер потока : 392 Мбайт (5%)
Заголовок : AC3 (Многоголосый) СОЮЗ Видео
Язык : Russian

Аудио #3
Идентификатор : 4
Формат : AC-3
Формат/Информация : Audio Coding 3
Расширение режима : CM (complete main)
Параметр Endianness формата : Big
Идентификатор кодека : A_AC3
Продолжительность : 2 ч. 22 м.
Вид битрейта : Постоянный
Битрейт : 384 Кбит/сек
Каналы : 6 каналов
Расположение каналов : Front: L C R, Side: L R, LFE
Частота : 48,0 КГц
Битовая глубина : 16 бит
Метод сжатия : С потерями
Размер потока : 392 Мбайт (5%)
Заголовок : AC3 (Многоголосый) LDV
Язык : Russian

Аудио #4
Идентификатор : 5
Формат : AC-3
Формат/Информация : Audio Coding 3
Расширение режима : CM (complete main)
Параметр Endianness формата : Big
Идентификатор кодека : A_AC3
Продолжительность : 2 ч. 22 м.
Вид битрейта : Постоянный
Битрейт : 384 Кбит/сек
Каналы : 6 каналов
Расположение каналов : Front: L C R, Side: L R, LFE
Частота : 48,0 КГц
Битовая глубина : 16 бит
Метод сжатия : С потерями
Размер потока : 392 Мбайт (5%)
Заголовок : AC3 (Многоголосый) Videogram
Язык : Russian

Аудио #5
Идентификатор : 6
Формат : AC-3
Формат/Информация : Audio Coding 3
Расширение режима : CM (complete main)
Параметр Endianness формата : Big
Идентификатор кодека : A_AC3
Продолжительность : 2 ч. 22 м.
Вид битрейта : Постоянный
Битрейт : 448 Кбит/сек
Каналы : 6 каналов
Расположение каналов : Front: L C R, Side: L R, LFE
Частота : 48,0 КГц
Битовая глубина : 16 бит
Метод сжатия : С потерями
Размер потока : 457 Мбайт (6%)
Заголовок : AC3 (Двухголосый) Видеофильм
Язык : Russian

Аудио #6
Идентификатор : 7
Формат : AC-3
Формат/Информация : Audio Coding 3
Расширение режима : CM (complete main)
Параметр Endianness формата : Big
Идентификатор кодека : A_AC3
Продолжительность : 2 ч. 22 м.
Вид битрейта : Постоянный
Битрейт : 448 Кбит/сек
Каналы : 6 каналов
Расположение каналов : Front: L C R, Side: L R, LFE
Частота : 48,0 КГц
Битовая глубина : 16 бит
Метод сжатия : С потерями
Размер потока : 457 Мбайт (6%)
Заголовок : AC3 (Одноголосый) А. Гаврилов
Язык : Russian

Аудио #7
Идентификатор : 8
Формат : AC-3
Формат/Информация : Audio Coding 3
Расширение режима : CM (complete main)
Параметр Endianness формата : Big
Идентификатор кодека : A_AC3
Продолжительность : 2 ч. 22 м.
Вид битрейта : Постоянный
Битрейт : 448 Кбит/сек
Каналы : 6 каналов
Расположение каналов : Front: L C R, Side: L R, LFE
Частота : 48,0 КГц
Битовая глубина : 16 бит
Метод сжатия : С потерями
Размер потока : 457 Мбайт (6%)
Заголовок : AC3 (Одноголосый) Ю. Живов
Язык : Russian

Аудио #8
Идентификатор : 9
Формат : AC-3
Формат/Информация : Audio Coding 3
Расширение режима : CM (complete main)
Параметр Endianness формата : Big
Идентификатор кодека : A_AC3
Продолжительность : 2 ч. 22 м.
Вид битрейта : Постоянный
Битрейт : 448 Кбит/сек
Каналы : 6 каналов
Расположение каналов : Front: L C R, Side: L R, LFE
Частота : 48,0 КГц
Битовая глубина : 16 бит
Метод сжатия : С потерями
Размер потока : 457 Мбайт (6%)
Заголовок : AC3 (Одноголосый) В. Горчаков
Язык : Russian

Аудио #9
Идентификатор : 10
Формат : AC-3
Формат/Информация : Audio Coding 3
Расширение режима : CM (complete main)
Параметр Endianness формата : Big
Идентификатор кодека : A_AC3
Продолжительность : 2 ч. 22 м.
Вид битрейта : Постоянный
Битрейт : 448 Кбит/сек
Каналы : 6 каналов
Расположение каналов : Front: L C R, Side: L R, LFE
Частота : 48,0 КГц
Битовая глубина : 16 бит
Метод сжатия : С потерями
Размер потока : 457 Мбайт (6%)
Заголовок : AC3 (Одноголосый) Ю. Сербин
Язык : Russian

Аудио #10
Идентификатор : 11
Формат : AC-3
Формат/Информация : Audio Coding 3
Расширение режима : CM (complete main)
Параметр Endianness формата : Big
Идентификатор кодека : A_AC3
Продолжительность : 2 ч. 22 м.
Вид битрейта : Постоянный
Битрейт : 640 Кбит/сек
Каналы : 6 каналов
Расположение каналов : Front: L C R, Side: L R, LFE
Частота : 48,0 КГц
Битовая глубина : 16 бит
Метод сжатия : С потерями
Размер потока : 653 Мбайт (8%)
Заголовок : AC3 (Оригинал)
Язык : English

Текст #1
Идентификатор : 12
Формат : UTF-8
Идентификатор кодека : S_TEXT/UTF8
Идентификатор кодека/Информация : UTF-8 Plain Text
Заголовок : Русские
Язык : Russian

Текст #2
Идентификатор : 13
Формат : UTF-8
Идентификатор кодека : S_TEXT/UTF8
Идентификатор кодека/Информация : UTF-8 Plain Text
Заголовок : Английские
Язык : English
Съемки проходили в Мэнсфилдской исправительной колонии, что в штате Огайо. Тюрьма находилась в таком плачевном состоянии, что пришлось потратить немало бюджетных средств на приведение её в должный вид.
Стивен Кинг согласился продать права на свое произведение практически даром, т.к. с Фрэнком их связывает давняя крепкая дружба. Произошло это после того, как Фрэнк довольно успешно экранизировал рассказ Кинга «Леди в комнате». С тех пор они практически не виделись, но, тем не менее, вели активную переписку. Встреча произошла лишь после того, как Фрэнк проявил недюжий интерес к «Шоушенку».
Американское общество защиты животных выступило с критикой в адрес фильма, в котором единственным представителем фауны стал ворон старика Брукса. В картине есть сцена кормления птицы червяком, найденном во время обеда в тарелке главного героя фильма. Общество настояло на том, чтобы была использована уже мертвая личинка, погибшая своей естественной смертью. После того, как такая особь была найдена, сцену отсняли.
Зритель без сомнения заметит некоторые совпадения с романом Александра Дюма «Граф Монте-Кристо». Кроме того, в контексте фильма упоминается и сама книга великого писателя. Так же как и в «Шоушенке», герой романа Дюма попадает в длительное заточение, и, совершив довольно смелый побег, обретает сокровище, которое он нашел в месте своего заточения.
Роль Томми Уильямса изначально была написана под Брэда Питта.
Фильм посвящен бывшему агенту режиссера Фрэнка Дарабонта, в свое время оказавшему немалую помощь в восхождении Фрэнка по Голливудской лестнице.
Картина 1946 года с участием Риты Хэйуорт, которую смотрели заключенные, носит название «Гильда».
Начальник тюрьмы Нортон насвистывает гимн «Eine feste Burg ist unser Gott», название которого переводится примерно так: «Могучая крепость и есть наш бог».
Фотографии молодого Моргана Фримана на документах на самом деле являются фотографиями его сына, Альфонсо Фримана. Кстати, Альфонсо можно заметить в одном из эпизодов картины.
Несмотря на то, что в кинотеатрах фильм не собрал больших денег, он стал одним из самых кассовых релизов на видео, а впоследствии и на DVD.
При активном содействии Энди Дюфрейна заключенные получили возможность попить холодного пива под названием Stroh’s.
Фильм посвящён Аллену Грину (Allen Greene) - близкому другу режиссёра. Аллен Грин скончался от проблем, связанных со СПИДом, незадолго до выхода фильма в свет.
Бывший начальник Мэнсфилдской тюрьмы, где проходили натурные съёмки фильма, Деннис Бейкер - в роли пожилого заключённого, сидящего в тюремном автобусе позади Томми Уильямса.
Оригинальный рассказ Стивена Кинга был, по словам самого писателя, кульминацией всех его впечатлений от различных тюремных фильмов, которые он смотрел в детстве.
Сценарий Фрэнка Дарабонта очень понравился другому режиссёру, успешно экранизировавшему произведения Стивена Кинга, Робу Райнеру, постановщику ностальгической драмы «Останься со мной» (1986) и психологического триллера «Мизери» (1990). Райнер был так захвачен материалом, что предложил Дарабонту $2.5 млн за права на сценарий и постановку фильма. Дарабонт серьёзно обдумал предложение, но в конечном счёте решил, что для него этот проект - «шанс сделать что-то действительно великое», и поставил фильм сам.
Роб Райнер предполагал на роли Реда и Энди Дюфрейна соответственно Харрисона Форда и Тома Круза.
Роль Энди Дюфрейна изначально предложили Тому Хэнксу. Он очень заинтересовался, но не смог принять предложение, из-за того что уже был занят в проекте «Форрест Гамп» (1994). Впоследстии Том Хэнкс снялся в главной роли в тюремной драме Фрэнка Дарабонта «Зелёная миля» (1999), также поставленной по роману Стивена Кинга.
Роль Энди Дюфрейна также предлагали Кевину Костнеру, но актёр отказался от предложения, о чем впоследствии сильно жалел.
В оригинальном рассказе Стивена Кинга Ред - ирландец. Несмотря на то, что в экранизации роль Реда сыграл чернокожий Морган Фриман, было решено оставить в фильме реплику Реда «Может быть, потому что я - ирландец», как удачную шутку.
Несмотря на то что почти все жители города Мэнсфилда изъявили желание принять участие в массовых сценах фильма, большинство жителей оказались слишком заняты своей работой и не смогли сниматься. Массовку пришлось набирать в местной богадельне, причём некоторые из её обитателей были бывшими зеками.
Когда мы видим на экране крупные планы рук Энди Дюфрейна, когда в начале фильма он заряжает револьвер, а также позже, когда Энди вырезает своё имя на стене своей камеры, это на самом деле руки режиссёра Фрэнка Дарабонта, а не актёра Тима Роббинса. Эти крупные планы были отсняты в процессе постпроизводства фильма и вставлены в уже отснятый материал.
Номер камеры Реда - 237. Эти же цифры фигурируют в обеих экранизациях романа Стивена Кинга «Сияние» (кинофильм 1980 года и мини-сериал 1997 года) - там это номер комнаты отеля, в которой обитает призрак женщины. Также эти цифры появляются в фильме «Останься со мной» (1986), снятом по рассказу Стивена Кинга «Тело», там это сумма мелочи, собранной четырьмя юными героями ($2.37).
На стене в камере Энди Дюфрейна появляется портрет Альберта Эйнштейна. Это намёк на то, что исполнитель роли Энди Дюфрейна Тим Роббинс параллельно снимался в романтической комедии «Коэффициент интеллекта» (1994), где одним из главных героев был Альберт Эйнштейн (в исполнении Уолтера Мэттау).
Двое из заключённых Шоушенка носят имена Хейвуд и Флойд. Это отсылка к трилогии Артура Кларка «Космическая одиссея», связующим героем которой является доктор Хейвуд Флойд.
Мексиканское райское местечко Зихуатанехо действительно существует. Это туристский курортный город на тихоокеанском побережье мексиканского штата Герреро.
Тюремный номер Энди Дюфрейна - 37927.
В оригинальной повести Стивена Кинга главного героя зовут Энди Дюфресн.

Скриншоты:
[NNM-Club.me]_Pobeg iz SHoushenka.mkv.torrent
 Торрент: Платиновая раздача  Зарегистрирован
 
Скачать


Примагнититься
 Зарегистрирован:   24 Ноя 2014 15:46:52
 Размер:   7.89 GB  (
 Рейтинг:   5 (Голосов: 95)
 Поблагодарили:   184
 Проверка:   Оформление проверено модератором 26 Ноя 2014 02:15:33
Как cкачать  ·  Как раздать  ·  Правильно оформить  ·  Поднять ратио!  
relax57
Стаж: 14 лет 2 мес.
Сообщений: 172
Ratio: 30.697
100%
russia.gif
Спасибо зарелиз, пересмотрю от души. Как же фильм хорош
антонович
Стаж: 10 лет 6 мес.
Сообщений: 22
Ratio: 7.482
100%
Откуда: Минск
belarus.gif
Фильм, который действительно нужно посмотреть. Спасибо.
sergio1975
Стаж: 12 лет 8 мес.
Сообщений: 1591
Ratio: 6.487
100%
Откуда: Новосибирск
russia.gif
один из немногих случаев,когда экранизация Кинга не хуже книги.5+ из 5
piliq
Стаж: 10 лет 10 мес.
Сообщений: 46
Ratio: 115.829
32.58%
ukraine.gif
Не забудьте, что он №1 в ТОР 250 на IMDB... :подмигивание:
Артем Ивочкин
 
Стаж: 13 лет 3 мес.
Сообщений: 974
Ratio: 47.702
Поблагодарили: 5483
100%
russia.gif
Фильм хорош, что и говорить. 5 из 5, 10 из 10.

_________________
с уважением.
Показать сообщения:   
Начать новую тему   Ответить на тему    Торрент-трекер NNM-Club -> Классика кино и Старые фильмы до 90-х -> Зарубежная Классика (SD) Часовой пояс: GMT + 3
Страница 1 из 1